  0
SECTION
  2
HEADER
  9
$ACADVER
  1
AC1014
  9
$ACADMAINTVER
 70
     9
  9
$DWGCODEPAGE
  3
ANSI_1250
  9
$INSBASE
 10
0.0
 20
0.0
 30
0.0
  9
$EXTMIN
 10
-23.726742224863
 20
-20.48257828412842
 30
0.0
  9
$EXTMAX
 10
138.0
 20
139.0919917127799
 30
0.0
  9
$LIMMIN
 10
0.0
 20
0.0
  9
$LIMMAX
 10
12.0
 20
9.0
  9
$ORTHOMODE
 70
     0
  9
$REGENMODE
 70
     1
  9
$FILLMODE
 70
     1
  9
$QTEXTMODE
 70
     0
  9
$MIRRTEXT
 70
     0
  9
$DRAGMODE
 70
     2
  9
$LTSCALE
 40
1.0
  9
$OSMODE
 70
 15359
  9
$ATTMODE
 70
     1
  9
$TEXTSIZE
 40
0.2
  9
$TRACEWID
 40
0.05
  9
$TEXTSTYLE
  7
STANDARD
  9
$CLAYER
  8
0
  9
$CELTYPE
  6
BYLAYER
  9
$CECOLOR
 62
   256
  9
$CELTSCALE
 40
1.0
  9
$DELOBJ
 70
     1
  9
$DISPSILH
 70
     0
  9
$DIMSCALE
 40
1.0
  9
$DIMASZ
 40
0.18
  9
$DIMEXO
 40
0.0625
  9
$DIMDLI
 40
0.38
  9
$DIMRND
 40
0.0
  9
$DIMDLE
 40
0.0
  9
$DIMEXE
 40
0.18
  9
$DIMTP
 40
0.0
  9
$DIMTM
 40
0.0
  9
$DIMTXT
 40
0.18
  9
$DIMCEN
 40
0.09
  9
$DIMTSZ
 40
0.0
  9
$DIMTOL
 70
     0
  9
$DIMLIM
 70
     0
  9
$DIMTIH
 70
     1
  9
$DIMTOH
 70
     1
  9
$DIMSE1
 70
     0
  9
$DIMSE2
 70
     0
  9
$DIMTAD
 70
     0
  9
$DIMZIN
 70
     0
  9
$DIMBLK
  1

  9
$DIMASO
 70
     1
  9
$DIMSHO
 70
     1
  9
$DIMPOST
  1

  9
$DIMAPOST
  1

  9
$DIMALT
 70
     0
  9
$DIMALTD
 70
     2
  9
$DIMALTF
 40
25.4
  9
$DIMLFAC
 40
1.0
  9
$DIMTOFL
 70
     0
  9
$DIMTVP
 40
0.0
  9
$DIMTIX
 70
     0
  9
$DIMSOXD
 70
     0
  9
$DIMSAH
 70
     0
  9
$DIMBLK1
  1

  9
$DIMBLK2
  1

  9
$DIMSTYLE
  2
STANDARD
  9
$DIMCLRD
 70
     0
  9
$DIMCLRE
 70
     0
  9
$DIMCLRT
 70
     0
  9
$DIMTFAC
 40
1.0
  9
$DIMGAP
 40
0.09
  9
$DIMJUST
 70
     0
  9
$DIMSD1
 70
     0
  9
$DIMSD2
 70
     0
  9
$DIMTOLJ
 70
     1
  9
$DIMTZIN
 70
     0
  9
$DIMALTZ
 70
     0
  9
$DIMALTTZ
 70
     0
  9
$DIMFIT
 70
     5
  9
$DIMUPT
 70
     0
  9
$DIMUNIT
 70
     2
  9
$DIMDEC
 70
     4
  9
$DIMTDEC
 70
     4
  9
$DIMALTU
 70
     2
  9
$DIMALTTD
 70
     2
  9
$DIMTXSTY
  7
STANDARD
  9
$DIMAUNIT
 70
     0
  9
$LUNITS
 70
     2
  9
$LUPREC
 70
     4
  9
$SKETCHINC
 40
0.1
  9
$FILLETRAD
 40
0.6968703693801268
  9
$AUNITS
 70
     0
  9
$AUPREC
 70
     0
  9
$MENU
  1
.
  9
$ELEVATION
 40
0.0
  9
$PELEVATION
 40
0.0
  9
$THICKNESS
 40
0.0
  9
$LIMCHECK
 70
     0
  9
$CHAMFERA
 40
0.0
  9
$CHAMFERB
 40
0.0
  9
$CHAMFERC
 40
0.0
  9
$CHAMFERD
 40
0.0
  9
$SKPOLY
 70
     0
  9
$TDCREATE
 40
2452643.105050926
  9
$TDUPDATE
 40
2457087.375039757
  9
$TDINDWG
 40
0.5289589931
  9
$TDUSRTIMER
 40
2457087.332568542
  9
$USRTIMER
 70
     1
  9
$ANGBASE
 50
0.0
  9
$ANGDIR
 70
     0
  9
$PDMODE
 70
     0
  9
$PDSIZE
 40
0.0
  9
$PLINEWID
 40
0.0
  9
$COORDS
 70
     2
  9
$SPLFRAME
 70
     0
  9
$SPLINETYPE
 70
     6
  9
$SPLINESEGS
 70
     8
  9
$ATTDIA
 70
     0
  9
$ATTREQ
 70
     1
  9
$HANDLING
 70
     1
  9
$HANDSEED
  5
A0C
  9
$SURFTAB1
 70
     6
  9
$SURFTAB2
 70
     6
  9
$SURFTYPE
 70
     6
  9
$SURFU
 70
     6
  9
$SURFV
 70
     6
  9
$UCSNAME
  2

  9
$UCSORG
 10
0.0
 20
0.0
 30
0.0
  9
$UCSXDIR
 10
1.0
 20
0.0
 30
0.0
  9
$UCSYDIR
 10
0.0
 20
1.0
 30
0.0
  9
$PUCSNAME
  2

  9
$PUCSORG
 10
0.0
 20
0.0
 30
0.0
  9
$PUCSXDIR
 10
1.0
 20
0.0
 30
0.0
  9
$PUCSYDIR
 10
0.0
 20
1.0
 30
0.0
  9
$USERI1
 70
     0
  9
$USERI2
 70
     0
  9
$USERI3
 70
     0
  9
$USERI4
 70
     0
  9
$USERI5
 70
     0
  9
$USERR1
 40
0.0
  9
$USERR2
 40
0.0
  9
$USERR3
 40
0.0
  9
$USERR4
 40
0.0
  9
$USERR5
 40
0.0
  9
$WORLDVIEW
 70
     1
  9
$SHADEDGE
 70
     3
  9
$SHADEDIF
 70
    70
  9
$TILEMODE
 70
     0
  9
$MAXACTVP
 70
    64
  9
$PINSBASE
 10
0.0
 20
0.0
 30
0.0
  9
$PLIMCHECK
 70
     0
  9
$PEXTMIN
 10
1.05
 20
0.7999999999999998
 30
0.0
  9
$PEXTMAX
 10
9.45
 20
7.2
 30
0.0
  9
$PLIMMIN
 10
0.8500000000000006
 20
0.5999999999999998
  9
$PLIMMAX
 10
9.650000000000002
 20
7.4
  9
$UNITMODE
 70
     0
  9
$VISRETAIN
 70
     1
  9
$PLINEGEN
 70
     0
  9
$PSLTSCALE
 70
     1
  9
$TREEDEPTH
 70
  3020
  9
$PICKSTYLE
 70
     0
  9
$CMLSTYLE
  2
STANDARD
  9
$CMLJUST
 70
     0
  9
$CMLSCALE
 40
1.0
  9
$PROXYGRAPHICS
 70
     1
  9
$MEASUREMENT
 70
     0
  0
ENDSEC
  0
SECTION
  2
CLASSES
  0
CLASS
  1
ACDBDICTIONARYWDFLT
  2
AcDbDictionaryWithDefault
  3
ObjectDBX Classes
 90
        0
280
     0
281
     0
  0
CLASS
  1
ACDBPLACEHOLDER
  2
AcDbPlaceHolder
  3
ObjectDBX Classes
 90
        0
280
     0
281
     0
  0
CLASS
  1
LAYOUT
  2
AcDbLayout
  3
ObjectDBX Classes
 90
        0
280
     0
281
     0
  0
CLASS
  1
DICTIONARYVAR
  2
AcDbDictionaryVar
  3
ObjectDBX Classes
 90
        0
280
     0
281
     0
  0
CLASS
  1
TABLESTYLE
  2
AcDbTableStyle
  3
ObjectDBX Classes
 90
     4095
280
     0
281
     0
  0
CLASS
  1
MATERIAL
  2
AcDbMaterial
  3
ObjectDBX Classes
 90
     1153
280
     0
281
     0
  0
CLASS
  1
VISUALSTYLE
  2
AcDbVisualStyle
  3
ObjectDBX Classes
 90
     4095
280
     0
281
     0
  0
CLASS
  1
SCALE
  2
AcDbScale
  3
ObjectDBX Classes
 90
     1153
280
     0
281
     0
  0
CLASS
  1
CELLSTYLEMAP
  2
AcDbCellStyleMap
  3
ObjectDBX Classes
 90
     1152
280
     0
281
     0
  0
CLASS
  1
RASTERVARIABLES
  2
AcDbRasterVariables
  3
ISM
 90
        0
280
     0
281
     0
  0
CLASS
  1
DIMASSOC
  2
AcDbDimAssoc
  3
"AcDbDimAssoc|Product Desc:     AcDim ARX App For Dimension|Company:          Autodesk, Inc.|WEB Address:      www.autodesk.com"
 90
        0
280
     0
281
     0
  0
CLASS
  1
SUN
  2
AcDbSun
  3
SCENEOE
 90
     1153
280
     0
281
     0
  0
CLASS
  1
XRECORD
  2
AcDbXrecord
  3
ObjectDBX Classes
 90
        0
280
     0
281
     0
  0
CLASS
  1
LWPOLYLINE
  2
AcDbPolyline
  3
ObjectDBX Classes
 90
        0
280
     0
281
     1
  0
CLASS
  1
HATCH
  2
AcDbHatch
  3
ObjectDBX Classes
 90
        0
280
     0
281
     1
  0
ENDSEC
  0
SECTION
  2
TABLES
  0
TABLE
  2
VPORT
  5
8
330
0
100
AcDbSymbolTable
 70
     1
  0
VPORT
  5
94
330
8
100
AcDbSymbolTableRecord
100
AcDbViewportTableRecord
  2
*ACTIVE
 70
     0
 10
0.0
 20
0.0
 11
1.0
 21
1.0
 12
97.01862808598942
 22
80.30731597139237
 13
0.0
 23
0.0
 14
0.5
 24
0.5
 15
0.5
 25
0.5
 16
0.0
 26
0.0
 36
1.0
 17
-27.66959356598075
 27
-19.53870295786184
 37
0.0
 40
183.3662046540978
 41
1.145985401459854
 42
50.0
 43
0.0
 44
0.0
 50
0.0
 51
0.0
 71
    16
 72
  1000
 73
     1
 74
     3
 75
     0
 76
     0
 77
     0
 78
     0
  0
ENDTAB
  0
TABLE
  2
LTYPE
  5
5
330
0
100
AcDbSymbolTable
 70
     2
  0
LTYPE
  5
14
330
5
100
AcDbSymbolTableRecord
100
AcDbLinetypeTableRecord
  2
BYBLOCK
 70
     0
  3

 72
    65
 73
     0
 40
0.0
  0
LTYPE
  5
15
330
5
100
AcDbSymbolTableRecord
100
AcDbLinetypeTableRecord
  2
BYLAYER
 70
     0
  3

 72
    65
 73
     0
 40
0.0
  0
LTYPE
  5
16
330
5
100
AcDbSymbolTableRecord
100
AcDbLinetypeTableRecord
  2
CONTINUOUS
 70
     0
  3
Solid line
 72
    65
 73
     0
 40
0.0
  0
LTYPE
  5
8F3
330
5
100
AcDbSymbolTableRecord
100
AcDbLinetypeTableRecord
  2
HIDDEN
 70
     0
  3
 Hidden _ _ _ _ _ _ _ _ _ _ _ _ _ _ _ _ _ _ _ _
 72
    65
 73
     2
 40
0.375
 49
0.25
 74
     0
 49
-0.125
 74
     0
  0
ENDTAB
  0
TABLE
  2
LAYER
  5
2
102
{ACAD_XDICTIONARY
360
799
102
}
330
0
100
AcDbSymbolTable
 70
     4
  0
LAYER
  5
10
330
2
100
AcDbSymbolTableRecord
100
AcDbLayerTableRecord
  2
0
 70
     0
 62
     7
  6
CONTINUOUS
  0
LAYER
  5
101
330
2
100
AcDbSymbolTableRecord
100
AcDbLayerTableRecord
  2
DEFPOINTS
 70
     0
 62
     7
  6
CONTINUOUS
  0
LAYER
  5
79C
330
2
100
AcDbSymbolTableRecord
100
AcDbLayerTableRecord
  2
OBRYS
 70
     0
 62
     5
  6
CONTINUOUS
1001
ACAECLAYERSTANDARD
1000

1000

  0
LAYER
  5
79E
330
2
100
AcDbSymbolTableRecord
100
AcDbLayerTableRecord
  2
KOTY
 70
     0
 62
     1
  6
CONTINUOUS
1001
ACAECLAYERSTANDARD
1000

1000

  0
ENDTAB
  0
TABLE
  2
STYLE
  5
3
330
0
100
AcDbSymbolTable
 70
     1
  0
STYLE
  5
11
330
3
100
AcDbSymbolTableRecord
100
AcDbTextStyleTableRecord
  2
STANDARD
 70
     0
 40
0.0
 41
1.0
 50
0.0
 71
     0
 42
0.2
  3
arial.ttf
  4

1001
ACAD
1000
Arial
1071
        0
  0
ENDTAB
  0
TABLE
  2
VIEW
  5
6
330
0
100
AcDbSymbolTable
 70
     0
  0
ENDTAB
  0
TABLE
  2
UCS
  5
7
330
0
100
AcDbSymbolTable
 70
     0
  0
ENDTAB
  0
TABLE
  2
APPID
  5
9
330
0
100
AcDbSymbolTable
 70
     2
  0
APPID
  5
12
330
9
100
AcDbSymbolTableRecord
100
AcDbRegAppTableRecord
  2
ACAD
 70
     0
  0
APPID
  5
79D
330
9
100
AcDbSymbolTableRecord
100
AcDbRegAppTableRecord
  2
ACAECLAYERSTANDARD
 70
     0
  0
ENDTAB
  0
TABLE
  2
DIMSTYLE
  5
A
330
0
100
AcDbSymbolTable
 70
     1
  0
DIMSTYLE
105
27
102
{ACAD_REACTORS
330
54F
330
56F
330
57F
330
5AF
330
5BF
330
5DA
330
5EA
330
724
330
761
330
93A
102
}
330
A
100
AcDbSymbolTableRecord
100
AcDbDimStyleTableRecord
  2
STANDARD
 70
     0
  3

  4

  5

  6

  7

 40
1.0
 41
0.18
 42
0.0625
 43
0.38
 44
0.18
 45
0.0
 46
0.0
 47
0.0
 48
0.0
140
0.18
141
0.09
142
0.0
143
25.4
144
1.0
145
0.0
146
1.0
147
0.09
 71
     0
 72
     0
 73
     1
 74
     1
 75
     0
 76
     0
 77
     0
 78
     0
170
     0
171
     2
172
     0
173
     0
174
     0
175
     0
176
     0
177
     0
178
     0
270
     2
271
     4
272
     4
273
     2
274
     2
340
11
275
     0
280
     0
281
     0
282
     0
283
     1
284
     0
285
     0
286
     0
287
     3
288
     0
  0
ENDTAB
  0
TABLE
  2
BLOCK_RECORD
  5
1
330
0
100
AcDbSymbolTable
 70
    21
  0
BLOCK_RECORD
  5
1F
330
1
100
AcDbSymbolTableRecord
100
AcDbBlockTableRecord
  2
*MODEL_SPACE
  0
BLOCK_RECORD
  5
947
330
1
100
AcDbSymbolTableRecord
100
AcDbBlockTableRecord
  2
*PAPER_SPACE
  0
BLOCK_RECORD
  5
2F1
330
1
100
AcDbSymbolTableRecord
100
AcDbBlockTableRecord
  2
KRAJ
  0
BLOCK_RECORD
  5
30C
330
1
100
AcDbSymbolTableRecord
100
AcDbBlockTableRecord
  2
FRONT
  0
BLOCK_RECORD
  5
542
330
1
100
AcDbSymbolTableRecord
100
AcDbBlockTableRecord
  2
*D2
  0
BLOCK_RECORD
  5
552
330
1
100
AcDbSymbolTableRecord
100
AcDbBlockTableRecord
  2
*D3
  0
BLOCK_RECORD
  5
562
330
1
100
AcDbSymbolTableRecord
100
AcDbBlockTableRecord
  2
*D4
  0
BLOCK_RECORD
  5
572
330
1
100
AcDbSymbolTableRecord
100
AcDbBlockTableRecord
  2
*D5
  0
BLOCK_RECORD
  5
582
330
1
100
AcDbSymbolTableRecord
100
AcDbBlockTableRecord
  2
*D6
  0
BLOCK_RECORD
  5
5B2
330
1
100
AcDbSymbolTableRecord
100
AcDbBlockTableRecord
  2
*D7
  0
BLOCK_RECORD
  5
5C2
330
1
100
AcDbSymbolTableRecord
100
AcDbBlockTableRecord
  2
*D8
  0
BLOCK_RECORD
  5
5DD
330
1
100
AcDbSymbolTableRecord
100
AcDbBlockTableRecord
  2
*D9
  0
BLOCK_RECORD
  5
5ED
330
1
100
AcDbSymbolTableRecord
100
AcDbBlockTableRecord
  2
*D10
  0
BLOCK_RECORD
  5
607
330
1
100
AcDbSymbolTableRecord
100
AcDbBlockTableRecord
  2
_CLOSEDBLANK
  0
BLOCK_RECORD
  5
60D
330
1
100
AcDbSymbolTableRecord
100
AcDbBlockTableRecord
  2
_CLOSED
  0
BLOCK_RECORD
  5
614
330
1
100
AcDbSymbolTableRecord
100
AcDbBlockTableRecord
  2
_DOT
  0
BLOCK_RECORD
  5
619
330
1
100
AcDbSymbolTableRecord
100
AcDbBlockTableRecord
  2
_ARCHTICK
  0
BLOCK_RECORD
  5
764
330
1
100
AcDbSymbolTableRecord
100
AcDbBlockTableRecord
  2
*D15
  0
BLOCK_RECORD
  5
76E
330
1
100
AcDbSymbolTableRecord
100
AcDbBlockTableRecord
  2
*D16
  0
BLOCK_RECORD
  5
778
330
1
100
AcDbSymbolTableRecord
100
AcDbBlockTableRecord
  2
*D17
  0
BLOCK_RECORD
  5
918
330
1
100
AcDbSymbolTableRecord
100
AcDbBlockTableRecord
  2
*D18
  0
BLOCK_RECORD
  5
92B
330
1
100
AcDbSymbolTableRecord
100
AcDbBlockTableRecord
  2
*D19
  0
BLOCK_RECORD
  5
93B
330
1
100
AcDbSymbolTableRecord
100
AcDbBlockTableRecord
  2
*D20
  0
ENDTAB
  0
ENDSEC
  0
SECTION
  2
BLOCKS
  0
BLOCK
  5
20
330
1F
100
AcDbEntity
  8
0
100
AcDbBlockBegin
  2
*MODEL_SPACE
 70
     0
 10
0.0
 20
0.0
 30
0.0
  3
*MODEL_SPACE
  1

  0
ENDBLK
  5
21
330
1F
100
AcDbEntity
  8
0
100
AcDbBlockEnd
  0
BLOCK
  5
949
330
947
100
AcDbEntity
 67
     1
  8
0
100
AcDbBlockBegin
  2
*PAPER_SPACE
 70
     0
 10
0.0
 20
0.0
 30
0.0
  3
*PAPER_SPACE
  1

  0
ENDBLK
  5
94A
330
947
100
AcDbEntity
 67
     1
  8
0
100
AcDbBlockEnd
  0
BLOCK
  5
2F2
330
2F1
100
AcDbEntity
  8
0
100
AcDbBlockBegin
  2
KRAJ
 70
     0
 10
0.0
 20
0.0
 30
0.0
  3
KRAJ
  1
KRAJ
  0
LINE
  5
2F4
330
2F1
100
AcDbEntity
  8
0
100
AcDbLine
 10
23.17858802006699
 20
11.88396178886323
 30
0.0
 11
23.60596071879165
 21
11.63561481963468
 31
0.0
  0
LINE
  5
2F5
330
2F1
100
AcDbEntity
  8
0
100
AcDbLine
 10
28.08586695810881
 20
9.034769131708918
 30
0.0
 11
28.51846735840103
 21
8.783581802506982
 31
0.0
  0
LINE
  5
2F6
330
2F1
100
AcDbEntity
  8
0
100
AcDbLine
 10
23.17858802006699
 20
11.88396178886323
 30
0.0
 11
23.73102181544385
 21
12.83537554756782
 31
0.0
  0
LINE
  5
2F7
330
2F1
100
AcDbEntity
  8
0
100
AcDbLine
 10
28.51846735840103
 20
8.783581802506982
 30
0.0
 11
29.07081642752618
 21
9.73484964377808
 31
0.0
  0
LINE
  5
2F8
330
2F1
100
AcDbEntity
  8
0
100
AcDbLine
 10
27.83479919941555
 20
8.602374658403873
 30
0.0
 11
28.08586695810881
 21
9.034769131708918
 31
0.0
  0
LINE
  5
2F9
330
2F1
100
AcDbEntity
  8
0
100
AcDbLine
 10
23.35474539744931
 20
11.20330606154289
 30
0.0
 11
23.60581314151945
 21
11.63570050966369
 31
0.0
  0
LINE
  5
2FA
330
2F1
100
AcDbEntity
  8
0
100
AcDbLine
 10
23.73102181544385
 20
12.83537554756782
 30
0.0
 11
29.07081642752618
 21
9.73484964377808
 31
0.0
  0
ELLIPSE
  5
2FB
330
2F1
100
AcDbEntity
  8
0
100
AcDbEllipse
 10
26.40091912148502
 20
11.28511259567295
 30
0.0
 11
-1.039943320270123
 21
0.6038380569310341
 31
0.0
210
0.0
220
0.0
230
1.0
 40
0.6385440653482459
 41
6.283185307179586
 42
9.42477796076938
  0
LINE
  5
2FC
330
2F1
100
AcDbEntity
  8
0
100
AcDbLine
 10
24.60098340460934
 20
12.33023656031044
 30
0.0
 11
24.09875154992429
 21
11.46515194972255
 31
0.0
  0
LINE
  5
2FD
330
2F1
100
AcDbEntity
  8
0
100
AcDbLine
 10
28.20211116541818
 20
10.23925915080853
 30
0.0
 11
27.70001548530882
 21
9.374409098281191
 31
0.0
  0
LINE
  5
2FE
330
2F1
100
AcDbEntity
  8
0
100
AcDbLine
 10
27.70001548530882
 20
9.374409098281191
 30
0.0
 11
24.09875154992429
 21
11.46515194972255
 31
0.0
  0
ENDBLK
  5
2F3
330
2F1
100
AcDbEntity
  8
0
100
AcDbBlockEnd
  0
BLOCK
  5
30D
330
30C
100
AcDbEntity
  8
0
100
AcDbBlockBegin
  2
FRONT
 70
     0
 10
0.0
 20
0.0
 30
0.0
  3
FRONT
  1
FRONT
  0
LINE
  5
30F
330
30C
100
AcDbEntity
  8
0
100
AcDbLine
 10
124.7071067811866
 20
0.0
 30
0.0
 11
133.2928932188134
 21
0.0
 31
0.0
  0
LINE
  5
310
330
30C
100
AcDbEntity
  8
0
100
AcDbLine
 10
120.0
 20
8.1
 30
0.0
 11
138.0
 21
8.1
 31
0.0
  0
LINE
  5
311
330
30C
100
AcDbEntity
  8
0
100
AcDbLine
 10
123.15
 20
6.2
 30
0.0
 11
134.85
 21
6.2
 31
0.0
  0
LINE
  5
312
330
30C
100
AcDbEntity
  8
0
100
AcDbLine
 10
123.15
 20
6.2
 30
0.0
 11
121.95
 21
8.1
 31
0.0
  0
LINE
  5
313
330
30C
100
AcDbEntity
  8
0
100
AcDbLine
 10
134.85
 20
6.2
 30
0.0
 11
136.05
 21
8.1
 31
0.0
  0
LINE
  5
314
330
30C
100
AcDbEntity
  8
0
100
AcDbLine
 10
125.7071067811866
 20
1.0
 30
0.0
 11
132.2928932188134
 21
1.0
 31
0.0
  0
LINE
  5
315
330
30C
100
AcDbEntity
  8
0
100
AcDbLine
 10
125.0
 20
1.707106781186548
 30
0.0
 11
125.0
 21
6.2
 31
0.0
  0
LINE
  5
316
330
30C
100
AcDbEntity
  8
0
100
AcDbLine
 10
133.0
 20
1.707106781186548
 30
0.0
 11
133.0
 21
6.2
 31
0.0
  0
ARC
  5
317
330
30C
100
AcDbEntity
  8
0
100
AcDbCircle
 10
125.7071067811866
 20
1.707106781186548
 30
0.0
 40
0.707106781186548
100
AcDbArc
 50
180.0
 51
270.0
  0
ARC
  5
318
330
30C
100
AcDbEntity
  8
0
100
AcDbCircle
 10
132.2928932188134
 20
1.707106781186548
 30
0.0
 40
0.707106781186548
100
AcDbArc
 50
270.0
 51
359.9999999999998
  0
LINE
  5
319
330
30C
100
AcDbEntity
  8
0
100
AcDbLine
 10
121.7
 20
8.1
 30
0.0
 11
121.7
 21
5.207106781186549
 31
0.0
  0
LINE
  5
31A
330
30C
100
AcDbEntity
  8
0
100
AcDbLine
 10
125.0
 20
4.5
 30
0.0
 11
122.4071067811866
 21
4.500000000000001
 31
0.0
  0
ARC
  5
31B
330
30C
100
AcDbEntity
  8
0
100
AcDbCircle
 10
122.4071067811866
 20
5.207106781186549
 30
0.0
 40
0.707106781186548
100
AcDbArc
 50
180.0
 51
270.0
  0
LINE
  5
31C
330
30C
100
AcDbEntity
  8
0
100
AcDbLine
 10
136.3
 20
8.100000000000001
 30
0.0
 11
136.3
 21
5.207106781186541
 31
0.0
  0
LINE
  5
31D
330
30C
100
AcDbEntity
  8
0
100
AcDbLine
 10
133.0170014197672
 20
4.5
 30
0.0
 11
135.5928932188135
 21
4.5
 31
0.0
  0
ARC
  5
31E
330
30C
100
AcDbEntity
  8
0
100
AcDbCircle
 10
135.5928932188135
 20
5.207106781186548
 30
0.0
 40
0.7071067811865475
100
AcDbArc
 50
270.0
 51
359.9999999999993
  0
LINE
  5
31F
330
30C
100
AcDbEntity
  8
0
100
AcDbLine
 10
124.0
 20
4.5
 30
0.0
 11
124.0
 21
0.7071067811865479
 31
0.0
  0
LINE
  5
320
330
30C
100
AcDbEntity
  8
0
100
AcDbLine
 10
134.0
 20
4.5
 30
0.0
 11
134.0
 21
0.7071067811865479
 31
0.0
  0
ARC
  5
321
330
30C
100
AcDbEntity
  8
0
100
AcDbCircle
 10
133.2928932188134
 20
0.707106781186548
 30
0.0
 40
0.707106781186548
100
AcDbArc
 50
270.0
 51
359.9999999999998
  0
ARC
  5
322
330
30C
100
AcDbEntity
  8
0
100
AcDbCircle
 10
124.7071067811866
 20
0.7071067811865479
 30
0.0
 40
0.707106781186548
100
AcDbArc
 50
180.0
 51
270.0
  0
LINE
  5
323
330
30C
100
AcDbEntity
  8
0
100
AcDbLine
 10
120.0
 20
8.1
 30
0.0
 11
120.0
 21
90.1
 31
0.0
  0
LINE
  5
324
330
30C
100
AcDbEntity
  8
0
100
AcDbLine
 10
120.0
 20
90.1
 30
0.0
 11
138.0
 21
90.1
 31
0.0
  0
LINE
  5
325
330
30C
100
AcDbEntity
  8
0
100
AcDbLine
 10
138.0
 20
90.1
 30
0.0
 11
138.0
 21
8.1
 31
0.0
  0
LINE
  5
326
330
30C
100
AcDbEntity
  8
0
100
AcDbLine
 10
123.15
 20
91.99999999999999
 30
0.0
 11
121.95
 21
90.1
 31
0.0
  0
LINE
  5
327
330
30C
100
AcDbEntity
  8
0
100
AcDbLine
 10
123.15
 20
91.99999999999999
 30
0.0
 11
134.85
 21
91.99999999999999
 31
0.0
  0
LINE
  5
328
330
30C
100
AcDbEntity
  8
0
100
AcDbLine
 10
134.85
 20
91.99999999999999
 30
0.0
 11
136.05
 21
90.1
 31
0.0
  0
LINE
  5
329
330
30C
100
AcDbEntity
  8
0
100
AcDbLine
 10
120.0
 20
26.1
 30
0.0
 11
138.0
 21
26.1
 31
0.0
  0
LINE
  5
32A
330
30C
100
AcDbEntity
  8
0
100
AcDbLine
 10
120.0
 20
26.6
 30
0.0
 11
138.0
 21
26.6
 31
0.0
  0
LINE
  5
32B
330
30C
100
AcDbEntity
  8
0
100
AcDbLine
 10
120.0
 20
71.6
 30
0.0
 11
138.0
 21
71.6
 31
0.0
  0
LINE
  5
32C
330
30C
100
AcDbEntity
  8
0
100
AcDbLine
 10
120.0
 20
72.1
 30
0.0
 11
138.0
 21
72.1
 31
0.0
  0
LWPOLYLINE
  5
32D
330
30C
100
AcDbEntity
  8
0
100
AcDbPolyline
 90
        4
 70
     1
 43
0.0
 10
123.0
 20
54.2
 10
123.0
 20
59.89999999999999
 10
135.0
 20
59.89999999999999
 10
135.0
 20
54.2
  0
LINE
  5
32E
330
30C
100
AcDbEntity
  8
0
100
AcDbLine
 10
127.3
 20
26.1
 30
0.0
 11
127.3
 21
24.6
 31
0.0
  0
LINE
  5
32F
330
30C
100
AcDbEntity
  8
0
100
AcDbLine
 10
127.3
 20
24.6
 30
0.0
 11
129.0
 21
24.6
 31
0.0
  0
LINE
  5
330
330
30C
100
AcDbEntity
  8
0
100
AcDbLine
 10
129.0
 20
24.6
 30
0.0
 11
129.0
 21
26.1
 31
0.0
  0
LINE
  5
331
330
30C
100
AcDbEntity
  8
0
100
AcDbLine
 10
126.45
 20
26.1
 30
0.0
 11
126.45
 21
23.6
 31
0.0
  0
LINE
  5
332
330
30C
100
AcDbEntity
  8
0
100
AcDbLine
 10
126.45
 20
23.6
 30
0.0
 11
129.85
 21
23.6
 31
0.0
  0
LINE
  5
333
330
30C
100
AcDbEntity
  8
0
100
AcDbLine
 10
129.85
 20
23.6
 30
0.0
 11
129.85
 21
26.1
 31
0.0
  0
LINE
  5
334
330
30C
100
AcDbEntity
  8
0
100
AcDbLine
 10
126.45
 20
23.6
 30
0.0
 11
127.3
 21
24.6
 31
0.0
  0
LINE
  5
335
330
30C
100
AcDbEntity
  8
0
100
AcDbLine
 10
129.0
 20
24.6
 30
0.0
 11
129.85
 21
23.6
 31
0.0
  0
LINE
  5
336
330
30C
100
AcDbEntity
  8
0
100
AcDbLine
 10
127.3
 20
72.1
 30
0.0
 11
127.3
 21
73.6
 31
0.0
  0
LINE
  5
337
330
30C
100
AcDbEntity
  8
0
100
AcDbLine
 10
127.3
 20
73.6
 30
0.0
 11
129.0
 21
73.6
 31
0.0
  0
LINE
  5
338
330
30C
100
AcDbEntity
  8
0
100
AcDbLine
 10
129.0
 20
73.6
 30
0.0
 11
129.0
 21
72.1
 31
0.0
  0
LINE
  5
339
330
30C
100
AcDbEntity
  8
0
100
AcDbLine
 10
126.45
 20
72.1
 30
0.0
 11
126.45
 21
74.6
 31
0.0
  0
LINE
  5
33A
330
30C
100
AcDbEntity
  8
0
100
AcDbLine
 10
126.45
 20
74.6
 30
0.0
 11
129.85
 21
74.6
 31
0.0
  0
LINE
  5
33B
330
30C
100
AcDbEntity
  8
0
100
AcDbLine
 10
129.85
 20
74.6
 30
0.0
 11
129.85
 21
72.1
 31
0.0
  0
LINE
  5
33C
330
30C
100
AcDbEntity
  8
0
100
AcDbLine
 10
126.45
 20
74.6
 30
0.0
 11
127.3
 21
73.6
 31
0.0
  0
LINE
  5
33D
330
30C
100
AcDbEntity
  8
0
100
AcDbLine
 10
129.0
 20
73.6
 30
0.0
 11
129.85
 21
74.6
 31
0.0
  0
CIRCLE
  5
33E
330
30C
100
AcDbEntity
  8
0
100
AcDbCircle
 10
129.0
 20
16.85
 30
0.0
 40
3.2
  0
LINE
  5
33F
330
30C
100
AcDbEntity
  8
0
100
AcDbLine
 10
120.0
 20
11.7
 30
0.0
 11
138.0
 21
11.7
 31
0.0
  0
LINE
  5
340
330
30C
100
AcDbEntity
  8
0
100
AcDbLine
 10
120.0
 20
86.5
 30
0.0
 11
138.0
 21
86.5
 31
0.0
  0
LINE
  5
341
330
30C
100
AcDbEntity
  8
0
100
AcDbLine
 10
128.35
 20
18.20710678118655
 30
0.0
 11
128.35
 21
19.98328900677866
 31
0.0
  0
LINE
  5
342
330
30C
100
AcDbEntity
  8
0
100
AcDbLine
 10
128.35
 20
13.71671099322134
 30
0.0
 11
128.35
 21
15.49289321881345
 31
0.0
  0
LINE
  5
343
330
30C
100
AcDbEntity
  8
0
100
AcDbLine
 10
129.65
 20
18.20710678118655
 30
0.0
 11
129.65
 21
19.98328900677866
 31
0.0
  0
LINE
  5
344
330
30C
100
AcDbEntity
  8
0
100
AcDbLine
 10
129.65
 20
13.71671099322134
 30
0.0
 11
129.65
 21
15.49289321881345
 31
0.0
  0
ARC
  5
345
330
30C
100
AcDbEntity
  8
0
100
AcDbCircle
 10
127.6428932188135
 20
18.20710678118655
 30
0.0
 40
0.707106781186548
100
AcDbArc
 50
270.0
 51
0.0
  0
ARC
  5
346
330
30C
100
AcDbEntity
  8
0
100
AcDbCircle
 10
130.3571067811866
 20
18.20710678118655
 30
0.0
 40
0.707106781186548
100
AcDbArc
 50
180.0
 51
270.0
  0
ARC
  5
347
330
30C
100
AcDbEntity
  8
0
100
AcDbCircle
 10
130.3571067811866
 20
15.49289321881345
 30
0.0
 40
0.707106781186548
100
AcDbArc
 50
90.0
 51
180.0
  0
ARC
  5
348
330
30C
100
AcDbEntity
  8
0
100
AcDbCircle
 10
127.6428932188135
 20
15.49289321881345
 30
0.0
 40
0.707106781186548
100
AcDbArc
 50
0.0
 51
90.0
  0
LINE
  5
349
330
30C
100
AcDbEntity
  8
0
100
AcDbLine
 10
126.75
 20
16.2
 30
0.0
 11
126.75
 21
17.5
 31
0.0
  0
LINE
  5
34A
330
30C
100
AcDbEntity
  8
0
100
AcDbLine
 10
131.25
 20
16.2
 30
0.0
 11
131.25
 21
17.5
 31
0.0
  0
LINE
  5
34B
330
30C
100
AcDbEntity
  8
0
100
AcDbLine
 10
130.3571067811866
 20
16.2
 30
0.0
 11
131.2451978939826
 21
16.2
 31
0.0
  0
LINE
  5
34C
330
30C
100
AcDbEntity
  8
0
100
AcDbLine
 10
130.3571067811866
 20
17.5
 30
0.0
 11
131.2451978939826
 21
17.5
 31
0.0
  0
LINE
  5
34D
330
30C
100
AcDbEntity
  8
0
100
AcDbLine
 10
126.7548021060174
 20
17.5
 30
0.0
 11
127.6428932188135
 21
17.5
 31
0.0
  0
LINE
  5
34E
330
30C
100
AcDbEntity
  8
0
100
AcDbLine
 10
129.8571067811866
 20
17.70710678118655
 30
0.0
 11
130.3571067811866
 21
18.20710678118655
 31
0.0
  0
LINE
  5
34F
330
30C
100
AcDbEntity
  8
0
100
AcDbLine
 10
126.7548021060174
 20
16.2
 30
0.0
 11
127.6428932188135
 21
16.2
 31
0.0
  0
LINE
  5
350
330
30C
100
AcDbEntity
  8
0
100
AcDbLine
 10
129.8571067811866
 20
15.99289321881345
 30
0.0
 11
130.3571067811866
 21
15.49289321881345
 31
0.0
  0
LINE
  5
351
330
30C
100
AcDbEntity
  8
0
100
AcDbLine
 10
128.1428932188135
 20
17.70710678118655
 30
0.0
 11
127.6428932188135
 21
18.20710678118655
 31
0.0
  0
LINE
  5
352
330
30C
100
AcDbEntity
  8
0
100
AcDbLine
 10
128.1428932188135
 20
15.99289321881345
 30
0.0
 11
127.6428932188135
 21
15.49289321881345
 31
0.0
  0
CIRCLE
  5
353
330
30C
100
AcDbEntity
  8
0
100
AcDbCircle
 10
129.0
 20
16.85
 30
0.0
 40
0.7
  0
CIRCLE
  5
354
330
30C
100
AcDbEntity
  8
0
100
AcDbCircle
 10
129.0
 20
81.35
 30
0.0
 40
3.2
  0
LINE
  5
355
330
30C
100
AcDbEntity
  8
0
100
AcDbLine
 10
128.35
 20
78.21671099322133
 30
0.0
 11
128.35
 21
79.99289321881345
 31
0.0
  0
LINE
  5
356
330
30C
100
AcDbEntity
  8
0
100
AcDbLine
 10
128.35
 20
82.70710678118654
 30
0.0
 11
128.35
 21
84.48328900677866
 31
0.0
  0
LINE
  5
357
330
30C
100
AcDbEntity
  8
0
100
AcDbLine
 10
129.65
 20
78.21671099322133
 30
0.0
 11
129.65
 21
79.99289321881345
 31
0.0
  0
LINE
  5
358
330
30C
100
AcDbEntity
  8
0
100
AcDbLine
 10
129.65
 20
82.70710678118654
 30
0.0
 11
129.65
 21
84.48328900677865
 31
0.0
  0
ARC
  5
359
330
30C
100
AcDbEntity
  8
0
100
AcDbCircle
 10
127.6428932188135
 20
82.70710678118654
 30
0.0
 40
0.707106781186548
100
AcDbArc
 50
270.0
 51
0.0
  0
ARC
  5
35A
330
30C
100
AcDbEntity
  8
0
100
AcDbCircle
 10
130.3571067811866
 20
82.70710678118654
 30
0.0
 40
0.707106781186548
100
AcDbArc
 50
180.0
 51
270.0
  0
ARC
  5
35B
330
30C
100
AcDbEntity
  8
0
100
AcDbCircle
 10
130.3571067811866
 20
79.99289321881345
 30
0.0
 40
0.707106781186548
100
AcDbArc
 50
90.0
 51
180.0
  0
ARC
  5
35C
330
30C
100
AcDbEntity
  8
0
100
AcDbCircle
 10
127.6428932188135
 20
79.99289321881345
 30
0.0
 40
0.707106781186548
100
AcDbArc
 50
0.0
 51
90.0
  0
LINE
  5
35D
330
30C
100
AcDbEntity
  8
0
100
AcDbLine
 10
126.75
 20
80.69999999999999
 30
0.0
 11
126.75
 21
81.99999999999999
 31
0.0
  0
LINE
  5
35E
330
30C
100
AcDbEntity
  8
0
100
AcDbLine
 10
131.25
 20
80.69999999999999
 30
0.0
 11
131.25
 21
81.99999999999999
 31
0.0
  0
LINE
  5
35F
330
30C
100
AcDbEntity
  8
0
100
AcDbLine
 10
130.3571067811866
 20
80.69999999999999
 30
0.0
 11
131.2451978939826
 21
80.69999999999999
 31
0.0
  0
LINE
  5
360
330
30C
100
AcDbEntity
  8
0
100
AcDbLine
 10
130.3571067811866
 20
81.99999999999999
 30
0.0
 11
131.2451978939826
 21
81.99999999999999
 31
0.0
  0
LINE
  5
361
330
30C
100
AcDbEntity
  8
0
100
AcDbLine
 10
126.7548021060174
 20
81.99999999999999
 30
0.0
 11
127.6428932188135
 21
81.99999999999999
 31
0.0
  0
LINE
  5
362
330
30C
100
AcDbEntity
  8
0
100
AcDbLine
 10
129.8571067811866
 20
82.20710678118654
 30
0.0
 11
130.3571067811866
 21
82.70710678118654
 31
0.0
  0
LINE
  5
363
330
30C
100
AcDbEntity
  8
0
100
AcDbLine
 10
126.7548021060174
 20
80.69999999999999
 30
0.0
 11
127.6428932188135
 21
80.69999999999999
 31
0.0
  0
LINE
  5
364
330
30C
100
AcDbEntity
  8
0
100
AcDbLine
 10
129.8571067811866
 20
80.49289321881345
 30
0.0
 11
130.3571067811866
 21
79.99289321881345
 31
0.0
  0
LINE
  5
365
330
30C
100
AcDbEntity
  8
0
100
AcDbLine
 10
128.1428932188135
 20
82.20710678118654
 30
0.0
 11
127.6428932188135
 21
82.70710678118654
 31
0.0
  0
LINE
  5
366
330
30C
100
AcDbEntity
  8
0
100
AcDbLine
 10
128.1428932188135
 20
80.49289321881345
 30
0.0
 11
127.6428932188135
 21
79.99289321881345
 31
0.0
  0
CIRCLE
  5
367
330
30C
100
AcDbEntity
  8
0
100
AcDbCircle
 10
129.0
 20
81.35
 30
0.0
 40
0.7
  0
LINE
  5
368
330
30C
100
AcDbEntity
  8
0
100
AcDbLine
 10
132.0
 20
26.6
 30
0.0
 11
132.0
 21
45.6069647979778
 31
0.0
  0
LINE
  5
369
330
30C
100
AcDbEntity
  8
0
100
AcDbLine
 10
135.0
 20
71.6
 30
0.0
 11
135.0004309006888
 21
51.59527469691521
 31
0.0
  0
LINE
  5
36A
330
30C
100
AcDbEntity
  8
0
100
AcDbLine
 10
132.6112875855771
 20
47.4150501141028
 30
0.0
 11
134.4004309006888
 21
49.79527469691521
 31
0.0
  0
ARC
  5
36B
330
30C
100
AcDbEntity
  8
0
100
AcDbCircle
 10
135.0096524697065
 20
45.6163229958218
 30
0.0
 40
3.0
100
AcDbArc
 50
143.1301023541561
 51
180.0
  0
ARC
  5
36C
330
30C
100
AcDbEntity
  8
0
100
AcDbCircle
 10
135.0096524697065
 20
45.6163229958218
 30
0.0
 40
3.0
100
AcDbArc
 50
143.1301023541561
 51
180.0
  0
ARC
  5
36D
330
30C
100
AcDbEntity
  8
0
100
AcDbCircle
 10
132.0004309006888
 20
51.59527469691521
 30
0.0
 40
3.0
100
AcDbArc
 50
323.1301023541561
 51
0.0
  0
ENDBLK
  5
30E
330
30C
100
AcDbEntity
  8
0
100
AcDbBlockEnd
  0
BLOCK
  5
54D
330
542
100
AcDbEntity
  8
0
100
AcDbBlockBegin
  2
*D2
 70
     1
 10
0.0
 20
0.0
 30
0.0
  3
*D2
  1
*D24
  0
LINE
  5
543
330
542
100
AcDbEntity
  8
KOTY
 62
     0
100
AcDbLine
 10
129.0625
 20
16.85
 30
0.0
 11
148.18
 21
16.84999999999999
 31
0.0
  0
LINE
  5
544
330
542
100
AcDbEntity
  8
KOTY
 62
     0
100
AcDbLine
 10
129.0625
 20
81.35
 30
0.0
 11
148.18
 21
81.35
 31
0.0
  0
LINE
  5
545
330
542
100
AcDbEntity
  8
KOTY
 62
     0
100
AcDbLine
 10
148.0
 20
20.84999999999999
 30
0.0
 11
148.0
 21
77.35
 31
0.0
  0
SOLID
  5
546
330
542
100
AcDbEntity
  8
KOTY
 62
     0
100
AcDbTrace
 10
147.3333333333333
 20
20.84999999999999
 30
0.0
 11
148.6666666666667
 21
20.84999999999999
 31
0.0
 12
148.0
 22
16.84999999999999
 32
0.0
 13
148.0
 23
16.84999999999999
 33
0.0
  0
SOLID
  5
547
330
542
100
AcDbEntity
  8
KOTY
 62
     0
100
AcDbTrace
 10
148.6666666666667
 20
77.35
 30
0.0
 11
147.3333333333333
 21
77.35
 31
0.0
 12
148.0
 22
81.35
 32
0.0
 13
148.0
 23
81.35
 33
0.0
  0
MTEXT
  5
548
330
542
100
AcDbEntity
  8
KOTY
 62
     0
100
AcDbMText
 10
144.598
 20
46.0
 30
0.0
 40
4.0
 41
0.0
 71
     5
 72
     1
  1
\A1;64,5
 11
0.0
 21
1.0
 31
0.0
  0
POINT
  5
549
330
542
100
AcDbEntity
  8
DEFPOINTS
 62
     0
100
AcDbPoint
 10
129.0
 20
16.85
 30
0.0
  0
POINT
  5
54A
330
542
100
AcDbEntity
  8
DEFPOINTS
 62
     0
100
AcDbPoint
 10
129.0
 20
81.35
 30
0.0
  0
POINT
  5
54B
330
542
100
AcDbEntity
  8
DEFPOINTS
 62
     0
100
AcDbPoint
 10
148.0
 20
81.35
 30
0.0
  0
ENDBLK
  5
54E
330
542
100
AcDbEntity
  8
0
100
AcDbBlockEnd
  0
BLOCK
  5
55D
330
552
100
AcDbEntity
  8
0
100
AcDbBlockBegin
  2
*D3
 70
     1
 10
0.0
 20
0.0
 30
0.0
  3
*D3
  1
*D25
  0
LINE
  5
553
330
552
100
AcDbEntity
  8
KOTY
 62
     0
100
AcDbLine
 10
120.0
 20
8.0375
 30
0.0
 11
120.0
 21
-10.18
 31
0.0
  0
LINE
  5
554
330
552
100
AcDbEntity
  8
KOTY
 62
     0
100
AcDbLine
 10
138.0
 20
8.0375
 30
0.0
 11
138.0
 21
-10.18
 31
0.0
  0
LINE
  5
555
330
552
100
AcDbEntity
  8
KOTY
 62
     0
100
AcDbLine
 10
124.0
 20
-10.0
 30
0.0
 11
134.0
 21
-10.0
 31
0.0
  0
SOLID
  5
556
330
552
100
AcDbEntity
  8
KOTY
 62
     0
100
AcDbTrace
 10
124.0
 20
-9.333333333333334
 30
0.0
 11
124.0
 21
-10.66666666666667
 31
0.0
 12
120.0
 22
-10.0
 32
0.0
 13
120.0
 23
-10.0
 33
0.0
  0
SOLID
  5
557
330
552
100
AcDbEntity
  8
KOTY
 62
     0
100
AcDbTrace
 10
134.0
 20
-10.66666666666667
 30
0.0
 11
134.0
 21
-9.333333333333334
 31
0.0
 12
138.0
 22
-10.0
 32
0.0
 13
138.0
 23
-10.0
 33
0.0
  0
MTEXT
  5
558
330
552
100
AcDbEntity
  8
KOTY
 62
     0
100
AcDbMText
 10
128.0839976579868
 20
-6.958
 30
0.0
 40
4.0
 41
0.0
 71
     5
 72
     1
  1
\A1;18
  0
POINT
  5
559
330
552
100
AcDbEntity
  8
DEFPOINTS
 62
     0
100
AcDbPoint
 10
120.0
 20
8.1
 30
0.0
  0
POINT
  5
55A
330
552
100
AcDbEntity
  8
DEFPOINTS
 62
     0
100
AcDbPoint
 10
138.0
 20
8.1
 30
0.0
  0
POINT
  5
55B
330
552
100
AcDbEntity
  8
DEFPOINTS
 62
     0
100
AcDbPoint
 10
138.0
 20
-10.0
 30
0.0
  0
ENDBLK
  5
55E
330
552
100
AcDbEntity
  8
0
100
AcDbBlockEnd
  0
BLOCK
  5
56D
330
562
100
AcDbEntity
  8
0
100
AcDbBlockBegin
  2
*D4
 70
     1
 10
0.0
 20
0.0
 30
0.0
  3
*D4
  1
*D26
  0
LINE
  5
563
330
562
100
AcDbEntity
  8
KOTY
 62
     0
100
AcDbLine
 10
48.5
 20
38.68170698643668
 30
0.0
 11
48.5
 21
38.79920698643668
 31
0.0
  0
LINE
  5
564
330
562
100
AcDbEntity
  8
KOTY
 62
     0
100
AcDbLine
 10
66.5
 20
38.68170698643668
 30
0.0
 11
66.5
 21
38.79920698643668
 31
0.0
  0
LINE
  5
565
330
562
100
AcDbEntity
  8
KOTY
 62
     0
100
AcDbLine
 10
52.5
 20
38.61920698643668
 30
0.0
 11
62.5
 21
38.61920698643668
 31
0.0
  0
SOLID
  5
566
330
562
100
AcDbEntity
  8
KOTY
 62
     0
100
AcDbTrace
 10
52.5
 20
39.28587365310334
 30
0.0
 11
52.5
 21
37.95254031977002
 31
0.0
 12
48.5
 22
38.61920698643668
 32
0.0
 13
48.5
 23
38.61920698643668
 33
0.0
  0
SOLID
  5
567
330
562
100
AcDbEntity
  8
KOTY
 62
     0
100
AcDbTrace
 10
62.5
 20
37.95254031977002
 30
0.0
 11
62.5
 21
39.28587365310334
 31
0.0
 12
66.5
 22
38.61920698643668
 32
0.0
 13
66.5
 23
38.61920698643668
 33
0.0
  0
MTEXT
  5
568
330
562
100
AcDbEntity
  8
KOTY
 62
     0
100
AcDbMText
 10
57.31093343209884
 20
41.66120698643668
 30
0.0
 40
4.0
 41
0.0
 71
     5
 72
     1
  1
\A1;18
  0
POINT
  5
569
330
562
100
AcDbEntity
  8
DEFPOINTS
 62
     0
100
AcDbPoint
 10
48.5
 20
38.61920698643668
 30
0.0
  0
POINT
  5
56A
330
562
100
AcDbEntity
  8
DEFPOINTS
 62
     0
100
AcDbPoint
 10
66.5
 20
38.61920698643668
 30
0.0
  0
POINT
  5
56B
330
562
100
AcDbEntity
  8
DEFPOINTS
 62
     0
100
AcDbPoint
 10
66.5
 20
38.61920698643668
 30
0.0
  0
ENDBLK
  5
56E
330
562
100
AcDbEntity
  8
0
100
AcDbBlockEnd
  0
BLOCK
  5
57D
330
572
100
AcDbEntity
  8
0
100
AcDbBlockBegin
  2
*D5
 70
     1
 10
0.0
 20
0.0
 30
0.0
  3
*D5
  1
*D27
  0
LINE
  5
573
330
572
100
AcDbEntity
  8
KOTY
 62
     0
100
AcDbLine
 10
72.5625
 20
0.0
 30
0.0
 11
87.99014589420665
 21
0.0
 31
0.0
  0
LINE
  5
574
330
572
100
AcDbEntity
  8
KOTY
 62
     0
100
AcDbLine
 10
61.7125
 20
92.0
 30
0.0
 11
87.99014589420665
 21
92.0
 31
0.0
  0
LINE
  5
575
330
572
100
AcDbEntity
  8
KOTY
 62
     0
100
AcDbLine
 10
87.81014589420664
 20
4.0
 30
0.0
 11
87.81014589420664
 21
88.0
 31
0.0
  0
SOLID
  5
576
330
572
100
AcDbEntity
  8
KOTY
 62
     0
100
AcDbTrace
 10
87.14347922753997
 20
4.0
 30
0.0
 11
88.47681256087331
 21
4.0
 31
0.0
 12
87.81014589420664
 22
0.0
 32
0.0
 13
87.81014589420664
 23
0.0
 33
0.0
  0
SOLID
  5
577
330
572
100
AcDbEntity
  8
KOTY
 62
     0
100
AcDbTrace
 10
88.47681256087331
 20
88.0
 30
0.0
 11
87.14347922753997
 21
88.0
 31
0.0
 12
87.81014589420664
 22
92.0
 32
0.0
 13
87.81014589420664
 23
92.0
 33
0.0
  0
MTEXT
  5
578
330
572
100
AcDbEntity
  8
KOTY
 62
     0
100
AcDbMText
 10
84.76814589420664
 20
46.10084770248162
 30
0.0
 40
4.0
 41
0.0
 71
     5
 72
     1
  1
\A1;92
 11
0.0
 21
1.0
 31
0.0
  0
POINT
  5
579
330
572
100
AcDbEntity
  8
DEFPOINTS
 62
     0
100
AcDbPoint
 10
72.5
 20
0.0
 30
0.0
  0
POINT
  5
57A
330
572
100
AcDbEntity
  8
DEFPOINTS
 62
     0
100
AcDbPoint
 10
61.65
 20
92.0
 30
0.0
  0
POINT
  5
57B
330
572
100
AcDbEntity
  8
DEFPOINTS
 62
     0
100
AcDbPoint
 10
87.81014589420664
 20
92.0
 30
0.0
  0
ENDBLK
  5
57E
330
572
100
AcDbEntity
  8
0
100
AcDbBlockEnd
  0
BLOCK
  5
58D
330
582
100
AcDbEntity
  8
0
100
AcDbBlockBegin
  2
*D6
 70
     1
 10
0.0
 20
0.0
 30
0.0
  3
*D6
  1
*D28
  0
LINE
  5
583
330
582
100
AcDbEntity
  8
KOTY
 62
     0
100
AcDbLine
 10
0.0
 20
71.6625
 30
0.0
 11
0.0
 21
105.4350805439103
 31
0.0
  0
LINE
  5
584
330
582
100
AcDbEntity
  8
KOTY
 62
     0
100
AcDbLine
 10
72.5
 20
83.3625
 30
0.0
 11
72.5
 21
105.4350805439103
 31
0.0
  0
LINE
  5
585
330
582
100
AcDbEntity
  8
KOTY
 62
     0
100
AcDbLine
 10
4.0
 20
105.2550805439103
 30
0.0
 11
68.5
 21
105.2550805439103
 31
0.0
  0
SOLID
  5
586
330
582
100
AcDbEntity
  8
KOTY
 62
     0
100
AcDbTrace
 10
4.0
 20
105.921747210577
 30
0.0
 11
4.0
 21
104.5884138772436
 31
0.0
 12
0.0
 22
105.2550805439103
 32
0.0
 13
0.0
 23
105.2550805439103
 33
0.0
  0
SOLID
  5
587
330
582
100
AcDbEntity
  8
KOTY
 62
     0
100
AcDbTrace
 10
68.5
 20
104.5884138772436
 30
0.0
 11
68.5
 21
105.921747210577
 31
0.0
 12
72.5
 22
105.2550805439103
 32
0.0
 13
72.5
 23
105.2550805439103
 33
0.0
  0
MTEXT
  5
588
330
582
100
AcDbEntity
  8
KOTY
 62
     0
100
AcDbMText
 10
35.69797016463227
 20
108.2630805439103
 30
0.0
 40
4.0
 41
0.0
 71
     5
 72
     1
  1
\A1;72
  0
POINT
  5
589
330
582
100
AcDbEntity
  8
DEFPOINTS
 62
     0
100
AcDbPoint
 10
0.0
 20
71.6
 30
0.0
  0
POINT
  5
58A
330
582
100
AcDbEntity
  8
DEFPOINTS
 62
     0
100
AcDbPoint
 10
72.5
 20
83.3
 30
0.0
  0
POINT
  5
58B
330
582
100
AcDbEntity
  8
DEFPOINTS
 62
     0
100
AcDbPoint
 10
72.5
 20
105.2550805439103
 30
0.0
  0
ENDBLK
  5
58E
330
582
100
AcDbEntity
  8
0
100
AcDbBlockEnd
  0
BLOCK
  5
5BD
330
5B2
100
AcDbEntity
  8
0
100
AcDbBlockBegin
  2
*D7
 70
     1
 10
0.0
 20
0.0
 30
0.0
  3
*D7
  1
*D31
  0
LINE
  5
5B3
330
5B2
100
AcDbEntity
  8
KOTY
 62
     0
100
AcDbLine
 10
-0.0625
 20
26.6
 30
0.0
 11
-10.18
 21
26.6
 31
0.0
  0
LINE
  5
5B4
330
5B2
100
AcDbEntity
  8
KOTY
 62
     0
100
AcDbLine
 10
-0.0625
 20
71.6
 30
0.0
 11
-10.18
 21
71.6
 31
0.0
  0
LINE
  5
5B5
330
5B2
100
AcDbEntity
  8
KOTY
 62
     0
100
AcDbLine
 10
-10.0
 20
30.6
 30
0.0
 11
-9.999999999999998
 21
67.6
 31
0.0
  0
SOLID
  5
5B6
330
5B2
100
AcDbEntity
  8
KOTY
 62
     0
100
AcDbTrace
 10
-10.66666666666667
 20
30.6
 30
0.0
 11
-9.333333333333336
 21
30.6
 31
0.0
 12
-10.0
 22
26.6
 32
0.0
 13
-10.0
 23
26.6
 33
0.0
  0
SOLID
  5
5B7
330
5B2
100
AcDbEntity
  8
KOTY
 62
     0
100
AcDbTrace
 10
-9.333333333333332
 20
67.6
 30
0.0
 11
-10.66666666666666
 21
67.6
 31
0.0
 12
-9.999999999999998
 22
71.6
 32
0.0
 13
-9.999999999999998
 23
71.6
 33
0.0
  0
MTEXT
  5
5B8
330
5B2
100
AcDbEntity
  8
KOTY
 62
     0
100
AcDbMText
 10
-13.034
 20
46.0
 30
0.0
 40
4.0
 41
0.0
 71
     5
 72
     1
  1
\A1;45
 11
7.894919286223337E-17
 21
1.0
 31
0.0
  0
POINT
  5
5B9
330
5B2
100
AcDbEntity
  8
DEFPOINTS
 62
     0
100
AcDbPoint
 10
0.0
 20
26.6
 30
0.0
  0
POINT
  5
5BA
330
5B2
100
AcDbEntity
  8
DEFPOINTS
 62
     0
100
AcDbPoint
 10
0.0
 20
71.6
 30
0.0
  0
POINT
  5
5BB
330
5B2
100
AcDbEntity
  8
DEFPOINTS
 62
     0
100
AcDbPoint
 10
-9.999999999999998
 20
71.6
 30
0.0
  0
ENDBLK
  5
5BE
330
5B2
100
AcDbEntity
  8
0
100
AcDbBlockEnd
  0
BLOCK
  5
5CD
330
5C2
100
AcDbEntity
  8
0
100
AcDbBlockBegin
  2
*D8
 70
     1
 10
0.0
 20
0.0
 30
0.0
  3
*D8
  1
*D32
  0
LINE
  5
5C3
330
5C2
100
AcDbEntity
  8
KOTY
 62
     0
100
AcDbLine
 10
28.6375
 20
8.1
 30
0.0
 11
-18.81474222486299
 21
8.099999999999994
 31
0.0
  0
LINE
  5
5C4
330
5C2
100
AcDbEntity
  8
KOTY
 62
     0
100
AcDbLine
 10
28.6375
 20
90.1
 30
0.0
 11
-18.81474222486298
 21
90.1
 31
0.0
  0
LINE
  5
5C5
330
5C2
100
AcDbEntity
  8
KOTY
 62
     0
100
AcDbLine
 10
-18.63474222486299
 20
12.09999999999999
 30
0.0
 11
-18.63474222486298
 21
86.1
 31
0.0
  0
SOLID
  5
5C6
330
5C2
100
AcDbEntity
  8
KOTY
 62
     0
100
AcDbTrace
 10
-19.30140889152965
 20
12.09999999999999
 30
0.0
 11
-17.96807555819632
 21
12.09999999999999
 31
0.0
 12
-18.63474222486299
 22
8.099999999999994
 32
0.0
 13
-18.63474222486299
 23
8.099999999999994
 33
0.0
  0
SOLID
  5
5C7
330
5C2
100
AcDbEntity
  8
KOTY
 62
     0
100
AcDbTrace
 10
-17.96807555819631
 20
86.1
 30
0.0
 11
-19.30140889152965
 21
86.1
 31
0.0
 12
-18.63474222486298
 22
90.1
 32
0.0
 13
-18.63474222486298
 23
90.1
 33
0.0
  0
MTEXT
  5
5C8
330
5C2
100
AcDbEntity
  8
KOTY
 62
     0
100
AcDbMText
 10
-21.67674222486299
 20
46.00000000000001
 30
0.0
 40
4.0
 41
0.0
 71
     5
 72
     1
  1
\A1;82
 11
4.332577657073782E-17
 21
1.0
 31
0.0
  0
POINT
  5
5C9
330
5C2
100
AcDbEntity
  8
DEFPOINTS
 62
     0
100
AcDbPoint
 10
28.7
 20
8.1
 30
0.0
  0
POINT
  5
5CA
330
5C2
100
AcDbEntity
  8
DEFPOINTS
 62
     0
100
AcDbPoint
 10
28.7
 20
90.1
 30
0.0
  0
POINT
  5
5CB
330
5C2
100
AcDbEntity
  8
DEFPOINTS
 62
     0
100
AcDbPoint
 10
-18.63474222486298
 20
90.1
 30
0.0
  0
ENDBLK
  5
5CE
330
5C2
100
AcDbEntity
  8
0
100
AcDbBlockEnd
  0
BLOCK
  5
5E8
330
5DD
100
AcDbEntity
  8
0
100
AcDbBlockBegin
  2
*D9
 70
     1
 10
0.0
 20
0.0
 30
0.0
  3
*D9
  1
*D34
  0
LINE
  5
5DE
330
5DD
100
AcDbEntity
  8
KOTY
 62
     0
100
AcDbLine
 10
66.5
 20
30.4375
 30
0.0
 11
66.5
 21
-10.18
 31
0.0
  0
LINE
  5
5DF
330
5DD
100
AcDbEntity
  8
KOTY
 62
     0
100
AcDbLine
 10
22.5
 20
11.6375
 30
0.0
 11
22.5
 21
-10.18
 31
0.0
  0
LINE
  5
5E0
330
5DD
100
AcDbEntity
  8
KOTY
 62
     0
100
AcDbLine
 10
62.5
 20
-10.0
 30
0.0
 11
26.5
 21
-10.0
 31
0.0
  0
SOLID
  5
5E1
330
5DD
100
AcDbEntity
  8
KOTY
 62
     0
100
AcDbTrace
 10
62.5
 20
-10.66666666666667
 30
0.0
 11
62.5
 21
-9.333333333333334
 31
0.0
 12
66.5
 22
-10.0
 32
0.0
 13
66.5
 23
-10.0
 33
0.0
  0
SOLID
  5
5E2
330
5DD
100
AcDbEntity
  8
KOTY
 62
     0
100
AcDbTrace
 10
26.5
 20
-9.333333333333334
 30
0.0
 11
26.5
 21
-10.66666666666667
 31
0.0
 12
22.5
 22
-10.0
 32
0.0
 13
22.5
 23
-10.0
 33
0.0
  0
MTEXT
  5
5E3
330
5DD
100
AcDbEntity
  8
KOTY
 62
     0
100
AcDbMText
 10
44.5
 20
-7.0
 30
0.0
 40
4.0
 41
0.0
 71
     5
 72
     1
  1
\A1;44
  0
POINT
  5
5E4
330
5DD
100
AcDbEntity
  8
DEFPOINTS
 62
     0
100
AcDbPoint
 10
66.5
 20
30.5
 30
0.0
  0
POINT
  5
5E5
330
5DD
100
AcDbEntity
  8
DEFPOINTS
 62
     0
100
AcDbPoint
 10
22.5
 20
11.7
 30
0.0
  0
POINT
  5
5E6
330
5DD
100
AcDbEntity
  8
DEFPOINTS
 62
     0
100
AcDbPoint
 10
22.5
 20
-10.0
 30
0.0
  0
ENDBLK
  5
5E9
330
5DD
100
AcDbEntity
  8
0
100
AcDbBlockEnd
  0
BLOCK
  5
5F8
330
5ED
100
AcDbEntity
  8
0
100
AcDbBlockBegin
  2
*D10
 70
     1
 10
0.0
 20
0.0
 30
0.0
  3
*D10
  1
*D35
  0
LINE
  5
5EE
330
5ED
100
AcDbEntity
  8
KOTY
 62
     0
100
AcDbLine
 10
0.0
 20
26.5375
 30
0.0
 11
0.0
 21
-19.99591161746175
 31
0.0
  0
LINE
  5
5EF
330
5ED
100
AcDbEntity
  8
KOTY
 62
     0
100
AcDbLine
 10
66.5
 20
30.375
 30
0.0
 11
66.5
 21
-19.99591161746175
 31
0.0
  0
LINE
  5
5F0
330
5ED
100
AcDbEntity
  8
KOTY
 62
     0
100
AcDbLine
 10
4.0
 20
-19.81591161746175
 30
0.0
 11
62.5
 21
-19.81591161746175
 31
0.0
  0
SOLID
  5
5F1
330
5ED
100
AcDbEntity
  8
KOTY
 62
     0
100
AcDbTrace
 10
4.0
 20
-19.14924495079508
 30
0.0
 11
4.0
 21
-20.48257828412842
 31
0.0
 12
0.0
 22
-19.81591161746175
 32
0.0
 13
0.0
 23
-19.81591161746175
 33
0.0
  0
SOLID
  5
5F2
330
5ED
100
AcDbEntity
  8
KOTY
 62
     0
100
AcDbTrace
 10
62.5
 20
-20.48257828412842
 30
0.0
 11
62.5
 21
-19.14924495079508
 31
0.0
 12
66.5
 22
-19.81591161746175
 32
0.0
 13
66.5
 23
-19.81591161746175
 33
0.0
  0
MTEXT
  5
5F3
330
5ED
100
AcDbEntity
  8
KOTY
 62
     0
100
AcDbMText
 10
33.25
 20
-16.77391161746175
 30
0.0
 40
4.0
 41
0.0
 71
     5
 72
     1
  1
\A1;67
  0
POINT
  5
5F4
330
5ED
100
AcDbEntity
  8
DEFPOINTS
 62
     0
100
AcDbPoint
 10
0.0
 20
26.6
 30
0.0
  0
POINT
  5
5F5
330
5ED
100
AcDbEntity
  8
DEFPOINTS
 62
     0
100
AcDbPoint
 10
66.5
 20
30.4375
 30
0.0
  0
POINT
  5
5F6
330
5ED
100
AcDbEntity
  8
DEFPOINTS
 62
     0
100
AcDbPoint
 10
66.5
 20
-19.81591161746175
 30
0.0
  0
ENDBLK
  5
5F9
330
5ED
100
AcDbEntity
  8
0
100
AcDbBlockEnd
  0
BLOCK
  5
608
330
607
100
AcDbEntity
  8
0
100
AcDbBlockBegin
  2
_CLOSEDBLANK
 70
     0
 10
0.0
 20
0.0
 30
0.0
  3
_CLOSEDBLANK
  1
_CLOSEDBLANK
  0
LINE
  5
60A
330
607
100
AcDbEntity
  8
0
  6
BYBLOCK
 62
     0
100
AcDbLine
 10
-1.0
 20
0.166667
 30
0.0
 11
0.0
 21
0.0
 31
0.0
  0
LINE
  5
60B
330
607
100
AcDbEntity
  8
0
  6
BYBLOCK
 62
     0
100
AcDbLine
 10
0.0
 20
0.0
 30
0.0
 11
-1.0
 21
-0.166667
 31
0.0
  0
LINE
  5
60C
330
607
100
AcDbEntity
  8
0
  6
BYBLOCK
 62
     0
100
AcDbLine
 10
-1.0
 20
0.166667
 30
0.0
 11
-1.0
 21
-0.166667
 31
0.0
  0
ENDBLK
  5
609
330
607
100
AcDbEntity
  8
0
100
AcDbBlockEnd
  0
BLOCK
  5
60E
330
60D
100
AcDbEntity
  8
0
100
AcDbBlockBegin
  2
_CLOSED
 70
     0
 10
0.0
 20
0.0
 30
0.0
  3
_CLOSED
  1
_CLOSED
  0
LINE
  5
610
330
60D
100
AcDbEntity
  8
0
  6
BYBLOCK
 62
     0
100
AcDbLine
 10
-1.0
 20
0.166667
 30
0.0
 11
0.0
 21
0.0
 31
0.0
  0
LINE
  5
611
330
60D
100
AcDbEntity
  8
0
  6
BYBLOCK
 62
     0
100
AcDbLine
 10
0.0
 20
0.0
 30
0.0
 11
-1.0
 21
-0.166667
 31
0.0
  0
LINE
  5
612
330
60D
100
AcDbEntity
  8
0
  6
BYBLOCK
 62
     0
100
AcDbLine
 10
-1.0
 20
0.166667
 30
0.0
 11
-1.0
 21
-0.166667
 31
0.0
  0
LINE
  5
613
330
60D
100
AcDbEntity
  8
0
  6
BYBLOCK
 62
     0
100
AcDbLine
 10
0.0
 20
0.0
 30
0.0
 11
-1.0
 21
0.0
 31
0.0
  0
ENDBLK
  5
60F
330
60D
100
AcDbEntity
  8
0
100
AcDbBlockEnd
  0
BLOCK
  5
615
330
614
100
AcDbEntity
  8
0
100
AcDbBlockBegin
  2
_DOT
 70
     0
 10
0.0
 20
0.0
 30
0.0
  3
_DOT
  1
_DOT
  0
LWPOLYLINE
  5
617
330
614
100
AcDbEntity
  8
0
  6
BYBLOCK
 62
     0
100
AcDbPolyline
 90
        2
 70
     1
 43
0.5
 10
-0.25
 20
0.0
 42
1.0
 10
0.25
 20
0.0
 42
1.0
  0
LINE
  5
618
330
614
100
AcDbEntity
  8
0
  6
BYBLOCK
 62
     0
100
AcDbLine
 10
-0.5
 20
0.0
 30
0.0
 11
-1.0
 21
0.0
 31
0.0
  0
ENDBLK
  5
616
330
614
100
AcDbEntity
  8
0
100
AcDbBlockEnd
  0
BLOCK
  5
61A
330
619
100
AcDbEntity
  8
0
100
AcDbBlockBegin
  2
_ARCHTICK
 70
     0
 10
0.0
 20
0.0
 30
0.0
  3
_ARCHTICK
  1
_ARCHTICK
  0
LWPOLYLINE
  5
61C
330
619
100
AcDbEntity
  8
0
  6
BYBLOCK
 62
     0
100
AcDbPolyline
 90
        2
 70
     0
 43
0.15
 10
-0.5
 20
-0.5
 10
0.5
 20
0.5
  0
ENDBLK
  5
61B
330
619
100
AcDbEntity
  8
0
100
AcDbBlockEnd
  0
BLOCK
  5
782
330
764
100
AcDbEntity
  8
0
100
AcDbBlockBegin
  2
*D15
 70
     1
 10
0.0
 20
0.0
 30
0.0
  3
*D15
  1
*D46
  0
LINE
  5
765
330
764
100
AcDbEntity
  8
KOTY
 62
     0
100
AcDbLine
 10
67.43752072424707
 20
123.9999917127799
 30
0.0
 11
55.06696155687271
 21
123.9999917127799
 31
0.0
  0
LINE
  5
766
330
764
100
AcDbEntity
  8
KOTY
 62
     0
100
AcDbLine
 10
64.83752072424707
 20
114.9999917127799
 30
0.0
 11
55.06696155687271
 21
114.9999917127799
 31
0.0
  0
SOLID
  5
767
330
764
100
AcDbEntity
  8
KOTY
 62
     0
100
AcDbTrace
 10
55.91362822353938
 20
119.9999917127799
 30
0.0
 11
54.58029489020605
 21
119.9999917127799
 31
0.0
 12
55.24696155687271
 22
123.9999917127799
 32
0.0
 13
55.24696155687271
 23
123.9999917127799
 33
0.0
  0
SOLID
  5
768
330
764
100
AcDbEntity
  8
KOTY
 62
     0
100
AcDbTrace
 10
54.58029489020605
 20
118.9999917127799
 30
0.0
 11
55.91362822353938
 21
118.9999917127799
 31
0.0
 12
55.24696155687271
 22
114.9999917127799
 32
0.0
 13
55.24696155687271
 23
114.9999917127799
 33
0.0
  0
MTEXT
  5
769
330
764
100
AcDbEntity
  8
KOTY
 62
     0
100
AcDbMText
 10
52.20496155687271
 20
119.4889404137535
 30
0.0
 40
4.0
 41
0.0
 71
     5
 72
     1
  1
\A1;9
 11
0.0
 21
1.0
 31
0.0
  0
POINT
  5
76A
330
764
100
AcDbEntity
  8
DEFPOINTS
 62
     0
100
AcDbPoint
 10
67.50002072424707
 20
123.9999917127799
 30
0.0
  0
POINT
  5
76B
330
764
100
AcDbEntity
  8
DEFPOINTS
 62
     0
100
AcDbPoint
 10
64.90002072424707
 20
114.9999917127799
 30
0.0
  0
POINT
  5
76C
330
764
100
AcDbEntity
  8
DEFPOINTS
 62
     0
100
AcDbPoint
 10
55.24696155687271
 20
114.9999917127799
 30
0.0
  0
ENDBLK
  5
783
330
764
100
AcDbEntity
  8
0
100
AcDbBlockEnd
  0
BLOCK
  5
784
330
76E
100
AcDbEntity
  8
0
100
AcDbBlockBegin
  2
*D16
 70
     1
 10
0.0
 20
0.0
 30
0.0
  3
*D16
  1
*D47
  0
LINE
  5
76F
330
76E
100
AcDbEntity
  8
KOTY
 62
     0
100
AcDbLine
 10
63.00002072424707
 20
122.3624917127799
 30
0.0
 11
63.00002072424707
 21
134.1799917127799
 31
0.0
  0
LINE
  5
770
330
76E
100
AcDbEntity
  8
KOTY
 62
     0
100
AcDbLine
 10
74.00002072424707
 20
124.0624917127799
 30
0.0
 11
74.00002072424707
 21
134.1799917127799
 31
0.0
  0
LINE
  5
771
330
76E
100
AcDbEntity
  8
KOTY
 62
     0
100
AcDbLine
 10
67.00002072424707
 20
133.9999917127799
 30
0.0
 11
70.00002072424707
 21
133.9999917127799
 31
0.0
  0
SOLID
  5
772
330
76E
100
AcDbEntity
  8
KOTY
 62
     0
100
AcDbTrace
 10
67.00002072424707
 20
134.6666583794465
 30
0.0
 11
67.00002072424707
 21
133.3333250461132
 31
0.0
 12
63.00002072424707
 22
133.9999917127799
 32
0.0
 13
63.00002072424707
 23
133.9999917127799
 33
0.0
  0
SOLID
  5
773
330
76E
100
AcDbEntity
  8
KOTY
 62
     0
100
AcDbTrace
 10
70.00002072424707
 20
133.3333250461132
 30
0.0
 11
70.00002072424707
 21
134.6666583794465
 31
0.0
 12
74.00002072424707
 22
133.9999917127799
 32
0.0
 13
74.00002072424707
 23
133.9999917127799
 33
0.0
  0
MTEXT
  5
774
330
76E
100
AcDbEntity
  8
KOTY
 62
     0
100
AcDbMText
 10
68.50002072424707
 20
137.0079917127799
 30
0.0
 40
4.0
 41
0.0
 71
     5
 72
     1
  1
\A1;11
  0
POINT
  5
775
330
76E
100
AcDbEntity
  8
DEFPOINTS
 62
     0
100
AcDbPoint
 10
63.00002072424707
 20
122.2999917127799
 30
0.0
  0
POINT
  5
776
330
76E
100
AcDbEntity
  8
DEFPOINTS
 62
     0
100
AcDbPoint
 10
74.00002072424707
 20
123.9999917127799
 30
0.0
  0
POINT
  5
777
330
76E
100
AcDbEntity
  8
DEFPOINTS
 62
     0
100
AcDbPoint
 10
74.00002072424707
 20
133.9999917127799
 30
0.0
  0
ENDBLK
  5
785
330
76E
100
AcDbEntity
  8
0
100
AcDbBlockEnd
  0
BLOCK
  5
786
330
778
100
AcDbEntity
  8
0
100
AcDbBlockBegin
  2
*D17
 70
     1
 10
0.0
 20
0.0
 30
0.0
  3
*D17
  1
*D48
  0
LINE
  5
779
330
778
100
AcDbEntity
  8
KOTY
 62
     0
100
AcDbLine
 10
121.5000207242471
 20
124.0624917127799
 30
0.0
 11
121.5000207242471
 21
134.1799917127799
 31
0.0
  0
LINE
  5
77A
330
778
100
AcDbEntity
  8
KOTY
 62
     0
100
AcDbLine
 10
136.5000207242471
 20
124.0624917127799
 30
0.0
 11
136.5000207242471
 21
134.1799917127799
 31
0.0
  0
LINE
  5
77B
330
778
100
AcDbEntity
  8
KOTY
 62
     0
100
AcDbLine
 10
125.5000207242471
 20
133.9999917127799
 30
0.0
 11
132.5000207242471
 21
133.9999917127799
 31
0.0
  0
SOLID
  5
77C
330
778
100
AcDbEntity
  8
KOTY
 62
     0
100
AcDbTrace
 10
125.5000207242471
 20
134.6666583794465
 30
0.0
 11
125.5000207242471
 21
133.3333250461132
 31
0.0
 12
121.5000207242471
 22
133.9999917127799
 32
0.0
 13
121.5000207242471
 23
133.9999917127799
 33
0.0
  0
SOLID
  5
77D
330
778
100
AcDbEntity
  8
KOTY
 62
     0
100
AcDbTrace
 10
132.5000207242471
 20
133.3333250461132
 30
0.0
 11
132.5000207242471
 21
134.6666583794465
 31
0.0
 12
136.5000207242471
 22
133.9999917127799
 32
0.0
 13
136.5000207242471
 23
133.9999917127799
 33
0.0
  0
MTEXT
  5
77E
330
778
100
AcDbEntity
  8
KOTY
 62
     0
100
AcDbMText
 10
129.0000207242471
 20
137.0419917127799
 30
0.0
 40
4.0
 41
0.0
 71
     5
 72
     1
  1
\A1;15
  0
POINT
  5
77F
330
778
100
AcDbEntity
  8
DEFPOINTS
 62
     0
100
AcDbPoint
 10
121.5000207242471
 20
123.9999917127799
 30
0.0
  0
POINT
  5
780
330
778
100
AcDbEntity
  8
DEFPOINTS
 62
     0
100
AcDbPoint
 10
136.5000207242471
 20
123.9999917127799
 30
0.0
  0
POINT
  5
781
330
778
100
AcDbEntity
  8
DEFPOINTS
 62
     0
100
AcDbPoint
 10
136.5000207242471
 20
133.9999917127799
 30
0.0
  0
ENDBLK
  5
787
330
778
100
AcDbEntity
  8
0
100
AcDbBlockEnd
  0
BLOCK
  5
919
330
918
100
AcDbEntity
  8
0
100
AcDbBlockBegin
  2
*D18
 70
     1
 10
0.0
 20
0.0
 30
0.0
  3
*D18
  1
*D19
  0
LINE
  5
91A
330
918
100
AcDbEntity
  8
KOTY
 62
     0
100
AcDbLine
 10
3.5
 20
23.5625
 30
0.0
 11
3.5
 21
33.68
 31
0.0
  0
LINE
  5
91B
330
918
100
AcDbEntity
  8
KOTY
 62
     0
100
AcDbLine
 10
33.99997010416493
 20
0.0625
 30
0.0
 11
33.99997010416493
 21
33.68
 31
0.0
  0
LINE
  5
91C
330
918
100
AcDbEntity
  8
KOTY
 62
     0
100
AcDbLine
 10
7.5
 20
33.5
 30
0.0
 11
29.99997010416493
 21
33.5
 31
0.0
  0
SOLID
  5
91D
330
918
100
AcDbEntity
  8
KOTY
 62
     0
100
AcDbTrace
 10
7.5
 20
34.16666666666666
 30
0.0
 11
7.5
 21
32.83333333333334
 31
0.0
 12
3.5
 22
33.5
 32
0.0
 13
3.5
 23
33.5
 33
0.0
  0
SOLID
  5
91E
330
918
100
AcDbEntity
  8
KOTY
 62
     0
100
AcDbTrace
 10
29.99997010416493
 20
32.83333333333334
 30
0.0
 11
29.99997010416493
 21
34.16666666666666
 31
0.0
 12
33.99997010416493
 22
33.5
 32
0.0
 13
33.99997010416493
 23
33.5
 33
0.0
  0
MTEXT
  5
91F
330
918
100
AcDbEntity
  8
KOTY
 62
     0
100
AcDbMText
 10
18.74998505208246
 20
36.902
 30
0.0
 40
4.0
 41
0.0
 71
     5
 72
     1
  1
\A1;30,5
  0
POINT
  5
920
330
918
100
AcDbEntity
  8
DEFPOINTS
 62
     0
100
AcDbPoint
 10
3.5
 20
23.5
 30
0.0
  0
POINT
  5
921
330
918
100
AcDbEntity
  8
DEFPOINTS
 62
     0
100
AcDbPoint
 10
33.99997010416493
 20
0.0
 30
0.0
  0
POINT
  5
922
330
918
100
AcDbEntity
  8
DEFPOINTS
 62
     0
100
AcDbPoint
 10
33.99997010416493
 20
33.5
 30
0.0
  0
ENDBLK
  5
923
330
918
100
AcDbEntity
  8
0
100
AcDbBlockEnd
  0
BLOCK
  5
92C
330
92B
100
AcDbEntity
  8
0
100
AcDbBlockBegin
  2
*D19
 70
     1
 10
0.0
 20
0.0
 30
0.0
  3
*D19
  1
*D20
  0
LINE
  5
92E
330
92B
100
AcDbEntity
  8
KOTY
 62
     0
100
AcDbLine
 10
-13.06422862739853
 20
162.8150717563028
 30
0.0
 11
-13.06422862739853
 21
172.9325717563028
 31
0.0
  0
LINE
  5
92F
330
92B
100
AcDbEntity
  8
KOTY
 62
     0
100
AcDbLine
 10
17.4357414767664
 20
139.3150717563028
 30
0.0
 11
17.4357414767664
 21
172.9325717563028
 31
0.0
  0
LINE
  5
930
330
92B
100
AcDbEntity
  8
KOTY
 62
     0
100
AcDbLine
 10
-9.064228627398535
 20
172.7525717563028
 30
0.0
 11
13.4357414767664
 21
172.7525717563028
 31
0.0
  0
SOLID
  5
931
330
92B
100
AcDbEntity
  8
KOTY
 62
     0
100
AcDbTrace
 10
-9.064228627398535
 20
173.4192384229695
 30
0.0
 11
-9.064228627398535
 21
172.0859050896362
 31
0.0
 12
-13.06422862739853
 22
172.7525717563028
 32
0.0
 13
-13.06422862739853
 23
172.7525717563028
 33
0.0
  0
SOLID
  5
932
330
92B
100
AcDbEntity
  8
KOTY
 62
     0
100
AcDbTrace
 10
13.4357414767664
 20
172.0859050896362
 30
0.0
 11
13.4357414767664
 21
173.4192384229695
 31
0.0
 12
17.4357414767664
 22
172.7525717563028
 32
0.0
 13
17.4357414767664
 23
172.7525717563028
 33
0.0
  0
MTEXT
  5
933
330
92B
100
AcDbEntity
  8
KOTY
 62
     0
100
AcDbMText
 10
2.185756424683923
 20
176.1545717563028
 30
0.0
 40
4.0
 41
0.0
 71
     5
 72
     1
  1
\A1;30,5
  0
POINT
  5
934
330
92B
100
AcDbEntity
  8
DEFPOINTS
 62
     0
100
AcDbPoint
 10
-13.06422862739853
 20
162.7525717563028
 30
0.0
  0
POINT
  5
935
330
92B
100
AcDbEntity
  8
DEFPOINTS
 62
     0
100
AcDbPoint
 10
17.4357414767664
 20
139.2525717563028
 30
0.0
  0
POINT
  5
936
330
92B
100
AcDbEntity
  8
DEFPOINTS
 62
     0
100
AcDbPoint
 10
17.4357414767664
 20
172.7525717563028
 30
0.0
  0
ENDBLK
  5
92D
330
92B
100
AcDbEntity
  8
0
100
AcDbBlockEnd
  0
BLOCK
  5
93C
330
93B
100
AcDbEntity
  8
0
100
AcDbBlockBegin
  2
*D20
 70
     1
 10
0.0
 20
0.0
 30
0.0
  3
*D20
  1
*D21
  0
LINE
  5
93E
330
93B
100
AcDbEntity
  8
KOTY
 62
     0
100
AcDbLine
 10
36.00002989583507
 20
90.1
 30
0.0
 11
36.00002989583507
 21
97.3069998452728
 31
0.0
  0
LINE
  5
93F
330
93B
100
AcDbEntity
  8
KOTY
 62
     0
100
AcDbLine
 10
66.5
 20
66.6
 30
0.0
 11
66.5
 21
97.3069998452728
 31
0.0
  0
LINE
  5
940
330
93B
100
AcDbEntity
  8
KOTY
 62
     0
100
AcDbLine
 10
40.00002989583507
 20
97.12699984527279
 30
0.0
 11
62.5
 21
97.12699984527279
 31
0.0
  0
SOLID
  5
941
330
93B
100
AcDbEntity
  8
KOTY
 62
     0
100
AcDbTrace
 10
40.00002989583507
 20
97.79366651193946
 30
0.0
 11
40.00002989583507
 21
96.46033317860612
 31
0.0
 12
36.00002989583507
 22
97.12699984527279
 32
0.0
 13
36.00002989583507
 23
97.12699984527279
 33
0.0
  0
SOLID
  5
942
330
93B
100
AcDbEntity
  8
KOTY
 62
     0
100
AcDbTrace
 10
62.5
 20
96.46033317860612
 30
0.0
 11
62.5
 21
97.79366651193946
 31
0.0
 12
66.5
 22
97.12699984527279
 32
0.0
 13
66.5
 23
97.12699984527279
 33
0.0
  0
MTEXT
  5
943
330
93B
100
AcDbEntity
  8
KOTY
 62
     0
100
AcDbMText
 10
51.25001494791753
 20
100.5289998452728
 30
0.0
 40
4.0
 41
0.0
 71
     5
 72
     1
  1
\A1;30,5
  0
POINT
  5
944
330
93B
100
AcDbEntity
  8
DEFPOINTS
 62
     0
100
AcDbPoint
 10
36.00002989583507
 20
90.0375
 30
0.0
  0
POINT
  5
945
330
93B
100
AcDbEntity
  8
DEFPOINTS
 62
     0
100
AcDbPoint
 10
66.5
 20
66.5375
 30
0.0
  0
POINT
  5
946
330
93B
100
AcDbEntity
  8
DEFPOINTS
 62
     0
100
AcDbPoint
 10
66.5
 20
97.12699984527279
 30
0.0
  0
ENDBLK
  5
93D
330
93B
100
AcDbEntity
  8
0
100
AcDbBlockEnd
  0
ENDSEC
  0
SECTION
  2
ENTITIES
  0
LINE
  5
E3
330
1F
100
AcDbEntity
  8
OBRYS
 62
     5
100
AcDbLine
 10
72.5
 20
8.1
 30
0.0
 11
72.5
 21
0.0
 31
0.0
  0
LINE
  5
E4
330
1F
100
AcDbEntity
  8
OBRYS
 62
     5
100
AcDbLine
 10
72.5
 20
0.0
 30
0.0
 11
67.9
 21
0.0
 31
0.0
  0
LINE
  5
E5
330
1F
100
AcDbEntity
  8
OBRYS
 62
     5
100
AcDbLine
 10
67.9
 20
0.0
 30
0.0
 11
67.9
 21
8.1
 31
0.0
  0
LINE
  5
E6
330
1F
100
AcDbEntity
  8
OBRYS
 62
     5
100
AcDbLine
 10
67.9
 20
4.5
 30
0.0
 11
66.6
 21
4.5
 31
0.0
  0
LINE
  5
E7
330
1F
100
AcDbEntity
  8
OBRYS
 62
     5
100
AcDbLine
 10
66.6
 20
4.5
 30
0.0
 11
66.6
 21
8.1
 31
0.0
  0
LINE
  5
E8
330
1F
100
AcDbEntity
  8
OBRYS
 62
     5
100
AcDbLine
 10
72.5
 20
8.1
 30
0.0
 11
28.7
 21
8.1
 31
0.0
  0
LINE
  5
EB
330
1F
100
AcDbEntity
  8
OBRYS
 62
     5
100
AcDbLine
 10
65.3
 20
8.1
 30
0.0
 11
65.3
 21
30.5
 31
0.0
  0
LINE
  5
EC
330
1F
100
AcDbEntity
  8
OBRYS
 62
     5
100
AcDbLine
 10
65.3
 20
30.5
 30
0.0
 11
72.5
 21
30.5
 31
0.0
  0
LINE
  5
ED
330
1F
100
AcDbEntity
  8
OBRYS
 62
     5
100
AcDbLine
 10
72.5
 20
30.5
 30
0.0
 11
72.5
 21
8.1
 31
0.0
  0
LINE
  5
EE
330
1F
100
AcDbEntity
  8
OBRYS
 62
     5
100
AcDbLine
 10
61.65
 20
6.2
 30
0.0
 11
49.34999999999999
 21
6.2
 31
0.0
  0
LINE
  5
F0
330
1F
100
AcDbEntity
  8
OBRYS
 62
     5
100
AcDbLine
 10
61.65
 20
6.2
 30
0.0
 11
62.8
 21
8.1
 31
0.0
  0
LINE
  5
F1
330
1F
100
AcDbEntity
  8
OBRYS
 62
     5
100
AcDbLine
 10
49.34999999999999
 20
6.2
 30
0.0
 11
48.2
 21
8.1
 31
0.0
  0
LINE
  5
F2
330
1F
100
AcDbEntity
  8
OBRYS
 62
     5
100
AcDbLine
 10
22.5
 20
11.7
 30
0.0
 11
22.5
 21
26.1
 31
0.0
  0
LINE
  5
F3
330
1F
100
AcDbEntity
  8
OBRYS
 62
     5
100
AcDbLine
 10
22.5
 20
11.7
 30
0.0
 11
23.35474539744931
 21
11.20330606154289
 31
0.0
  0
LINE
  5
F6
330
1F
100
AcDbEntity
  8
OBRYS
 62
     5
100
AcDbLine
 10
66.5
 20
30.5
 30
0.0
 11
66.5
 21
66.6
 31
0.0
  0
LINE
  5
F7
330
1F
100
AcDbEntity
  8
OBRYS
 62
     5
100
AcDbLine
 10
66.5
 20
66.6
 30
0.0
 11
72.5
 21
66.6
 31
0.0
  0
LINE
  5
F8
330
1F
100
AcDbEntity
  8
OBRYS
 62
     5
100
AcDbLine
 10
72.5
 20
66.6
 30
0.0
 11
72.5
 21
83.3
 31
0.0
  0
LINE
  5
F9
330
1F
100
AcDbEntity
  8
OBRYS
 62
     5
100
AcDbLine
 10
72.5
 20
66.6
 30
0.0
 11
72.5
 21
64.7
 31
0.0
  0
LINE
  5
FA
330
1F
100
AcDbEntity
  8
OBRYS
 62
     5
100
AcDbLine
 10
72.5
 20
64.7
 30
0.0
 11
69.5
 21
64.7
 31
0.0
  0
LINE
  5
FB
330
1F
100
AcDbEntity
  8
OBRYS
 62
     5
100
AcDbLine
 10
69.5
 20
64.7
 30
0.0
 11
68.1
 21
66.6
 31
0.0
  0
LINE
  5
FD
330
1F
100
AcDbEntity
  8
OBRYS
 62
     5
100
AcDbLine
 10
25.0
 20
26.4
 30
0.0
 11
48.5
 21
26.4
 31
0.0
  0
LINE
  5
FE
330
1F
100
AcDbEntity
  8
OBRYS
 62
     5
100
AcDbLine
 10
48.5
 20
26.4
 30
0.0
 11
48.5
 21
71.8
 31
0.0
  0
LINE
  5
FF
330
1F
100
AcDbEntity
  8
OBRYS
 62
     5
100
AcDbLine
 10
48.5
 20
71.8
 30
0.0
 11
25.0
 21
71.8
 31
0.0
  0
LINE
  5
100
330
1F
100
AcDbEntity
  8
OBRYS
 62
     5
100
AcDbLine
 10
22.5
 20
72.1
 30
0.0
 11
22.5
 21
86.5
 31
0.0
  0
LINE
  5
112
330
1F
100
AcDbEntity
  8
OBRYS
 62
     5
100
AcDbLine
 10
28.7
 20
90.1
 30
0.0
 11
70.8
 21
90.1
 31
0.0
  0
LINE
  5
115
330
1F
100
AcDbEntity
  8
OBRYS
 62
     5
100
AcDbLine
 10
48.5
 20
26.6
 30
0.0
 11
9.1
 21
26.6
 31
0.0
  0
LINE
  5
116
330
1F
100
AcDbEntity
  8
OBRYS
 62
     5
100
AcDbLine
 10
48.5
 20
71.6
 30
0.0
 11
9.1
 21
71.6
 31
0.0
  0
LINE
  5
117
330
1F
100
AcDbEntity
  8
OBRYS
 62
     5
100
AcDbLine
 10
0.0
 20
26.6
 30
0.0
 11
0.0
 21
71.6
 31
0.0
  0
LINE
  5
128
330
1F
100
AcDbEntity
  8
OBRYS
 62
     5
100
AcDbLine
 10
0.0
 20
26.6
 30
0.0
 11
2.0
 21
26.6
 31
0.0
  0
LINE
  5
129
330
1F
100
AcDbEntity
  8
OBRYS
 62
     5
100
AcDbLine
 10
0.0
 20
71.6
 30
0.0
 11
2.0
 21
71.6
 31
0.0
  0
LINE
  5
14A
330
1F
100
AcDbEntity
  8
OBRYS
 62
     5
100
AcDbLine
 10
2.5
 20
27.1
 30
0.0
 11
8.6
 21
27.1
 31
0.0
  0
LINE
  5
15B
330
1F
100
AcDbEntity
  8
OBRYS
 62
     5
100
AcDbLine
 10
2.0
 20
26.6
 30
0.0
 11
2.5
 21
27.1
 31
0.0
  0
LINE
  5
15C
330
1F
100
AcDbEntity
  8
OBRYS
 62
     5
100
AcDbLine
 10
8.6
 20
27.1
 30
0.0
 11
9.1
 21
26.6
 31
0.0
  0
LINE
  5
15F
330
1F
100
AcDbEntity
  8
OBRYS
 62
     5
100
AcDbLine
 10
2.5
 20
71.1
 30
0.0
 11
8.6
 21
71.1
 31
0.0
  0
LINE
  5
160
330
1F
100
AcDbEntity
  8
OBRYS
 62
     5
100
AcDbLine
 10
2.0
 20
71.6
 30
0.0
 11
2.5
 21
71.1
 31
0.0
  0
LINE
  5
161
330
1F
100
AcDbEntity
  8
OBRYS
 62
     5
100
AcDbLine
 10
8.6
 20
71.1
 30
0.0
 11
9.1
 21
71.6
 31
0.0
  0
ARC
  5
175
330
1F
100
AcDbEntity
  8
OBRYS
 62
     5
100
AcDbCircle
 10
5.45
 20
27.1
 30
0.0
 40
0.25
100
AcDbArc
 50
180.0
 51
0.3652309648402171
  0
ARC
  5
17A
330
1F
100
AcDbEntity
  8
OBRYS
 62
     5
100
AcDbCircle
 10
3.55
 20
27.1
 30
0.0
 40
0.25
100
AcDbArc
 50
180.0
 51
0.1423211833411854
  0
ARC
  5
17B
330
1F
100
AcDbEntity
  8
OBRYS
 62
     5
100
AcDbCircle
 10
7.35
 20
27.1
 30
0.0
 40
0.25
100
AcDbArc
 50
180.0
 51
358.9752080979408
  0
ARC
  5
17F
330
1F
100
AcDbEntity
  8
OBRYS
 62
     5
100
AcDbCircle
 10
3.55
 20
71.1
 30
0.0
 40
0.25
100
AcDbArc
 50
0.0
 51
179.6960893550858
  0
ARC
  5
180
330
1F
100
AcDbEntity
  8
OBRYS
 62
     5
100
AcDbCircle
 10
5.45
 20
71.1
 30
0.0
 40
0.25
100
AcDbArc
 50
0.0
 51
179.6818731305043
  0
ARC
  5
182
330
1F
100
AcDbEntity
  8
OBRYS
 62
     5
100
AcDbCircle
 10
7.35
 20
71.1
 30
0.0
 40
0.25
100
AcDbArc
 50
0.0
 51
180.4641496716499
  0
LINE
  5
184
330
1F
100
AcDbEntity
  8
OBRYS
 62
     5
100
AcDbLine
 10
49.34999999999999
 20
92.0
 30
0.0
 11
61.65
 21
92.0
 31
0.0
  0
LINE
  5
185
330
1F
100
AcDbEntity
  8
OBRYS
 62
     5
100
AcDbLine
 10
70.8
 20
90.1
 30
0.0
 11
72.5
 21
83.3
 31
0.0
  0
LINE
  5
186
330
1F
100
AcDbEntity
  8
OBRYS
 62
     5
100
AcDbLine
 10
49.34999999999999
 20
92.0
 30
0.0
 11
48.2
 21
90.1
 31
0.0
  0
LINE
  5
187
330
1F
100
AcDbEntity
  8
OBRYS
 62
     5
100
AcDbLine
 10
61.65
 20
92.0
 30
0.0
 11
62.8
 21
90.1
 31
0.0
  0
LINE
  5
198
330
1F
100
AcDbEntity
  8
OBRYS
 62
     5
100
AcDbLine
 10
22.5
 20
86.5
 30
0.0
 11
28.7
 21
90.1
 31
0.0
  0
LINE
  5
1A0
330
1F
100
AcDbEntity
  8
OBRYS
 62
     5
100
AcDbLine
 10
22.5
 20
26.1
 30
0.0
 11
25.0
 21
26.4
 31
0.0
  0
LINE
  5
1A1
330
1F
100
AcDbEntity
  8
OBRYS
 62
     5
100
AcDbLine
 10
22.5
 20
72.1
 30
0.0
 11
25.0
 21
71.8
 31
0.0
  0
LINE
  5
1C5
330
1F
100
AcDbEntity
  8
OBRYS
 62
     5
100
AcDbLine
 10
62.9
 20
15.6
 30
0.0
 11
62.9
 21
18.7
 31
0.0
  0
LINE
  5
1C6
330
1F
100
AcDbEntity
  8
OBRYS
 62
     5
100
AcDbLine
 10
62.9
 20
18.7
 30
0.0
 11
59.8
 21
18.7
 31
0.0
  0
LINE
  5
1C7
330
1F
100
AcDbEntity
  8
OBRYS
 62
     5
100
AcDbLine
 10
59.8
 20
18.7
 30
0.0
 11
59.8
 21
15.6
 31
0.0
  0
LINE
  5
1C8
330
1F
100
AcDbEntity
  8
OBRYS
 62
     5
100
AcDbLine
 10
59.8
 20
15.6
 30
0.0
 11
62.9
 21
15.6
 31
0.0
  0
LINE
  5
1CD
330
1F
100
AcDbEntity
  8
OBRYS
 62
     5
100
AcDbLine
 10
62.2
 20
15.6
 30
0.0
 11
62.2
 21
18.7
 31
0.0
  0
LINE
  5
1CE
330
1F
100
AcDbEntity
  8
OBRYS
 62
     5
100
AcDbLine
 10
60.2
 20
15.6
 30
0.0
 11
60.2
 21
18.7
 31
0.0
  0
LINE
  5
1CF
330
1F
100
AcDbEntity
  8
OBRYS
 62
     5
100
AcDbLine
 10
62.9
 20
47.5
 30
0.0
 11
62.9
 21
50.59999999999999
 31
0.0
  0
LINE
  5
1D0
330
1F
100
AcDbEntity
  8
OBRYS
 62
     5
100
AcDbLine
 10
62.9
 20
50.59999999999999
 30
0.0
 11
59.8
 21
50.59999999999999
 31
0.0
  0
LINE
  5
1D1
330
1F
100
AcDbEntity
  8
OBRYS
 62
     5
100
AcDbLine
 10
59.8
 20
50.59999999999999
 30
0.0
 11
59.8
 21
47.5
 31
0.0
  0
LINE
  5
1D2
330
1F
100
AcDbEntity
  8
OBRYS
 62
     5
100
AcDbLine
 10
59.8
 20
47.5
 30
0.0
 11
62.9
 21
47.5
 31
0.0
  0
LINE
  5
1D3
330
1F
100
AcDbEntity
  8
OBRYS
 62
     5
100
AcDbLine
 10
62.2
 20
47.5
 30
0.0
 11
62.2
 21
50.59999999999999
 31
0.0
  0
LINE
  5
1D4
330
1F
100
AcDbEntity
  8
OBRYS
 62
     5
100
AcDbLine
 10
60.2
 20
47.5
 30
0.0
 11
60.2
 21
50.59999999999999
 31
0.0
  0
LINE
  5
1D5
330
1F
100
AcDbEntity
  8
OBRYS
 62
     5
100
AcDbLine
 10
68.8
 20
69.8
 30
0.0
 11
68.8
 21
72.89999999999999
 31
0.0
  0
LINE
  5
1D6
330
1F
100
AcDbEntity
  8
OBRYS
 62
     5
100
AcDbLine
 10
68.8
 20
72.89999999999999
 30
0.0
 11
65.7
 21
72.89999999999999
 31
0.0
  0
LINE
  5
1D7
330
1F
100
AcDbEntity
  8
OBRYS
 62
     5
100
AcDbLine
 10
65.7
 20
72.89999999999999
 30
0.0
 11
65.7
 21
69.8
 31
0.0
  0
LINE
  5
1D8
330
1F
100
AcDbEntity
  8
OBRYS
 62
     5
100
AcDbLine
 10
65.7
 20
69.8
 30
0.0
 11
68.8
 21
69.8
 31
0.0
  0
LINE
  5
1D9
330
1F
100
AcDbEntity
  8
OBRYS
 62
     5
100
AcDbLine
 10
68.10000000000001
 20
69.8
 30
0.0
 11
68.10000000000001
 21
72.89999999999999
 31
0.0
  0
LINE
  5
1DA
330
1F
100
AcDbEntity
  8
OBRYS
 62
     5
100
AcDbLine
 10
66.10000000000001
 20
69.8
 30
0.0
 11
66.10000000000001
 21
72.89999999999999
 31
0.0
  0
LINE
  5
1DB
330
1F
100
AcDbEntity
  8
OBRYS
 62
     5
100
AcDbLine
 10
68.8
 20
84.1
 30
0.0
 11
68.8
 21
87.19999999999999
 31
0.0
  0
LINE
  5
1DC
330
1F
100
AcDbEntity
  8
OBRYS
 62
     5
100
AcDbLine
 10
68.8
 20
87.19999999999999
 30
0.0
 11
65.7
 21
87.19999999999999
 31
0.0
  0
LINE
  5
1DD
330
1F
100
AcDbEntity
  8
OBRYS
 62
     5
100
AcDbLine
 10
65.7
 20
87.19999999999999
 30
0.0
 11
65.7
 21
84.1
 31
0.0
  0
LINE
  5
1DE
330
1F
100
AcDbEntity
  8
OBRYS
 62
     5
100
AcDbLine
 10
65.7
 20
84.1
 30
0.0
 11
68.8
 21
84.1
 31
0.0
  0
LINE
  5
1DF
330
1F
100
AcDbEntity
  8
OBRYS
 62
     5
100
AcDbLine
 10
68.10000000000001
 20
84.1
 30
0.0
 11
68.10000000000001
 21
87.19999999999999
 31
0.0
  0
LINE
  5
1E0
330
1F
100
AcDbEntity
  8
OBRYS
 62
     5
100
AcDbLine
 10
66.10000000000001
 20
84.1
 30
0.0
 11
66.10000000000001
 21
87.19999999999999
 31
0.0
  0
LINE
  5
2B6
330
1F
100
AcDbEntity
  8
OBRYS
 62
     5
100
AcDbLine
 10
27.83479919941555
 20
8.602374658403873
 30
0.0
 11
28.7
 21
8.1
 31
0.0
  0
LINE
  5
2BB
330
1F
100
AcDbEntity
  8
OBRYS
 62
     5
100
AcDbLine
 10
27.83479919941555
 20
8.602374658403873
 30
0.0
 11
23.35474539744931
 21
11.20330606154289
 31
0.0
  0
LINE
  5
3EF
330
1F
100
AcDbEntity
  8
OBRYS
 62
     5
100
AcDbLine
 10
125.4969719792858
 20
0.0000000000000033
 30
0.0
 11
132.4892480580031
 21
0.0000000000000007
 31
0.0
  0
LINE
  5
3F0
330
1F
100
AcDbEntity
  8
OBRYS
 62
     5
100
AcDbLine
 10
120.0
 20
8.1
 30
0.0
 11
138.0
 21
8.1
 31
0.0
  0
LINE
  5
3F1
330
1F
100
AcDbEntity
  8
OBRYS
 62
     5
100
AcDbLine
 10
123.15
 20
6.2
 30
0.0
 11
134.85
 21
6.2
 31
0.0
  0
LINE
  5
3F2
330
1F
100
AcDbEntity
  8
OBRYS
 62
     5
100
AcDbLine
 10
123.15
 20
6.2
 30
0.0
 11
121.95
 21
8.1
 31
0.0
  0
LINE
  5
3F3
330
1F
100
AcDbEntity
  8
OBRYS
 62
     5
100
AcDbLine
 10
134.85
 20
6.2
 30
0.0
 11
136.05
 21
8.1
 31
0.0
  0
LINE
  5
3F4
330
1F
100
AcDbEntity
  8
OBRYS
 62
     5
100
AcDbLine
 10
125.7071067811866
 20
1.0
 30
0.0
 11
132.2928932188134
 21
1.0
 31
0.0
  0
LINE
  5
3F5
330
1F
100
AcDbEntity
  8
OBRYS
 62
     5
100
AcDbLine
 10
125.0
 20
1.707106781186548
 30
0.0
 11
125.0
 21
6.2
 31
0.0
  0
LINE
  5
3F6
330
1F
100
AcDbEntity
  8
OBRYS
 62
     5
100
AcDbLine
 10
133.0
 20
1.707106781186548
 30
0.0
 11
133.0
 21
6.2
 31
0.0
  0
ARC
  5
3F7
330
1F
100
AcDbEntity
  8
OBRYS
 62
     5
100
AcDbCircle
 10
125.7071067811866
 20
1.707106781186548
 30
0.0
 40
0.707106781186548
100
AcDbArc
 50
180.0
 51
270.0
  0
ARC
  5
3F8
330
1F
100
AcDbEntity
  8
OBRYS
 62
     5
100
AcDbCircle
 10
132.2928932188134
 20
1.707106781186548
 30
0.0
 40
0.707106781186548
100
AcDbArc
 50
270.0
 51
359.9999999999998
  0
LINE
  5
3F9
330
1F
100
AcDbEntity
  8
OBRYS
 62
     5
100
AcDbLine
 10
121.7
 20
8.1
 30
0.0
 11
121.7
 21
5.207106781186549
 31
0.0
  0
LINE
  5
3FA
330
1F
100
AcDbEntity
  8
OBRYS
 62
     5
100
AcDbLine
 10
125.0
 20
4.5
 30
0.0
 11
122.4071067811866
 21
4.500000000000001
 31
0.0
  0
ARC
  5
3FB
330
1F
100
AcDbEntity
  8
OBRYS
 62
     5
100
AcDbCircle
 10
122.4071067811866
 20
5.207106781186549
 30
0.0
 40
0.707106781186548
100
AcDbArc
 50
180.0
 51
270.0
  0
LINE
  5
3FC
330
1F
100
AcDbEntity
  8
OBRYS
 62
     5
100
AcDbLine
 10
136.3
 20
8.100000000000001
 30
0.0
 11
136.3
 21
5.207106781186541
 31
0.0
  0
LINE
  5
3FD
330
1F
100
AcDbEntity
  8
OBRYS
 62
     5
100
AcDbLine
 10
133.0170014197672
 20
4.5
 30
0.0
 11
135.5928932188135
 21
4.5
 31
0.0
  0
ARC
  5
3FE
330
1F
100
AcDbEntity
  8
OBRYS
 62
     5
100
AcDbCircle
 10
135.5928932188135
 20
5.207106781186548
 30
0.0
 40
0.7071067811865475
100
AcDbArc
 50
270.0
 51
359.9999999999993
  0
LINE
  5
3FF
330
1F
100
AcDbEntity
  8
OBRYS
 62
     5
100
AcDbLine
 10
124.0
 20
4.5
 30
0.0
 11
123.9999990265624
 21
1.503194007024523
 31
0.0
  0
LINE
  5
400
330
1F
100
AcDbEntity
  8
OBRYS
 62
     5
100
AcDbLine
 10
134.0
 20
4.5
 30
0.0
 11
134.0
 21
1.49604698548332
 31
0.0
  0
ARC
  5
401
330
1F
100
AcDbEntity
  8
OBRYS
 62
     5
100
AcDbCircle
 10
132.4601391923747
 20
1.540219193746501
 30
0.0
 40
1.540494235900705
100
AcDbArc
 50
271.0827138285986
 51
358.356872755389
  0
ARC
  5
402
330
1F
100
AcDbEntity
  8
OBRYS
 62
     5
100
AcDbCircle
 10
125.5032078059073
 20
1.503195845114476
 30
0.0
 40
1.503208779346059
100
AcDbArc
 50
179.9347947880687
 51
269.7623167341429
  0
LINE
  5
403
330
1F
100
AcDbEntity
  8
OBRYS
 62
     5
100
AcDbLine
 10
120.0
 20
8.1
 30
0.0
 11
120.0
 21
90.1
 31
0.0
  0
LINE
  5
404
330
1F
100
AcDbEntity
  8
OBRYS
 62
     5
100
AcDbLine
 10
120.0
 20
90.1
 30
0.0
 11
138.0
 21
90.1
 31
0.0
  0
LINE
  5
405
330
1F
100
AcDbEntity
  8
OBRYS
 62
     5
100
AcDbLine
 10
138.0
 20
90.1
 30
0.0
 11
138.0
 21
8.1
 31
0.0
  0
LINE
  5
406
330
1F
100
AcDbEntity
  8
OBRYS
 62
     5
100
AcDbLine
 10
123.15
 20
91.99999999999999
 30
0.0
 11
121.95
 21
90.1
 31
0.0
  0
LINE
  5
407
330
1F
100
AcDbEntity
  8
OBRYS
 62
     5
100
AcDbLine
 10
123.15
 20
91.99999999999999
 30
0.0
 11
134.85
 21
91.99999999999999
 31
0.0
  0
LINE
  5
408
330
1F
100
AcDbEntity
  8
OBRYS
 62
     5
100
AcDbLine
 10
134.85
 20
91.99999999999999
 30
0.0
 11
136.05
 21
90.1
 31
0.0
  0
LINE
  5
409
330
1F
100
AcDbEntity
  8
OBRYS
 62
     5
100
AcDbLine
 10
120.0
 20
26.1
 30
0.0
 11
138.0
 21
26.1
 31
0.0
  0
LINE
  5
40A
330
1F
100
AcDbEntity
  8
OBRYS
 62
     5
100
AcDbLine
 10
120.3
 20
26.6
 30
0.0
 11
137.7
 21
26.6
 31
0.0
  0
LINE
  5
40B
330
1F
100
AcDbEntity
  8
OBRYS
 62
     5
100
AcDbLine
 10
120.3
 20
71.6
 30
0.0
 11
137.7
 21
71.6
 31
0.0
  0
LINE
  5
40C
330
1F
100
AcDbEntity
  8
OBRYS
 62
     5
100
AcDbLine
 10
120.0
 20
72.1
 30
0.0
 11
138.0
 21
72.1
 31
0.0
  0
LINE
  5
40E
330
1F
100
AcDbEntity
  8
OBRYS
 62
     5
100
AcDbLine
 10
127.3
 20
26.1
 30
0.0
 11
127.3
 21
24.6
 31
0.0
  0
LINE
  5
40F
330
1F
100
AcDbEntity
  8
OBRYS
 62
     5
100
AcDbLine
 10
127.3
 20
24.6
 30
0.0
 11
129.0
 21
24.6
 31
0.0
  0
LINE
  5
410
330
1F
100
AcDbEntity
  8
OBRYS
 62
     5
100
AcDbLine
 10
129.0
 20
24.6
 30
0.0
 11
129.0
 21
26.1
 31
0.0
  0
LINE
  5
411
330
1F
100
AcDbEntity
  8
OBRYS
 62
     5
100
AcDbLine
 10
126.45
 20
26.1
 30
0.0
 11
126.45
 21
23.6
 31
0.0
  0
LINE
  5
412
330
1F
100
AcDbEntity
  8
OBRYS
 62
     5
100
AcDbLine
 10
126.45
 20
23.6
 30
0.0
 11
129.85
 21
23.6
 31
0.0
  0
LINE
  5
413
330
1F
100
AcDbEntity
  8
OBRYS
 62
     5
100
AcDbLine
 10
129.85
 20
23.6
 30
0.0
 11
129.85
 21
26.1
 31
0.0
  0
LINE
  5
414
330
1F
100
AcDbEntity
  8
OBRYS
 62
     5
100
AcDbLine
 10
126.45
 20
23.6
 30
0.0
 11
127.3
 21
24.6
 31
0.0
  0
LINE
  5
415
330
1F
100
AcDbEntity
  8
OBRYS
 62
     5
100
AcDbLine
 10
129.0
 20
24.6
 30
0.0
 11
129.85
 21
23.6
 31
0.0
  0
LINE
  5
416
330
1F
100
AcDbEntity
  8
OBRYS
 62
     5
100
AcDbLine
 10
127.3
 20
72.1
 30
0.0
 11
127.3
 21
73.6
 31
0.0
  0
LINE
  5
417
330
1F
100
AcDbEntity
  8
OBRYS
 62
     5
100
AcDbLine
 10
127.3
 20
73.6
 30
0.0
 11
129.0
 21
73.6
 31
0.0
  0
LINE
  5
418
330
1F
100
AcDbEntity
  8
OBRYS
 62
     5
100
AcDbLine
 10
129.0
 20
73.6
 30
0.0
 11
129.0
 21
72.1
 31
0.0
  0
LINE
  5
419
330
1F
100
AcDbEntity
  8
OBRYS
 62
     5
100
AcDbLine
 10
126.45
 20
72.1
 30
0.0
 11
126.45
 21
74.6
 31
0.0
  0
LINE
  5
41A
330
1F
100
AcDbEntity
  8
OBRYS
 62
     5
100
AcDbLine
 10
126.45
 20
74.6
 30
0.0
 11
129.85
 21
74.6
 31
0.0
  0
LINE
  5
41B
330
1F
100
AcDbEntity
  8
OBRYS
 62
     5
100
AcDbLine
 10
129.85
 20
74.6
 30
0.0
 11
129.85
 21
72.1
 31
0.0
  0
LINE
  5
41C
330
1F
100
AcDbEntity
  8
OBRYS
 62
     5
100
AcDbLine
 10
126.45
 20
74.6
 30
0.0
 11
127.3
 21
73.6
 31
0.0
  0
LINE
  5
41D
330
1F
100
AcDbEntity
  8
OBRYS
 62
     5
100
AcDbLine
 10
129.0
 20
73.6
 30
0.0
 11
129.85
 21
74.6
 31
0.0
  0
CIRCLE
  5
41E
330
1F
100
AcDbEntity
  8
OBRYS
 62
     5
100
AcDbCircle
 10
129.0
 20
16.85
 30
0.0
 40
3.2
  0
LINE
  5
41F
330
1F
100
AcDbEntity
  8
OBRYS
 62
     5
100
AcDbLine
 10
120.0
 20
11.7
 30
0.0
 11
138.0
 21
11.7
 31
0.0
  0
LINE
  5
420
330
1F
100
AcDbEntity
  8
OBRYS
 62
     5
100
AcDbLine
 10
120.0
 20
86.5
 30
0.0
 11
138.0
 21
86.5
 31
0.0
  0
LINE
  5
421
330
1F
100
AcDbEntity
  8
OBRYS
 62
     5
100
AcDbLine
 10
128.35
 20
18.20710678118655
 30
0.0
 11
128.35
 21
19.98328900677866
 31
0.0
  0
LINE
  5
422
330
1F
100
AcDbEntity
  8
OBRYS
 62
     5
100
AcDbLine
 10
128.35
 20
13.71671099322134
 30
0.0
 11
128.35
 21
15.49289321881345
 31
0.0
  0
LINE
  5
423
330
1F
100
AcDbEntity
  8
OBRYS
 62
     5
100
AcDbLine
 10
129.65
 20
18.20710678118655
 30
0.0
 11
129.65
 21
19.98328900677866
 31
0.0
  0
LINE
  5
424
330
1F
100
AcDbEntity
  8
OBRYS
 62
     5
100
AcDbLine
 10
129.65
 20
13.71671099322134
 30
0.0
 11
129.65
 21
15.49289321881345
 31
0.0
  0
ARC
  5
425
330
1F
100
AcDbEntity
  8
OBRYS
 62
     5
100
AcDbCircle
 10
127.6428932188135
 20
18.20710678118655
 30
0.0
 40
0.707106781186548
100
AcDbArc
 50
270.0
 51
0.0
  0
ARC
  5
426
330
1F
100
AcDbEntity
  8
OBRYS
 62
     5
100
AcDbCircle
 10
130.3571067811866
 20
18.20710678118655
 30
0.0
 40
0.707106781186548
100
AcDbArc
 50
180.0
 51
270.0
  0
ARC
  5
427
330
1F
100
AcDbEntity
  8
OBRYS
 62
     5
100
AcDbCircle
 10
130.3571067811866
 20
15.49289321881345
 30
0.0
 40
0.707106781186548
100
AcDbArc
 50
90.0
 51
180.0
  0
ARC
  5
428
330
1F
100
AcDbEntity
  8
OBRYS
 62
     5
100
AcDbCircle
 10
127.6428932188135
 20
15.49289321881345
 30
0.0
 40
0.707106781186548
100
AcDbArc
 50
0.0
 51
90.0
  0
LINE
  5
429
330
1F
100
AcDbEntity
  8
OBRYS
 62
     5
100
AcDbLine
 10
126.75
 20
16.2
 30
0.0
 11
126.75
 21
17.5
 31
0.0
  0
LINE
  5
42A
330
1F
100
AcDbEntity
  8
OBRYS
 62
     5
100
AcDbLine
 10
131.25
 20
16.2
 30
0.0
 11
131.25
 21
17.5
 31
0.0
  0
LINE
  5
42B
330
1F
100
AcDbEntity
  8
OBRYS
 62
     5
100
AcDbLine
 10
130.3571067811866
 20
16.2
 30
0.0
 11
131.2451978939826
 21
16.2
 31
0.0
  0
LINE
  5
42C
330
1F
100
AcDbEntity
  8
OBRYS
 62
     5
100
AcDbLine
 10
130.3571067811866
 20
17.5
 30
0.0
 11
131.2451978939826
 21
17.5
 31
0.0
  0
LINE
  5
42D
330
1F
100
AcDbEntity
  8
OBRYS
 62
     5
100
AcDbLine
 10
126.7548021060174
 20
17.5
 30
0.0
 11
127.6428932188135
 21
17.5
 31
0.0
  0
LINE
  5
42E
330
1F
100
AcDbEntity
  8
OBRYS
 62
     5
100
AcDbLine
 10
129.8571067811866
 20
17.70710678118655
 30
0.0
 11
130.3571067811866
 21
18.20710678118655
 31
0.0
  0
LINE
  5
42F
330
1F
100
AcDbEntity
  8
OBRYS
 62
     5
100
AcDbLine
 10
126.7548021060174
 20
16.2
 30
0.0
 11
127.6428932188135
 21
16.2
 31
0.0
  0
LINE
  5
430
330
1F
100
AcDbEntity
  8
OBRYS
 62
     5
100
AcDbLine
 10
129.8571067811866
 20
15.99289321881345
 30
0.0
 11
130.3571067811866
 21
15.49289321881345
 31
0.0
  0
LINE
  5
431
330
1F
100
AcDbEntity
  8
OBRYS
 62
     5
100
AcDbLine
 10
128.1428932188135
 20
17.70710678118655
 30
0.0
 11
127.6428932188135
 21
18.20710678118655
 31
0.0
  0
LINE
  5
432
330
1F
100
AcDbEntity
  8
OBRYS
 62
     5
100
AcDbLine
 10
128.1428932188135
 20
15.99289321881345
 30
0.0
 11
127.6428932188135
 21
15.49289321881345
 31
0.0
  0
CIRCLE
  5
433
330
1F
100
AcDbEntity
  8
OBRYS
 62
     5
100
AcDbCircle
 10
129.0
 20
16.85
 30
0.0
 40
0.7
  0
CIRCLE
  5
434
330
1F
100
AcDbEntity
  8
OBRYS
 62
     5
100
AcDbCircle
 10
129.0
 20
81.35
 30
0.0
 40
3.2
  0
LINE
  5
435
330
1F
100
AcDbEntity
  8
OBRYS
 62
     5
100
AcDbLine
 10
128.35
 20
78.21671099322133
 30
0.0
 11
128.35
 21
79.99289321881345
 31
0.0
  0
LINE
  5
436
330
1F
100
AcDbEntity
  8
OBRYS
 62
     5
100
AcDbLine
 10
128.35
 20
82.70710678118654
 30
0.0
 11
128.35
 21
84.48328900677866
 31
0.0
  0
LINE
  5
437
330
1F
100
AcDbEntity
  8
OBRYS
 62
     5
100
AcDbLine
 10
129.65
 20
78.21671099322133
 30
0.0
 11
129.65
 21
79.99289321881345
 31
0.0
  0
LINE
  5
438
330
1F
100
AcDbEntity
  8
OBRYS
 62
     5
100
AcDbLine
 10
129.65
 20
82.70710678118654
 30
0.0
 11
129.65
 21
84.48328900677865
 31
0.0
  0
ARC
  5
439
330
1F
100
AcDbEntity
  8
OBRYS
 62
     5
100
AcDbCircle
 10
127.6428932188135
 20
82.70710678118654
 30
0.0
 40
0.707106781186548
100
AcDbArc
 50
270.0
 51
0.0
  0
ARC
  5
43A
330
1F
100
AcDbEntity
  8
OBRYS
 62
     5
100
AcDbCircle
 10
130.3571067811866
 20
82.70710678118654
 30
0.0
 40
0.707106781186548
100
AcDbArc
 50
180.0
 51
270.0
  0
ARC
  5
43B
330
1F
100
AcDbEntity
  8
OBRYS
 62
     5
100
AcDbCircle
 10
130.3571067811866
 20
79.99289321881345
 30
0.0
 40
0.707106781186548
100
AcDbArc
 50
90.0
 51
180.0
  0
ARC
  5
43C
330
1F
100
AcDbEntity
  8
OBRYS
 62
     5
100
AcDbCircle
 10
127.6428932188135
 20
79.99289321881345
 30
0.0
 40
0.707106781186548
100
AcDbArc
 50
0.0
 51
90.0
  0
LINE
  5
43D
330
1F
100
AcDbEntity
  8
OBRYS
 62
     5
100
AcDbLine
 10
126.75
 20
80.69999999999999
 30
0.0
 11
126.75
 21
81.99999999999999
 31
0.0
  0
LINE
  5
43E
330
1F
100
AcDbEntity
  8
OBRYS
 62
     5
100
AcDbLine
 10
131.25
 20
80.69999999999999
 30
0.0
 11
131.25
 21
81.99999999999999
 31
0.0
  0
LINE
  5
43F
330
1F
100
AcDbEntity
  8
OBRYS
 62
     5
100
AcDbLine
 10
130.3571067811866
 20
80.69999999999999
 30
0.0
 11
131.2451978939826
 21
80.69999999999999
 31
0.0
  0
LINE
  5
440
330
1F
100
AcDbEntity
  8
OBRYS
 62
     5
100
AcDbLine
 10
130.3571067811866
 20
81.99999999999999
 30
0.0
 11
131.2451978939826
 21
81.99999999999999
 31
0.0
  0
LINE
  5
441
330
1F
100
AcDbEntity
  8
OBRYS
 62
     5
100
AcDbLine
 10
126.7548021060174
 20
81.99999999999999
 30
0.0
 11
127.6428932188135
 21
81.99999999999999
 31
0.0
  0
LINE
  5
442
330
1F
100
AcDbEntity
  8
OBRYS
 62
     5
100
AcDbLine
 10
129.8571067811866
 20
82.20710678118654
 30
0.0
 11
130.3571067811866
 21
82.70710678118654
 31
0.0
  0
LINE
  5
443
330
1F
100
AcDbEntity
  8
OBRYS
 62
     5
100
AcDbLine
 10
126.7548021060174
 20
80.69999999999999
 30
0.0
 11
127.6428932188135
 21
80.69999999999999
 31
0.0
  0
LINE
  5
444
330
1F
100
AcDbEntity
  8
OBRYS
 62
     5
100
AcDbLine
 10
129.8571067811866
 20
80.49289321881345
 30
0.0
 11
130.3571067811866
 21
79.99289321881345
 31
0.0
  0
LINE
  5
445
330
1F
100
AcDbEntity
  8
OBRYS
 62
     5
100
AcDbLine
 10
128.1428932188135
 20
82.20710678118654
 30
0.0
 11
127.6428932188135
 21
82.70710678118654
 31
0.0
  0
LINE
  5
446
330
1F
100
AcDbEntity
  8
OBRYS
 62
     5
100
AcDbLine
 10
128.1428932188135
 20
80.49289321881345
 30
0.0
 11
127.6428932188135
 21
79.99289321881345
 31
0.0
  0
CIRCLE
  5
447
330
1F
100
AcDbEntity
  8
OBRYS
 62
     5
100
AcDbCircle
 10
129.0
 20
81.35
 30
0.0
 40
0.7
  0
LINE
  5
44E
330
1F
100
AcDbEntity
  8
OBRYS
 62
     5
100
AcDbLine
 10
120.0
 20
8.6
 30
0.0
 11
138.0
 21
8.599999999999994
 31
0.0
  0
LINE
  5
44F
330
1F
100
AcDbEntity
  8
OBRYS
 62
     5
100
AcDbLine
 10
120.0
 20
89.6
 30
0.0
 11
138.0
 21
89.6
 31
0.0
  0
LINE
  5
4E0
330
1F
100
AcDbEntity
  8
OBRYS
 62
     5
100
AcDbLine
 10
23.17858802006699
 20
11.88396178886323
 30
0.0
 11
23.60596071879165
 21
11.63561481963468
 31
0.0
  0
LINE
  5
4E1
330
1F
100
AcDbEntity
  8
OBRYS
 62
     5
100
AcDbLine
 10
28.08586695810881
 20
9.034769131708918
 30
0.0
 11
28.51846735840103
 21
8.783581802506982
 31
0.0
  0
LINE
  5
4E2
330
1F
100
AcDbEntity
  8
OBRYS
 62
     5
100
AcDbLine
 10
23.17858802006699
 20
11.88396178886323
 30
0.0
 11
23.73102181544385
 21
12.83537554756782
 31
0.0
  0
LINE
  5
4E3
330
1F
100
AcDbEntity
  8
OBRYS
 62
     5
100
AcDbLine
 10
28.51846735840103
 20
8.783581802506982
 30
0.0
 11
29.07081642752618
 21
9.73484964377808
 31
0.0
  0
LINE
  5
4E4
330
1F
100
AcDbEntity
  8
OBRYS
 62
     5
100
AcDbLine
 10
27.83479919941555
 20
8.602374658403873
 30
0.0
 11
28.08586695810881
 21
9.034769131708918
 31
0.0
  0
LINE
  5
4E5
330
1F
100
AcDbEntity
  8
OBRYS
 62
     5
100
AcDbLine
 10
23.35474539744931
 20
11.20330606154289
 30
0.0
 11
23.60581314151945
 21
11.63570050966369
 31
0.0
  0
LINE
  5
4E6
330
1F
100
AcDbEntity
  8
OBRYS
 62
     5
100
AcDbLine
 10
23.73102181544385
 20
12.83537554756782
 30
0.0
 11
29.07081642752618
 21
9.73484964377808
 31
0.0
  0
ELLIPSE
  5
4E7
330
1F
100
AcDbEntity
  8
OBRYS
 62
     5
100
AcDbEllipse
 10
26.40091912148502
 20
11.28511259567295
 30
0.0
 11
-1.039943320270123
 21
0.6038380569310341
 31
0.0
210
0.0
220
0.0
230
1.0
 40
0.6385440653482459
 41
6.283185307179586
 42
9.42477796076938
  0
LINE
  5
4E8
330
1F
100
AcDbEntity
  8
OBRYS
 62
     5
100
AcDbLine
 10
24.60098340460934
 20
12.33023656031044
 30
0.0
 11
24.09875154992429
 21
11.46515194972255
 31
0.0
  0
LINE
  5
4E9
330
1F
100
AcDbEntity
  8
OBRYS
 62
     5
100
AcDbLine
 10
28.20211116541818
 20
10.23925915080853
 30
0.0
 11
27.70001548530882
 21
9.374409098281191
 31
0.0
  0
LINE
  5
4EA
330
1F
100
AcDbEntity
  8
OBRYS
 62
     5
100
AcDbLine
 10
27.70001548530882
 20
9.374409098281191
 30
0.0
 11
24.09875154992429
 21
11.46515194972255
 31
0.0
  0
LINE
  5
4EB
330
1F
100
AcDbEntity
  8
OBRYS
 62
     5
100
AcDbLine
 10
23.17858802006699
 20
86.31603821113676
 30
0.0
 11
23.60596071879165
 21
86.5643851803653
 31
0.0
  0
LINE
  5
4EC
330
1F
100
AcDbEntity
  8
OBRYS
 62
     5
100
AcDbLine
 10
28.08586695810881
 20
89.16523086829106
 30
0.0
 11
28.51846735840103
 21
89.416418197493
 31
0.0
  0
LINE
  5
4ED
330
1F
100
AcDbEntity
  8
OBRYS
 62
     5
100
AcDbLine
 10
23.17858802006699
 20
86.31603821113676
 30
0.0
 11
23.73102181544385
 21
85.36462445243217
 31
0.0
  0
LINE
  5
4EE
330
1F
100
AcDbEntity
  8
OBRYS
 62
     5
100
AcDbLine
 10
28.51846735840103
 20
89.416418197493
 30
0.0
 11
29.07081642752618
 21
88.4651503562219
 31
0.0
  0
LINE
  5
4EF
330
1F
100
AcDbEntity
  8
OBRYS
 62
     5
100
AcDbLine
 10
27.83479919941555
 20
89.59762534159611
 30
0.0
 11
28.08586695810881
 21
89.16523086829106
 31
0.0
  0
LINE
  5
4F0
330
1F
100
AcDbEntity
  8
OBRYS
 62
     5
100
AcDbLine
 10
23.35474539744931
 20
86.9966939384571
 30
0.0
 11
23.60581314151945
 21
86.5642994903363
 31
0.0
  0
LINE
  5
4F1
330
1F
100
AcDbEntity
  8
OBRYS
 62
     5
100
AcDbLine
 10
23.73102181544385
 20
85.36462445243217
 30
0.0
 11
29.07081642752618
 21
88.4651503562219
 31
0.0
  0
ELLIPSE
  5
4F2
330
1F
100
AcDbEntity
  8
OBRYS
 62
     5
100
AcDbEllipse
 10
26.40091912148502
 20
86.91488740432703
 30
0.0
 11
-1.039943320270123
 21
-0.603838056931034
 31
0.0
210
0.0
220
0.0
230
-1.0
 40
0.6385440653482459
 41
6.283185307179586
 42
9.42477796076938
  0
LINE
  5
4F3
330
1F
100
AcDbEntity
  8
OBRYS
 62
     5
100
AcDbLine
 10
24.60098340460934
 20
85.86976343968955
 30
0.0
 11
24.09875154992429
 21
86.73484805027744
 31
0.0
  0
LINE
  5
4F4
330
1F
100
AcDbEntity
  8
OBRYS
 62
     5
100
AcDbLine
 10
28.20211116541818
 20
87.96074084919145
 30
0.0
 11
27.70001548530882
 21
88.8255909017188
 31
0.0
  0
LINE
  5
4F5
330
1F
100
AcDbEntity
  8
OBRYS
 62
     5
100
AcDbLine
 10
27.70001548530882
 20
88.8255909017188
 30
0.0
 11
24.09875154992429
 21
86.73484805027744
 31
0.0
  0
LINE
  5
4F6
330
1F
100
AcDbEntity
  8
OBRYS
 62
     5
100
AcDbLine
 10
123.0
 20
54.2
 30
0.0
 11
123.0
 21
59.89999999999999
 31
0.0
  0
LINE
  5
4F7
330
1F
100
AcDbEntity
  8
OBRYS
 62
     5
100
AcDbLine
 10
123.0
 20
59.89999999999999
 30
0.0
 11
135.0
 21
59.89999999999999
 31
0.0
  0
LINE
  5
4F8
330
1F
100
AcDbEntity
  8
OBRYS
 62
     5
100
AcDbLine
 10
135.0
 20
59.89999999999999
 30
0.0
 11
135.0
 21
54.2
 31
0.0
  0
LINE
  5
4F9
330
1F
100
AcDbEntity
  8
OBRYS
 62
     5
100
AcDbLine
 10
135.0
 20
54.2
 30
0.0
 11
123.0
 21
54.2
 31
0.0
  0
LINE
  5
516
330
1F
100
AcDbEntity
  8
OBRYS
 62
     5
100
AcDbLine
 10
66.5
 20
43.0145913078578
 30
0.0
 11
66.5
 21
43.47198337547407
 31
0.0
  0
LINE
  5
517
330
1F
100
AcDbEntity
  8
OBRYS
 62
     5
100
AcDbLine
 10
48.5
 20
43.0145913078578
 30
0.0
 11
48.5
 21
43.47198337547407
 31
0.0
  0
DIMENSION
  5
54F
330
1F
100
AcDbEntity
  8
KOTY
 62
     1
100
AcDbDimension
  2
*D3
 10
138.0
 20
-10.0
 30
0.0
 11
128.0839976579868
 21
-10.0
 31
0.0
 70
   160
  3
STANDARD
100
AcDbAlignedDimension
 13
120.0
 23
8.1
 33
0.0
 14
138.0
 24
8.1
 34
0.0
100
AcDbRotatedDimension
1001
ACAD
1000
DSTYLE
1002
{
1070
     7
1000

1070
     6
1000

1070
     5
1000

1070
   278
1070
    44
1070
   147
1040
1.0
1070
   173
1070
     1
1070
    77
1070
     1
1070
   271
1070
     0
1070
    41
1040
4.0
1070
   140
1040
4.0
1002
}
  0
DIMENSION
  5
56F
330
1F
100
AcDbEntity
  8
KOTY
 62
     1
100
AcDbDimension
  2
*D5
 10
87.81014589420664
 20
92.0
 30
0.0
 11
87.81014589420664
 21
46.10084770248162
 31
0.0
 70
   160
  3
STANDARD
100
AcDbAlignedDimension
 13
72.5
 23
0.0
 33
0.0
 14
61.65
 24
92.0
 34
0.0
 50
90.0
100
AcDbRotatedDimension
1001
ACAD
1000
DSTYLE
1002
{
1070
     7
1000

1070
     6
1000

1070
     5
1000

1070
    73
1070
     0
1070
   278
1070
    44
1070
   147
1040
1.0
1070
   173
1070
     1
1070
    77
1070
     1
1070
   271
1070
     0
1070
    41
1040
4.0
1070
   140
1040
4.0
1002
}
  0
DIMENSION
  5
57F
330
1F
100
AcDbEntity
  8
KOTY
 62
     1
100
AcDbDimension
  2
*D6
 10
72.5
 20
105.2550805439103
 30
0.0
 11
35.69797016463227
 21
105.2550805439103
 31
0.0
 70
   160
  1
72
  3
STANDARD
100
AcDbAlignedDimension
 13
0.0
 23
71.6
 33
0.0
 14
72.5
 24
83.3
 34
0.0
100
AcDbRotatedDimension
1001
ACAD
1000
DSTYLE
1002
{
1070
     7
1000

1070
     6
1000

1070
     5
1000

1070
   278
1070
    44
1070
   147
1040
1.0
1070
   173
1070
     1
1070
    77
1070
     1
1070
   271
1070
     0
1070
    41
1040
4.0
1070
   140
1040
4.0
1002
}
  0
DIMENSION
  5
5AF
330
1F
100
AcDbEntity
  8
KOTY
 62
     1
100
AcDbDimension
  2
*D7
 10
-9.999999999999998
 20
71.6
 30
0.0
 11
-10.0
 21
46.0
 31
0.0
 70
   160
  3
STANDARD
100
AcDbAlignedDimension
 13
0.0
 23
26.6
 33
0.0
 14
0.0
 24
71.6
 34
0.0
 50
90.0
100
AcDbRotatedDimension
1001
ACAD
1000
DSTYLE
1002
{
1070
     7
1000

1070
     6
1000

1070
     5
1000

1070
    73
1070
     0
1070
   278
1070
    44
1070
   147
1040
1.0
1070
   173
1070
     1
1070
    77
1070
     2
1070
   271
1070
     0
1070
    41
1040
4.0
1070
   140
1040
4.0
1002
}
  0
DIMENSION
  5
5BF
330
1F
100
AcDbEntity
  8
KOTY
 62
     1
100
AcDbDimension
  2
*D8
 10
-18.63474222486298
 20
90.1
 30
0.0
 11
-18.63474222486299
 21
46.00000000000001
 31
0.0
 70
   160
  3
STANDARD
100
AcDbAlignedDimension
 13
28.7
 23
8.1
 33
0.0
 14
28.7
 24
90.1
 34
0.0
 50
90.0
100
AcDbRotatedDimension
1001
ACAD
1000
DSTYLE
1002
{
1070
     7
1000

1070
     6
1000

1070
     5
1000

1070
    73
1070
     0
1070
   278
1070
    44
1070
   147
1040
1.0
1070
   173
1070
     1
1070
   280
1070
     0
1070
    77
1070
     2
1070
   271
1070
     0
1070
    41
1040
4.0
1070
   140
1040
4.0
1002
}
  0
DIMENSION
  5
5DA
330
1F
100
AcDbEntity
  8
KOTY
 62
     1
100
AcDbDimension
  2
*D9
 10
22.5
 20
-10.0
 30
0.0
 11
44.5
 21
-10.0
 31
0.0
 70
   160
  3
STANDARD
100
AcDbAlignedDimension
 13
66.5
 23
30.5
 33
0.0
 14
22.5
 24
11.7
 34
0.0
100
AcDbRotatedDimension
1001
ACAD
1000
DSTYLE
1002
{
1070
     7
1000

1070
     6
1000

1070
     5
1000

1070
   278
1070
    44
1070
   147
1040
1.0
1070
    77
1070
     1
1070
   173
1070
     1
1070
   271
1070
     0
1070
   140
1040
4.0
1070
    41
1040
4.0
1002
}
  0
DIMENSION
  5
5EA
330
1F
100
AcDbEntity
  8
KOTY
 62
     1
100
AcDbDimension
  2
*D10
 10
66.5
 20
-19.81591161746175
 30
0.0
 11
33.25
 21
-19.81591161746175
 31
0.0
 70
   160
  3
STANDARD
100
AcDbAlignedDimension
 13
0.0
 23
26.6
 33
0.0
 14
66.5
 24
30.4375
 34
0.0
100
AcDbRotatedDimension
1001
ACAD
1000
DSTYLE
1002
{
1070
     7
1000

1070
     6
1000

1070
     5
1000

1070
   278
1070
    44
1070
   147
1040
1.0
1070
    77
1070
     1
1070
   173
1070
     1
1070
   271
1070
     0
1070
   140
1040
4.0
1070
    41
1040
4.0
1002
}
  0
LINE
  5
63D
330
1F
100
AcDbEntity
  8
OBRYS
 62
     5
100
AcDbLine
 10
128.35
 20
19.0952
 30
0.0
 11
129.65
 21
19.0951978939826
 31
0.0
  0
LINE
  5
63E
330
1F
100
AcDbEntity
  8
OBRYS
 62
     5
100
AcDbLine
 10
128.35
 20
14.6048021060174
 30
0.0
 11
129.65
 21
14.6048021060174
 31
0.0
  0
LINE
  5
63F
330
1F
100
AcDbEntity
  8
OBRYS
 62
     5
100
AcDbLine
 10
128.35
 20
79.1048
 30
0.0
 11
129.65
 21
79.1048
 31
0.0
  0
LINE
  5
640
330
1F
100
AcDbEntity
  8
OBRYS
 62
     5
100
AcDbLine
 10
128.35
 20
83.5952
 30
0.0
 11
129.65
 21
83.5952
 31
0.0
  0
LINE
  5
641
330
1F
100
AcDbEntity
  8
OBRYS
 62
     5
100
AcDbLine
 10
120.0
 20
11.2
 30
0.0
 11
138.0
 21
11.2
 31
0.0
  0
LINE
  5
642
330
1F
100
AcDbEntity
  8
OBRYS
 62
     5
100
AcDbLine
 10
120.0
 20
87.0
 30
0.0
 11
138.0
 21
87.0
 31
0.0
  0
LINE
  5
678
330
1F
100
AcDbEntity
  8
OBRYS
 62
     5
100
AcDbLine
 10
120.3
 20
71.6
 30
0.0
 11
120.3
 21
26.6
 31
0.0
  0
LINE
  5
679
330
1F
100
AcDbEntity
  8
OBRYS
 62
     5
100
AcDbLine
 10
137.7
 20
71.6
 30
0.0
 11
137.7
 21
26.6
 31
0.0
  0
LINE
  5
70F
330
1F
100
AcDbEntity
  8
OBRYS
 62
     5
100
AcDbLine
 10
65.50002072424707
 20
114.9999917127799
 30
0.0
 11
65.50002072424707
 21
108.5999917127799
 31
0.0
  0
LINE
  5
710
330
1F
100
AcDbEntity
  8
OBRYS
 62
     5
100
AcDbLine
 10
65.50002072424707
 20
108.5999917127799
 30
0.0
 11
69.50002072424707
 21
108.5999917127799
 31
0.0
  0
LINE
  5
711
330
1F
100
AcDbEntity
  8
OBRYS
 62
     5
100
AcDbLine
 10
69.50002072424707
 20
108.5999917127799
 30
0.0
 11
69.50002072424707
 21
114.9999917127799
 31
0.0
  0
LINE
  5
712
330
1F
100
AcDbEntity
  8
OBRYS
 62
     5
100
AcDbLine
 10
64.90002072424707
 20
114.9999917127799
 30
0.0
 11
73.30002072424706
 21
114.9999917127799
 31
0.0
  0
LINE
  5
713
330
1F
100
AcDbEntity
  8
OBRYS
 62
     5
100
AcDbLine
 10
68.80002072424706
 20
108.5999917127799
 30
0.0
 11
68.80002072424706
 21
114.9999917127799
 31
0.0
  0
LINE
  5
714
330
1F
100
AcDbEntity
  8
OBRYS
 62
     5
100
AcDbLine
 10
65.50002072424707
 20
108.5999917127799
 30
0.0
 11
64.50002072424707
 21
108.5999917127799
 31
0.0
  0
LINE
  5
715
330
1F
100
AcDbEntity
  8
OBRYS
 62
     5
100
AcDbLine
 10
64.50002072424707
 20
108.5999917127799
 30
0.0
 11
64.50002072424707
 21
110.9999917127799
 31
0.0
  0
LINE
  5
716
330
1F
100
AcDbEntity
  8
OBRYS
 62
     5
100
AcDbLine
 10
64.50002072424707
 20
110.9999917127799
 30
0.0
 11
65.50002072424707
 21
110.9999917127799
 31
0.0
  0
LINE
  5
717
330
1F
100
AcDbEntity
  8
OBRYS
 62
     5
100
AcDbLine
 10
64.90002072424707
 20
114.9999917127799
 30
0.0
 11
64.90002072424707
 21
115.6999917127799
 31
0.0
  0
LINE
  5
718
330
1F
100
AcDbEntity
  8
OBRYS
 62
     5
100
AcDbLine
 10
64.90002072424707
 20
115.6999917127799
 30
0.0
 11
63.00002072424707
 21
115.6999917127799
 31
0.0
  0
LINE
  5
719
330
1F
100
AcDbEntity
  8
OBRYS
 62
     5
100
AcDbLine
 10
63.00002072424707
 20
115.6999917127799
 30
0.0
 11
63.00002072424707
 21
122.2999917127799
 31
0.0
  0
LINE
  5
71A
330
1F
100
AcDbEntity
  8
OBRYS
 62
     5
100
AcDbLine
 10
63.00002072424707
 20
122.2999917127799
 30
0.0
 11
63.70002072424707
 21
122.2999917127799
 31
0.0
  0
LINE
  5
71B
330
1F
100
AcDbEntity
  8
OBRYS
 62
     5
100
AcDbLine
 10
73.30002072424706
 20
114.9999917127799
 30
0.0
 11
73.30002072424706
 21
115.6999917127799
 31
0.0
  0
LINE
  5
71C
330
1F
100
AcDbEntity
  8
OBRYS
 62
     5
100
AcDbLine
 10
73.30002072424706
 20
115.6999917127799
 30
0.0
 11
74.00002072424707
 21
115.6999917127799
 31
0.0
  0
LINE
  5
71D
330
1F
100
AcDbEntity
  8
OBRYS
 62
     5
100
AcDbLine
 10
74.00002072424707
 20
115.6999917127799
 30
0.0
 11
74.00002072424707
 21
123.9999917127799
 31
0.0
  0
LINE
  5
71E
330
1F
100
AcDbEntity
  8
OBRYS
 62
     5
100
AcDbLine
 10
74.00002072424707
 20
123.9999917127799
 30
0.0
 11
67.50002072424707
 21
123.9999917127799
 31
0.0
  0
LINE
  5
71F
330
1F
100
AcDbEntity
  8
OBRYS
 62
     5
100
AcDbLine
 10
67.50002072424707
 20
123.9999917127799
 30
0.0
 11
67.50002072424707
 21
123.6999917127799
 31
0.0
  0
LINE
  5
720
330
1F
100
AcDbEntity
  8
OBRYS
 62
     5
100
AcDbLine
 10
63.70002072424707
 20
122.2999917127799
 30
0.0
 11
67.50002072424707
 21
123.6999917127799
 31
0.0
  0
LINE
  5
721
330
1F
100
AcDbEntity
  8
OBRYS
  6
CONTINUOUS
 62
     5
100
AcDbLine
 10
121.5000207242471
 20
114.9999917127799
 30
0.0
 11
121.5000207242471
 21
123.9999917127799
 31
0.0
  0
LINE
  5
722
330
1F
100
AcDbEntity
  8
OBRYS
  6
CONTINUOUS
 62
     5
100
AcDbLine
 10
121.5000207242471
 20
123.9999917127799
 30
0.0
 11
136.5000207242471
 21
123.9999917127799
 31
0.0
  0
LINE
  5
723
330
1F
100
AcDbEntity
  8
OBRYS
  6
CONTINUOUS
 62
     5
100
AcDbLine
 10
136.5000207242471
 20
123.9999917127799
 30
0.0
 11
136.5000207242471
 21
114.9999917127799
 31
0.0
  0
DIMENSION
  5
724
330
1F
100
AcDbEntity
  8
KOTY
 62
     1
100
AcDbDimension
  2
*D15
 10
55.24696155687271
 20
114.9999917127799
 30
0.0
 11
55.24696155687271
 21
119.4889404137535
 31
0.0
 70
   160
  3
STANDARD
100
AcDbAlignedDimension
 13
67.50002072424707
 23
123.9999917127799
 33
0.0
 14
64.90002072424707
 24
114.9999917127799
 34
0.0
 50
90.0
100
AcDbRotatedDimension
1001
ACAD
1000
DSTYLE
1002
{
1070
     7
1000

1070
     6
1000

1070
     5
1000

1070
   278
1070
    44
1070
    73
1070
     0
1070
    77
1070
     1
1070
   147
1040
1.0
1070
   173
1070
     1
1070
   271
1070
     0
1070
   140
1040
4.0
1070
    41
1040
4.0
1002
}
  0
LINE
  5
72A
330
1F
100
AcDbEntity
  8
OBRYS
  6
CONTINUOUS
 62
     5
100
AcDbLine
 10
121.5000207242471
 20
114.9999917127799
 30
0.0
 11
122.5000207242471
 21
114.9999917127799
 31
0.0
  0
LINE
  5
72B
330
1F
100
AcDbEntity
  8
OBRYS
  6
CONTINUOUS
 62
     5
100
AcDbLine
 10
136.5000207242471
 20
114.9999917127799
 30
0.0
 11
135.5000207242471
 21
114.9999917127799
 31
0.0
  0
LINE
  5
72C
330
1F
100
AcDbEntity
  8
OBRYS
  6
CONTINUOUS
 62
     5
100
AcDbLine
 10
122.5000207242471
 20
108.5999917127799
 30
0.0
 11
122.5000207242471
 21
115.8999917127799
 31
0.0
  0
LINE
  5
72D
330
1F
100
AcDbEntity
  8
OBRYS
  6
CONTINUOUS
 62
     5
100
AcDbLine
 10
122.5000207242471
 20
108.5999917127799
 30
0.0
 11
125.4000207242471
 21
108.5999917127799
 31
0.0
  0
LINE
  5
72E
330
1F
100
AcDbEntity
  8
OBRYS
  6
CONTINUOUS
 62
     5
100
AcDbLine
 10
125.4000207242471
 20
108.5999917127799
 30
0.0
 11
125.4000207242471
 21
115.8999917127799
 31
0.0
  0
LINE
  5
72F
330
1F
100
AcDbEntity
  8
OBRYS
  6
CONTINUOUS
 62
     5
100
AcDbLine
 10
132.6000207242471
 20
108.5999917127799
 30
0.0
 11
132.6000207242471
 21
115.8999917127799
 31
0.0
  0
LINE
  5
730
330
1F
100
AcDbEntity
  8
OBRYS
  6
CONTINUOUS
 62
     5
100
AcDbLine
 10
132.6000207242471
 20
108.5999917127799
 30
0.0
 11
135.5000207242471
 21
108.5999917127799
 31
0.0
  0
LINE
  5
731
330
1F
100
AcDbEntity
  8
OBRYS
  6
CONTINUOUS
 62
     5
100
AcDbLine
 10
135.5000207242471
 20
108.5999917127799
 30
0.0
 11
135.5000207242471
 21
115.8999917127799
 31
0.0
  0
LINE
  5
732
330
1F
100
AcDbEntity
  8
OBRYS
  6
CONTINUOUS
 62
     5
100
AcDbLine
 10
127.5500207242471
 20
108.5999917127799
 30
0.0
 11
127.5500207242471
 21
115.8999917127799
 31
0.0
  0
LINE
  5
733
330
1F
100
AcDbEntity
  8
OBRYS
  6
CONTINUOUS
 62
     5
100
AcDbLine
 10
127.5500207242471
 20
108.5999917127799
 30
0.0
 11
130.4500207242471
 21
108.5999917127799
 31
0.0
  0
LINE
  5
734
330
1F
100
AcDbEntity
  8
OBRYS
  6
CONTINUOUS
 62
     5
100
AcDbLine
 10
130.4500207242471
 20
108.5999917127799
 30
0.0
 11
130.4500207242471
 21
115.8999917127799
 31
0.0
  0
LINE
  5
735
330
1F
100
AcDbEntity
  8
OBRYS
  6
CONTINUOUS
 62
     5
100
AcDbLine
 10
122.5000207242471
 20
108.5999917127799
 30
0.0
 11
122.0000207242471
 21
108.5999917127799
 31
0.0
  0
LINE
  5
736
330
1F
100
AcDbEntity
  8
OBRYS
  6
CONTINUOUS
 62
     5
100
AcDbLine
 10
122.0000207242471
 20
108.5999917127799
 30
0.0
 11
122.0000207242471
 21
114.9999917127799
 31
0.0
  0
LINE
  5
737
330
1F
100
AcDbEntity
  8
OBRYS
  6
CONTINUOUS
 62
     5
100
AcDbLine
 10
135.5000207242471
 20
108.5999917127799
 30
0.0
 11
136.0000207242471
 21
108.5999917127799
 31
0.0
  0
LINE
  5
738
330
1F
100
AcDbEntity
  8
OBRYS
  6
CONTINUOUS
 62
     5
100
AcDbLine
 10
136.0000207242471
 20
108.5999917127799
 30
0.0
 11
136.0000207242471
 21
114.9999917127799
 31
0.0
  0
LINE
  5
739
330
1F
100
AcDbEntity
  8
OBRYS
  6
CONTINUOUS
 62
     5
100
AcDbLine
 10
123.5750207242471
 20
108.5999917127799
 30
0.0
 11
123.5750207242471
 21
110.9999917127799
 31
0.0
  0
LINE
  5
73A
330
1F
100
AcDbEntity
  8
OBRYS
  6
CONTINUOUS
 62
     5
100
AcDbLine
 10
123.5750207242471
 20
110.9999917127799
 30
0.0
 11
124.3250207242471
 21
110.9999917127799
 31
0.0
  0
LINE
  5
73B
330
1F
100
AcDbEntity
  8
OBRYS
  6
CONTINUOUS
 62
     5
100
AcDbLine
 10
124.3250207242471
 20
110.9999917127799
 30
0.0
 11
124.3250207242471
 21
108.5999917127799
 31
0.0
  0
LINE
  5
73C
330
1F
100
AcDbEntity
  8
OBRYS
  6
CONTINUOUS
 62
     5
100
AcDbLine
 10
129.3750207242471
 20
110.9999917127799
 30
0.0
 11
129.3750207242471
 21
108.5999917127799
 31
0.0
  0
LINE
  5
73D
330
1F
100
AcDbEntity
  8
OBRYS
  6
CONTINUOUS
 62
     5
100
AcDbLine
 10
128.6250207242471
 20
108.5999917127799
 30
0.0
 11
128.6250207242471
 21
110.9999917127799
 31
0.0
  0
LINE
  5
73E
330
1F
100
AcDbEntity
  8
OBRYS
  6
CONTINUOUS
 62
     5
100
AcDbLine
 10
128.6250207242471
 20
110.9999917127799
 30
0.0
 11
129.3750207242471
 21
110.9999917127799
 31
0.0
  0
LINE
  5
73F
330
1F
100
AcDbEntity
  8
OBRYS
  6
CONTINUOUS
 62
     5
100
AcDbLine
 10
134.4250207242471
 20
110.9999917127799
 30
0.0
 11
134.4250207242471
 21
108.5999917127799
 31
0.0
  0
LINE
  5
740
330
1F
100
AcDbEntity
  8
OBRYS
  6
CONTINUOUS
 62
     5
100
AcDbLine
 10
133.6750207242471
 20
108.5999917127799
 30
0.0
 11
133.6750207242471
 21
110.9999917127799
 31
0.0
  0
LINE
  5
741
330
1F
100
AcDbEntity
  8
OBRYS
  6
CONTINUOUS
 62
     5
100
AcDbLine
 10
133.6750207242471
 20
110.9999917127799
 30
0.0
 11
134.4250207242471
 21
110.9999917127799
 31
0.0
  0
LINE
  5
742
330
1F
100
AcDbEntity
  8
OBRYS
  6
CONTINUOUS
 62
     5
100
AcDbLine
 10
125.4000207242471
 20
114.9999917127799
 30
0.0
 11
127.5500207242471
 21
114.9999917127799
 31
0.0
  0
LINE
  5
743
330
1F
100
AcDbEntity
  8
OBRYS
  6
CONTINUOUS
 62
     5
100
AcDbLine
 10
130.4500207242471
 20
114.9999917127799
 30
0.0
 11
132.6000207242471
 21
114.9999917127799
 31
0.0
  0
LINE
  5
744
330
1F
100
AcDbEntity
  8
OBRYS
  6
CONTINUOUS
 62
     5
100
AcDbLine
 10
121.5000207242471
 20
123.6999917127799
 30
0.0
 11
136.5000207242471
 21
123.6999917127799
 31
0.0
  0
LINE
  5
745
330
1F
100
AcDbEntity
  8
OBRYS
  6
CONTINUOUS
 62
     5
100
AcDbLine
 10
126.9500207242471
 20
115.8999917127799
 30
0.0
 11
130.9500207242471
 21
115.8999917127799
 31
0.0
  0
LINE
  5
746
330
1F
100
AcDbEntity
  8
OBRYS
  6
CONTINUOUS
 62
     5
100
AcDbLine
 10
125.9500207242471
 20
115.8999917127799
 30
0.0
 11
122.5000207242471
 21
115.8999917127799
 31
0.0
  0
LINE
  5
747
330
1F
100
AcDbEntity
  8
OBRYS
  6
CONTINUOUS
 62
     5
100
AcDbLine
 10
132.0500207242471
 20
115.8999917127799
 30
0.0
 11
135.5000207242471
 21
115.8999917127799
 31
0.0
  0
LINE
  5
748
330
1F
100
AcDbEntity
  8
OBRYS
  6
CONTINUOUS
 62
     5
100
AcDbLine
 10
121.5000207242471
 20
122.2999917127799
 30
0.0
 11
136.5000207242471
 21
122.2999917127799
 31
0.0
  0
CIRCLE
  5
749
330
1F
100
AcDbEntity
  8
OBRYS
  6
CONTINUOUS
 62
     5
100
AcDbCircle
 10
123.9500207242471
 20
118.3999917127799
 30
0.0
 40
1.3
  0
LINE
  5
74A
330
1F
100
AcDbEntity
  8
OBRYS
  6
CONTINUOUS
 62
     5
100
AcDbLine
 10
122.6851096601797
 20
118.0999917127799
 30
0.0
 11
125.2149317883144
 21
118.0999917127799
 31
0.0
  0
LINE
  5
74B
330
1F
100
AcDbEntity
  8
OBRYS
  6
CONTINUOUS
 62
     5
100
AcDbLine
 10
122.6851096601797
 20
118.6999917127799
 30
0.0
 11
125.2149317883144
 21
118.6999917127799
 31
0.0
  0
CIRCLE
  5
74C
330
1F
100
AcDbEntity
  8
OBRYS
  6
CONTINUOUS
 62
     5
100
AcDbCircle
 10
129.0000207242471
 20
118.3999917127799
 30
0.0
 40
1.3
  0
LINE
  5
74D
330
1F
100
AcDbEntity
  8
OBRYS
  6
CONTINUOUS
 62
     5
100
AcDbLine
 10
127.7351096601797
 20
118.0999917127799
 30
0.0
 11
130.2649317883144
 21
118.0999917127799
 31
0.0
  0
LINE
  5
74E
330
1F
100
AcDbEntity
  8
OBRYS
  6
CONTINUOUS
 62
     5
100
AcDbLine
 10
127.7351096601797
 20
118.6999917127799
 30
0.0
 11
130.2649317883144
 21
118.6999917127799
 31
0.0
  0
CIRCLE
  5
74F
330
1F
100
AcDbEntity
  8
OBRYS
  6
CONTINUOUS
 62
     5
100
AcDbCircle
 10
134.0500207242471
 20
118.3999917127799
 30
0.0
 40
1.3
  0
LINE
  5
750
330
1F
100
AcDbEntity
  8
OBRYS
  6
CONTINUOUS
 62
     5
100
AcDbLine
 10
132.7851096601797
 20
118.0999917127799
 30
0.0
 11
135.3149317883144
 21
118.0999917127799
 31
0.0
  0
LINE
  5
751
330
1F
100
AcDbEntity
  8
OBRYS
  6
CONTINUOUS
 62
     5
100
AcDbLine
 10
132.7851096601797
 20
118.6999917127799
 30
0.0
 11
135.3149317883144
 21
118.6999917127799
 31
0.0
  0
LINE
  5
752
330
1F
100
AcDbEntity
  8
OBRYS
  6
CONTINUOUS
 62
     5
100
AcDbLine
 10
122.1000207242471
 20
117.2999917127799
 30
0.0
 11
122.3398965054366
 21
117.2999917127799
 31
0.0
  0
ARC
  5
753
330
1F
100
AcDbEntity
  8
OBRYS
  6
CONTINUOUS
 62
     5
100
AcDbCircle
 10
123.9500207242471
 20
118.3999917127799
 30
0.0
 40
1.95
100
AcDbArc
 50
214.3399949437028
 51
325.4656264950653
  0
ARC
  5
754
330
1F
100
AcDbEntity
  8
OBRYS
  6
CONTINUOUS
 62
     5
100
AcDbCircle
 10
129.0000207242471
 20
118.3999917127799
 30
0.0
 40
1.95
100
AcDbArc
 50
214.3399949437028
 51
325.4656264950653
  0
ARC
  5
755
330
1F
100
AcDbEntity
  8
OBRYS
  6
CONTINUOUS
 62
     5
100
AcDbCircle
 10
134.0500207242471
 20
118.3999917127799
 30
0.0
 40
1.95
100
AcDbArc
 50
214.3399949437028
 51
325.4656264950653
  0
LINE
  5
756
330
1F
100
AcDbEntity
  8
OBRYS
  6
CONTINUOUS
 62
     5
100
AcDbLine
 10
125.5564038839914
 20
117.2999917127799
 30
0.0
 11
127.3898965054366
 21
117.2999917127799
 31
0.0
  0
LINE
  5
757
330
1F
100
AcDbEntity
  8
OBRYS
  6
CONTINUOUS
 62
     5
100
AcDbLine
 10
130.6064038839914
 20
117.2999917127799
 30
0.0
 11
132.4398965054366
 21
117.2999917127799
 31
0.0
  0
LINE
  5
758
330
1F
100
AcDbEntity
  8
OBRYS
  6
CONTINUOUS
 62
     5
100
AcDbLine
 10
135.6564038839914
 20
117.2999917127799
 30
0.0
 11
135.9000207242471
 21
117.2999917127799
 31
0.0
  0
LINE
  5
759
330
1F
100
AcDbEntity
  8
OBRYS
  6
CONTINUOUS
 62
     5
100
AcDbLine
 10
125.9500207242471
 20
115.8999917127799
 30
0.0
 11
125.9500207242471
 21
117.2999917127799
 31
0.0
  0
LINE
  5
75A
330
1F
100
AcDbEntity
  8
OBRYS
  6
CONTINUOUS
 62
     5
100
AcDbLine
 10
126.9500207242471
 20
115.8999917127799
 30
0.0
 11
126.9500207242471
 21
117.2999917127799
 31
0.0
  0
LINE
  5
75B
330
1F
100
AcDbEntity
  8
OBRYS
  6
CONTINUOUS
 62
     5
100
AcDbLine
 10
130.9500207242471
 20
115.8999917127799
 30
0.0
 11
130.9500207242471
 21
117.2999917127799
 31
0.0
  0
LINE
  5
75C
330
1F
100
AcDbEntity
  8
OBRYS
  6
CONTINUOUS
 62
     5
100
AcDbLine
 10
132.0500207242471
 20
115.8999917127799
 30
0.0
 11
132.0500207242471
 21
117.2999917127799
 31
0.0
  0
LINE
  5
75D
330
1F
100
AcDbEntity
  8
OBRYS
  6
CONTINUOUS
 62
     5
100
AcDbLine
 10
121.5000207242471
 20
115.8999917127799
 30
0.0
 11
122.1000207242471
 21
115.8999917127799
 31
0.0
  0
LINE
  5
75E
330
1F
100
AcDbEntity
  8
OBRYS
  6
CONTINUOUS
 62
     5
100
AcDbLine
 10
122.1000207242471
 20
115.8999917127799
 30
0.0
 11
122.1000207242471
 21
117.2999917127799
 31
0.0
  0
LINE
  5
75F
330
1F
100
AcDbEntity
  8
OBRYS
  6
CONTINUOUS
 62
     5
100
AcDbLine
 10
136.5000207242471
 20
115.8999917127799
 30
0.0
 11
135.9000207242471
 21
115.8999917127799
 31
0.0
  0
LINE
  5
760
330
1F
100
AcDbEntity
  8
OBRYS
  6
CONTINUOUS
 62
     5
100
AcDbLine
 10
135.9000207242471
 20
115.8999917127799
 30
0.0
 11
135.9000207242471
 21
117.2999917127799
 31
0.0
  0
DIMENSION
  5
761
330
1F
100
AcDbEntity
  8
KOTY
 62
     1
100
AcDbDimension
  2
*D17
 10
136.5000207242471
 20
133.9999917127799
 30
0.0
 11
129.0000207242471
 21
133.9999917127799
 31
0.0
 70
   160
  3
STANDARD
100
AcDbAlignedDimension
 13
121.5000207242471
 23
123.9999917127799
 33
0.0
 14
136.5000207242471
 24
123.9999917127799
 34
0.0
100
AcDbRotatedDimension
1001
ACAD
1000
DSTYLE
1002
{
1070
     7
1000

1070
     6
1000

1070
     5
1000

1070
   278
1070
    44
1070
   147
1040
1.0
1070
    77
1070
     1
1070
   271
1070
     0
1070
   140
1040
4.0
1070
   173
1070
     1
1070
    41
1040
4.0
1002
}
  0
DIMENSION
  5
93A
330
1F
100
AcDbEntity
  8
KOTY
 62
     1
100
AcDbDimension
  2
*D20
 10
66.5
 20
97.12699984527279
 30
0.0
 11
51.25001494791753
 21
97.12699984527279
 31
0.0
 70
   160
  3
STANDARD
100
AcDbAlignedDimension
 13
36.00002989583507
 23
90.0375
 33
0.0
 14
66.5
 24
66.5375
 34
0.0
100
AcDbRotatedDimension
1001
ACAD
1000
DSTYLE
1002
{
1070
   271
1070
     1
1070
   278
1070
    44
1070
   140
1040
4.0
1070
    77
1070
     1
1070
   147
1040
1.0
1070
    41
1040
4.0
1002
}
  0
LINE
  5
9C1
330
1F
100
AcDbEntity
  8
OBRYS
  6
HIDDEN
 62
     5
 48
8.0
100
AcDbLine
 10
34.00002989583507
 20
90.0375
 30
0.0
 11
34.00002989583507
 21
83.0375
 31
0.0
  0
LINE
  5
9C2
330
1F
100
AcDbEntity
  8
OBRYS
  6
HIDDEN
 62
     5
 48
8.0
100
AcDbLine
 10
34.00002989583507
 20
83.0375
 30
0.0
 11
36.00002989583507
 21
83.0375
 31
0.0
  0
LINE
  5
9C3
330
1F
100
AcDbEntity
  8
OBRYS
  6
HIDDEN
 62
     5
 48
8.0
100
AcDbLine
 10
36.00002989583507
 20
83.0375
 30
0.0
 11
36.00002989583507
 21
90.0375
 31
0.0
  0
VIEWPORT
  5
94B
330
947
100
AcDbEntity
 67
     1
  8
0
100
AcDbViewport
 10
0.0
 20
0.0
 30
0.0
 40
8.976
 41
6.936000000000001
 68
     1
 69
     1
1001
ACAD
1000
MVIEW
1002
{
1070
    16
1010
0.0
1020
0.0
1030
0.0
1010
0.0
1020
0.0
1030
1.0
1040
0.0
1040
6.936000000000001
1040
5.25
1040
4.0
1040
50.0
1040
0.0
1040
0.0
1070
     0
1070
   100
1070
     0
1070
     3
1070
     0
1070
     0
1070
     0
1070
     0
1040
0.0
1040
0.0
1040
0.0
1040
0.5
1040
0.5
1040
0.0
1040
0.0
1070
     0
1002
{
1002
}
1002
}
  0
VIEWPORT
  5
94C
330
947
100
AcDbEntity
 67
     1
  8
0
100
AcDbViewport
 10
5.25
 20
4.0
 30
0.0
 40
8.4
 41
6.4
 68
     2
 69
     2
1001
ACAD
1000
MVIEW
1002
{
1070
    16
1010
0.0
1020
0.0
1030
0.0
1010
0.0
1020
0.0
1030
1.0
1040
0.0
1040
162.7660613968465
1040
57.1366288875685
1040
59.30470671432573
1040
50.0
1040
0.0
1040
0.0
1070
     0
1070
   100
1070
     0
1070
     3
1070
     0
1070
     0
1070
     0
1070
     0
1040
0.0
1040
0.0
1040
0.0
1040
0.5
1040
0.5
1040
0.0
1040
0.0
1070
     0
1002
{
1002
}
1002
}
  0
ENDSEC
  0
SECTION
  2
OBJECTS
  0
DICTIONARY
  5
C
330
0
100
AcDbDictionary
  3
ACAD_DETAILVIEWSTYLE
350
7A4
  3
ACAD_GROUP
350
D
  3
ACAD_IMAGE_VARS
350
DC
  3
ACAD_MLINESTYLE
350
17
  3
ACAD_SCALELIST
350
9C5
  3
ACAD_SECTIONVIEWSTYLE
350
7A5
  3
ACDBVARIABLEDICTIONARY
350
66
  3
APPDATA
350
E1
  3
DWGPROPS
350
A0B
  0
DICTIONARY
  5
799
330
2
100
AcDbDictionary
280
     1
  3
ACAD_LAYERSTATES
360
79A
  3
ACLYDICTIONARY
360
79F
  0
DICTIONARY
  5
7A4
102
{ACAD_REACTORS
330
C
102
}
330
C
100
AcDbDictionary
  0
DICTIONARY
  5
D
102
{ACAD_REACTORS
330
C
102
}
330
C
100
AcDbDictionary
  0
RASTERVARIABLES
  5
DC
102
{ACAD_REACTORS
330
C
102
}
330
C
100
AcDbRasterVariables
 90
        0
 70
     1
 71
     1
 72
     5
  0
DICTIONARY
  5
17
102
{ACAD_REACTORS
330
C
102
}
330
C
100
AcDbDictionary
  3
STANDARD
350
18
  0
DICTIONARY
  5
9C5
102
{ACAD_REACTORS
330
C
102
}
330
C
100
AcDbDictionary
  0
DICTIONARY
  5
7A5
102
{ACAD_REACTORS
330
C
102
}
330
C
100
AcDbDictionary
  0
DICTIONARY
  5
66
102
{ACAD_REACTORS
330
C
102
}
330
C
100
AcDbDictionary
  3
DIMASSOC
350
67
  3
HIDETEXT
350
6B
  0
DICTIONARY
  5
E1
102
{ACAD_REACTORS
330
C
102
}
330
C
100
AcDbDictionary
  0
XRECORD
  5
A0B
102
{ACAD_REACTORS
330
C
102
}
330
C
100
AcDbXrecord
  1
DWGPROPS COOKIE
  2

  3

  4

  6

  7

  8
jaromir.podrabsky
  9

300
=
301
=
302
=
303
=
304
=
305
=
306
=
307
=
308
=
309
=
 40
0.0
 41
2452643.063384259
 42
2457087.33337309
  1

 90
        0
  0
DICTIONARY
  5
79A
102
{ACAD_REACTORS
330
799
102
}
330
799
100
AcDbDictionary
  0
DICTIONARY
  5
79F
102
{ACAD_REACTORS
330
799
102
}
330
799
100
AcDbDictionary
1001
ACAD
1000
<All
  0
MLINESTYLE
  5
18
102
{ACAD_REACTORS
330
17
102
}
330
17
100
AcDbMlineStyle
  2
STANDARD
 70
     0
  3

 62
   256
 51
90.0
 52
90.0
 71
     2
 49
0.5
 62
   256
  6
BYLAYER
 49
-0.5
 62
   256
  6
BYLAYER
  0
DICTIONARYVAR
  5
67
102
{ACAD_REACTORS
330
66
102
}
330
66
100
DictionaryVariables
280
     0
  1
2
  0
DICTIONARYVAR
  5
6B
102
{ACAD_REACTORS
330
66
102
}
330
66
100
DictionaryVariables
280
     0
  1
1
  0
ENDSEC
  0
EOF
