  0
SECTION
  2
HEADER
  9
$ACADVER
  1
AC1014
  9
$ACADMAINTVER
 70
     9
  9
$DWGCODEPAGE
  3
ANSI_1250
  9
$INSBASE
 10
0.0
 20
0.0
 30
0.0
  9
$EXTMIN
 10
-25.60898663666551
 20
-29.93671840822796
 30
0.0
  9
$EXTMAX
 10
166.6666666666667
 20
105.912
 30
0.0
  9
$LIMMIN
 10
0.0
 20
0.0
  9
$LIMMAX
 10
12.0
 20
9.0
  9
$ORTHOMODE
 70
     0
  9
$REGENMODE
 70
     1
  9
$FILLMODE
 70
     1
  9
$QTEXTMODE
 70
     0
  9
$MIRRTEXT
 70
     0
  9
$DRAGMODE
 70
     2
  9
$LTSCALE
 40
1.0
  9
$OSMODE
 70
 15359
  9
$ATTMODE
 70
     1
  9
$TEXTSIZE
 40
0.2
  9
$TRACEWID
 40
0.05
  9
$TEXTSTYLE
  7
STANDARD
  9
$CLAYER
  8
KOTY
  9
$CELTYPE
  6
BYLAYER
  9
$CECOLOR
 62
     1
  9
$CELTSCALE
 40
1.0
  9
$DELOBJ
 70
     1
  9
$DISPSILH
 70
     0
  9
$DIMSCALE
 40
1.0
  9
$DIMASZ
 40
0.18
  9
$DIMEXO
 40
0.0625
  9
$DIMDLI
 40
0.38
  9
$DIMRND
 40
0.0
  9
$DIMDLE
 40
0.0
  9
$DIMEXE
 40
0.18
  9
$DIMTP
 40
0.0
  9
$DIMTM
 40
0.0
  9
$DIMTXT
 40
0.18
  9
$DIMCEN
 40
0.09
  9
$DIMTSZ
 40
0.0
  9
$DIMTOL
 70
     0
  9
$DIMLIM
 70
     0
  9
$DIMTIH
 70
     1
  9
$DIMTOH
 70
     1
  9
$DIMSE1
 70
     0
  9
$DIMSE2
 70
     0
  9
$DIMTAD
 70
     0
  9
$DIMZIN
 70
     0
  9
$DIMBLK
  1

  9
$DIMASO
 70
     1
  9
$DIMSHO
 70
     1
  9
$DIMPOST
  1

  9
$DIMAPOST
  1

  9
$DIMALT
 70
     0
  9
$DIMALTD
 70
     2
  9
$DIMALTF
 40
25.4
  9
$DIMLFAC
 40
1.0
  9
$DIMTOFL
 70
     0
  9
$DIMTVP
 40
0.0
  9
$DIMTIX
 70
     0
  9
$DIMSOXD
 70
     0
  9
$DIMSAH
 70
     0
  9
$DIMBLK1
  1

  9
$DIMBLK2
  1

  9
$DIMSTYLE
  2
STANDARD
  9
$DIMCLRD
 70
     0
  9
$DIMCLRE
 70
     0
  9
$DIMCLRT
 70
     0
  9
$DIMTFAC
 40
1.0
  9
$DIMGAP
 40
0.09
  9
$DIMJUST
 70
     0
  9
$DIMSD1
 70
     0
  9
$DIMSD2
 70
     0
  9
$DIMTOLJ
 70
     1
  9
$DIMTZIN
 70
     0
  9
$DIMALTZ
 70
     0
  9
$DIMALTTZ
 70
     0
  9
$DIMFIT
 70
     5
  9
$DIMUPT
 70
     0
  9
$DIMUNIT
 70
     2
  9
$DIMDEC
 70
     4
  9
$DIMTDEC
 70
     4
  9
$DIMALTU
 70
     2
  9
$DIMALTTD
 70
     2
  9
$DIMTXSTY
  7
STANDARD
  9
$DIMAUNIT
 70
     0
  9
$LUNITS
 70
     2
  9
$LUPREC
 70
     4
  9
$SKETCHINC
 40
0.1
  9
$FILLETRAD
 40
0.6968703693801268
  9
$AUNITS
 70
     0
  9
$AUPREC
 70
     0
  9
$MENU
  1
.
  9
$ELEVATION
 40
0.0
  9
$PELEVATION
 40
0.0
  9
$THICKNESS
 40
0.0
  9
$LIMCHECK
 70
     0
  9
$CHAMFERA
 40
0.0
  9
$CHAMFERB
 40
0.0
  9
$CHAMFERC
 40
0.0
  9
$CHAMFERD
 40
0.0
  9
$SKPOLY
 70
     0
  9
$TDCREATE
 40
2452643.105050926
  9
$TDUPDATE
 40
2456765.336223773
  9
$TDINDWG
 40
0.581075787
  9
$TDUSRTIMER
 40
2456765.250860266
  9
$USRTIMER
 70
     1
  9
$ANGBASE
 50
0.0
  9
$ANGDIR
 70
     0
  9
$PDMODE
 70
     0
  9
$PDSIZE
 40
0.0
  9
$PLINEWID
 40
0.0
  9
$COORDS
 70
     2
  9
$SPLFRAME
 70
     0
  9
$SPLINETYPE
 70
     6
  9
$SPLINESEGS
 70
     8
  9
$ATTDIA
 70
     0
  9
$ATTREQ
 70
     1
  9
$HANDLING
 70
     1
  9
$HANDSEED
  5
87C
  9
$SURFTAB1
 70
     6
  9
$SURFTAB2
 70
     6
  9
$SURFTYPE
 70
     6
  9
$SURFU
 70
     6
  9
$SURFV
 70
     6
  9
$UCSNAME
  2

  9
$UCSORG
 10
0.0
 20
0.0
 30
0.0
  9
$UCSXDIR
 10
1.0
 20
0.0
 30
0.0
  9
$UCSYDIR
 10
0.0
 20
1.0
 30
0.0
  9
$PUCSNAME
  2

  9
$PUCSORG
 10
0.0
 20
0.0
 30
0.0
  9
$PUCSXDIR
 10
1.0
 20
0.0
 30
0.0
  9
$PUCSYDIR
 10
0.0
 20
1.0
 30
0.0
  9
$USERI1
 70
     0
  9
$USERI2
 70
     0
  9
$USERI3
 70
     0
  9
$USERI4
 70
     0
  9
$USERI5
 70
     0
  9
$USERR1
 40
0.0
  9
$USERR2
 40
0.0
  9
$USERR3
 40
0.0
  9
$USERR4
 40
0.0
  9
$USERR5
 40
0.0
  9
$WORLDVIEW
 70
     1
  9
$SHADEDGE
 70
     3
  9
$SHADEDIF
 70
    70
  9
$TILEMODE
 70
     0
  9
$MAXACTVP
 70
    64
  9
$PINSBASE
 10
0.0
 20
0.0
 30
0.0
  9
$PLIMCHECK
 70
     0
  9
$PEXTMIN
 10
0.0
 20
0.0
 30
0.0
  9
$PEXTMAX
 10
0.0
 20
0.0
 30
0.0
  9
$PLIMMIN
 10
-0.25
 20
-0.25
  9
$PLIMMAX
 10
10.75
 20
8.25
  9
$UNITMODE
 70
     0
  9
$VISRETAIN
 70
     1
  9
$PLINEGEN
 70
     0
  9
$PSLTSCALE
 70
     1
  9
$TREEDEPTH
 70
  3020
  9
$PICKSTYLE
 70
     0
  9
$CMLSTYLE
  2
STANDARD
  9
$CMLJUST
 70
     0
  9
$CMLSCALE
 40
1.0
  9
$PROXYGRAPHICS
 70
     1
  9
$MEASUREMENT
 70
     0
  0
ENDSEC
  0
SECTION
  2
CLASSES
  0
CLASS
  1
ACDBDICTIONARYWDFLT
  2
AcDbDictionaryWithDefault
  3
ObjectDBX Classes
 90
        0
280
     0
281
     0
  0
CLASS
  1
ACDBPLACEHOLDER
  2
AcDbPlaceHolder
  3
ObjectDBX Classes
 90
        0
280
     0
281
     0
  0
CLASS
  1
LAYOUT
  2
AcDbLayout
  3
ObjectDBX Classes
 90
        0
280
     0
281
     0
  0
CLASS
  1
DICTIONARYVAR
  2
AcDbDictionaryVar
  3
ObjectDBX Classes
 90
        0
280
     0
281
     0
  0
CLASS
  1
TABLESTYLE
  2
AcDbTableStyle
  3
ObjectDBX Classes
 90
     4095
280
     0
281
     0
  0
CLASS
  1
MATERIAL
  2
AcDbMaterial
  3
ObjectDBX Classes
 90
     1153
280
     0
281
     0
  0
CLASS
  1
VISUALSTYLE
  2
AcDbVisualStyle
  3
ObjectDBX Classes
 90
     4095
280
     0
281
     0
  0
CLASS
  1
SCALE
  2
AcDbScale
  3
ObjectDBX Classes
 90
     1153
280
     0
281
     0
  0
CLASS
  1
CELLSTYLEMAP
  2
AcDbCellStyleMap
  3
ObjectDBX Classes
 90
     1152
280
     0
281
     0
  0
CLASS
  1
RASTERVARIABLES
  2
AcDbRasterVariables
  3
ISM
 90
        0
280
     0
281
     0
  0
CLASS
  1
DIMASSOC
  2
AcDbDimAssoc
  3
"AcDbDimAssoc|Product Desc:     AcDim ARX App For Dimension|Company:          Autodesk, Inc.|WEB Address:      www.autodesk.com"
 90
        0
280
     0
281
     0
  0
CLASS
  1
SUN
  2
AcDbSun
  3
SCENEOE
 90
     1153
280
     0
281
     0
  0
CLASS
  1
XRECORD
  2
AcDbXrecord
  3
ObjectDBX Classes
 90
        0
280
     0
281
     0
  0
CLASS
  1
LWPOLYLINE
  2
AcDbPolyline
  3
ObjectDBX Classes
 90
        0
280
     0
281
     1
  0
CLASS
  1
HATCH
  2
AcDbHatch
  3
ObjectDBX Classes
 90
        0
280
     0
281
     1
  0
ENDSEC
  0
SECTION
  2
TABLES
  0
TABLE
  2
VPORT
  5
8
330
0
100
AcDbSymbolTable
 70
     1
  0
VPORT
  5
94
330
8
100
AcDbSymbolTableRecord
100
AcDbViewportTableRecord
  2
*ACTIVE
 70
     0
 10
0.0
 20
0.0
 11
1.0
 21
1.0
 12
98.44629616569345
 22
61.01093303408234
 13
0.0
 23
0.0
 14
0.5
 24
0.5
 15
0.5
 25
0.5
 16
0.0
 26
0.0
 36
1.0
 17
-27.66959356598066
 27
-19.5387029578618
 37
0.0
 40
164.6178061569988
 41
1.267252195734003
 42
50.0
 43
0.0
 44
0.0
 50
0.0
 51
0.0
 71
    16
 72
  1000
 73
     1
 74
     3
 75
     0
 76
     0
 77
     0
 78
     0
  0
ENDTAB
  0
TABLE
  2
LTYPE
  5
5
330
0
100
AcDbSymbolTable
 70
     2
  0
LTYPE
  5
14
330
5
100
AcDbSymbolTableRecord
100
AcDbLinetypeTableRecord
  2
BYBLOCK
 70
     0
  3

 72
    65
 73
     0
 40
0.0
  0
LTYPE
  5
15
330
5
100
AcDbSymbolTableRecord
100
AcDbLinetypeTableRecord
  2
BYLAYER
 70
     0
  3

 72
    65
 73
     0
 40
0.0
  0
LTYPE
  5
16
330
5
100
AcDbSymbolTableRecord
100
AcDbLinetypeTableRecord
  2
CONTINUOUS
 70
     0
  3
Solid line
 72
    65
 73
     0
 40
0.0
  0
LTYPE
  5
710
330
5
100
AcDbSymbolTableRecord
100
AcDbLinetypeTableRecord
  2
HIDDEN
 70
     0
  3
 Hidden _ _ _ _ _ _ _ _ _ _ _ _ _ _ _ _ _ _ _ _
 72
    65
 73
     2
 40
0.375
 49
0.25
 74
     0
 49
-0.125
 74
     0
  0
ENDTAB
  0
TABLE
  2
LAYER
  5
2
102
{ACAD_XDICTIONARY
360
754
102
}
330
0
100
AcDbSymbolTable
 70
     5
  0
LAYER
  5
10
330
2
100
AcDbSymbolTableRecord
100
AcDbLayerTableRecord
  2
0
 70
     0
 62
     7
  6
CONTINUOUS
  0
LAYER
  5
101
330
2
100
AcDbSymbolTableRecord
100
AcDbLayerTableRecord
  2
DEFPOINTS
 70
     0
 62
     7
  6
CONTINUOUS
  0
LAYER
  5
75C
330
2
100
AcDbSymbolTableRecord
100
AcDbLayerTableRecord
  2
OBRYS
 70
     0
 62
     5
  6
CONTINUOUS
1001
ACAECLAYERSTANDARD
1000

1000

  0
LAYER
  5
75E
330
2
100
AcDbSymbolTableRecord
100
AcDbLayerTableRecord
  2
KOTY
 70
     0
 62
     1
  6
CONTINUOUS
1001
ACAECLAYERSTANDARD
1000

1000

  0
LAYER
  5
799
330
2
100
AcDbSymbolTableRecord
100
AcDbLayerTableRecord
  2
OKENKO
 70
     0
 62
     5
  6
CONTINUOUS
1001
ACAECLAYERSTANDARD
1000

1000

  0
ENDTAB
  0
TABLE
  2
STYLE
  5
3
330
0
100
AcDbSymbolTable
 70
     1
  0
STYLE
  5
11
330
3
100
AcDbSymbolTableRecord
100
AcDbTextStyleTableRecord
  2
STANDARD
 70
     0
 40
0.0
 41
1.0
 50
0.0
 71
     0
 42
0.2
  3
arial.ttf
  4

1001
ACAD
1000
Arial
1071
        0
  0
ENDTAB
  0
TABLE
  2
VIEW
  5
6
330
0
100
AcDbSymbolTable
 70
     0
  0
ENDTAB
  0
TABLE
  2
UCS
  5
7
330
0
100
AcDbSymbolTable
 70
     0
  0
ENDTAB
  0
TABLE
  2
APPID
  5
9
330
0
100
AcDbSymbolTable
 70
     2
  0
APPID
  5
12
330
9
100
AcDbSymbolTableRecord
100
AcDbRegAppTableRecord
  2
ACAD
 70
     0
  0
APPID
  5
75D
330
9
100
AcDbSymbolTableRecord
100
AcDbRegAppTableRecord
  2
ACAECLAYERSTANDARD
 70
     0
  0
ENDTAB
  0
TABLE
  2
DIMSTYLE
  5
A
330
0
100
AcDbSymbolTable
 70
     1
  0
DIMSTYLE
105
27
102
{ACAD_REACTORS
330
55F
330
56F
330
57F
330
5AF
330
5BF
330
5DA
330
5EA
330
6EF
330
6FF
330
732
102
}
330
A
100
AcDbSymbolTableRecord
100
AcDbDimStyleTableRecord
  2
STANDARD
 70
     0
  3

  4

  5

  6

  7

 40
1.0
 41
0.18
 42
0.0625
 43
0.38
 44
0.18
 45
0.0
 46
0.0
 47
0.0
 48
0.0
140
0.18
141
0.09
142
0.0
143
25.4
144
1.0
145
0.0
146
1.0
147
0.09
 71
     0
 72
     0
 73
     1
 74
     1
 75
     0
 76
     0
 77
     0
 78
     0
170
     0
171
     2
172
     0
173
     0
174
     0
175
     0
176
     0
177
     0
178
     0
270
     2
271
     4
272
     4
273
     2
274
     2
340
11
275
     0
280
     0
281
     0
282
     0
283
     1
284
     0
285
     0
286
     0
287
     3
288
     0
  0
ENDTAB
  0
TABLE
  2
BLOCK_RECORD
  5
1
330
0
100
AcDbSymbolTable
 70
    17
  0
BLOCK_RECORD
  5
1F
330
1
100
AcDbSymbolTableRecord
100
AcDbBlockTableRecord
  2
*MODEL_SPACE
  0
BLOCK_RECORD
  5
874
330
1
100
AcDbSymbolTableRecord
100
AcDbBlockTableRecord
  2
*PAPER_SPACE
  0
BLOCK_RECORD
  5
2F1
330
1
100
AcDbSymbolTableRecord
100
AcDbBlockTableRecord
  2
KRAJ
  0
BLOCK_RECORD
  5
30C
330
1
100
AcDbSymbolTableRecord
100
AcDbBlockTableRecord
  2
FRONT
  0
BLOCK_RECORD
  5
562
330
1
100
AcDbSymbolTableRecord
100
AcDbBlockTableRecord
  2
*D2
  0
BLOCK_RECORD
  5
572
330
1
100
AcDbSymbolTableRecord
100
AcDbBlockTableRecord
  2
*D3
  0
BLOCK_RECORD
  5
582
330
1
100
AcDbSymbolTableRecord
100
AcDbBlockTableRecord
  2
*D4
  0
BLOCK_RECORD
  5
5B2
330
1
100
AcDbSymbolTableRecord
100
AcDbBlockTableRecord
  2
*D5
  0
BLOCK_RECORD
  5
5C2
330
1
100
AcDbSymbolTableRecord
100
AcDbBlockTableRecord
  2
*D6
  0
BLOCK_RECORD
  5
5DD
330
1
100
AcDbSymbolTableRecord
100
AcDbBlockTableRecord
  2
*D7
  0
BLOCK_RECORD
  5
5ED
330
1
100
AcDbSymbolTableRecord
100
AcDbBlockTableRecord
  2
*D8
  0
BLOCK_RECORD
  5
607
330
1
100
AcDbSymbolTableRecord
100
AcDbBlockTableRecord
  2
_CLOSEDBLANK
  0
BLOCK_RECORD
  5
60D
330
1
100
AcDbSymbolTableRecord
100
AcDbBlockTableRecord
  2
_CLOSED
  0
BLOCK_RECORD
  5
614
330
1
100
AcDbSymbolTableRecord
100
AcDbBlockTableRecord
  2
_DOT
  0
BLOCK_RECORD
  5
619
330
1
100
AcDbSymbolTableRecord
100
AcDbBlockTableRecord
  2
_ARCHTICK
  0
BLOCK_RECORD
  5
6F2
330
1
100
AcDbSymbolTableRecord
100
AcDbBlockTableRecord
  2
*D13
  0
BLOCK_RECORD
  5
702
330
1
100
AcDbSymbolTableRecord
100
AcDbBlockTableRecord
  2
*D14
  0
BLOCK_RECORD
  5
735
330
1
100
AcDbSymbolTableRecord
100
AcDbBlockTableRecord
  2
*D15
  0
ENDTAB
  0
ENDSEC
  0
SECTION
  2
BLOCKS
  0
BLOCK
  5
20
330
1F
100
AcDbEntity
  8
0
100
AcDbBlockBegin
  2
*MODEL_SPACE
 70
     0
 10
0.0
 20
0.0
 30
0.0
  3
*MODEL_SPACE
  1

  0
ENDBLK
  5
21
330
1F
100
AcDbEntity
  8
0
100
AcDbBlockEnd
  0
BLOCK
  5
876
330
874
100
AcDbEntity
 67
     1
  8
0
100
AcDbBlockBegin
  2
*PAPER_SPACE
 70
     0
 10
0.0
 20
0.0
 30
0.0
  3
*PAPER_SPACE
  1

  0
ENDBLK
  5
877
330
874
100
AcDbEntity
 67
     1
  8
0
100
AcDbBlockEnd
  0
BLOCK
  5
2F2
330
2F1
100
AcDbEntity
  8
0
100
AcDbBlockBegin
  2
KRAJ
 70
     0
 10
0.0
 20
0.0
 30
0.0
  3
KRAJ
  1
KRAJ
  0
LINE
  5
2F4
330
2F1
100
AcDbEntity
  8
0
100
AcDbLine
 10
23.17858802006699
 20
11.88396178886323
 30
0.0
 11
23.60596071879165
 21
11.63561481963468
 31
0.0
  0
LINE
  5
2F5
330
2F1
100
AcDbEntity
  8
0
100
AcDbLine
 10
28.08586695810881
 20
9.034769131708918
 30
0.0
 11
28.51846735840103
 21
8.783581802506982
 31
0.0
  0
LINE
  5
2F6
330
2F1
100
AcDbEntity
  8
0
100
AcDbLine
 10
23.17858802006699
 20
11.88396178886323
 30
0.0
 11
23.73102181544385
 21
12.83537554756782
 31
0.0
  0
LINE
  5
2F7
330
2F1
100
AcDbEntity
  8
0
100
AcDbLine
 10
28.51846735840103
 20
8.783581802506982
 30
0.0
 11
29.07081642752618
 21
9.73484964377808
 31
0.0
  0
LINE
  5
2F8
330
2F1
100
AcDbEntity
  8
0
100
AcDbLine
 10
27.83479919941555
 20
8.602374658403873
 30
0.0
 11
28.08586695810881
 21
9.034769131708918
 31
0.0
  0
LINE
  5
2F9
330
2F1
100
AcDbEntity
  8
0
100
AcDbLine
 10
23.35474539744931
 20
11.20330606154289
 30
0.0
 11
23.60581314151945
 21
11.63570050966369
 31
0.0
  0
LINE
  5
2FA
330
2F1
100
AcDbEntity
  8
0
100
AcDbLine
 10
23.73102181544385
 20
12.83537554756782
 30
0.0
 11
29.07081642752618
 21
9.73484964377808
 31
0.0
  0
ELLIPSE
  5
2FB
330
2F1
100
AcDbEntity
  8
0
100
AcDbEllipse
 10
26.40091912148502
 20
11.28511259567295
 30
0.0
 11
-1.039943320270123
 21
0.6038380569310341
 31
0.0
210
0.0
220
0.0
230
1.0
 40
0.6385440653482459
 41
6.283185307179586
 42
9.42477796076938
  0
LINE
  5
2FC
330
2F1
100
AcDbEntity
  8
0
100
AcDbLine
 10
24.60098340460934
 20
12.33023656031044
 30
0.0
 11
24.09875154992429
 21
11.46515194972255
 31
0.0
  0
LINE
  5
2FD
330
2F1
100
AcDbEntity
  8
0
100
AcDbLine
 10
28.20211116541818
 20
10.23925915080853
 30
0.0
 11
27.70001548530882
 21
9.374409098281191
 31
0.0
  0
LINE
  5
2FE
330
2F1
100
AcDbEntity
  8
0
100
AcDbLine
 10
27.70001548530882
 20
9.374409098281191
 30
0.0
 11
24.09875154992429
 21
11.46515194972255
 31
0.0
  0
ENDBLK
  5
2F3
330
2F1
100
AcDbEntity
  8
0
100
AcDbBlockEnd
  0
BLOCK
  5
30D
330
30C
100
AcDbEntity
  8
0
100
AcDbBlockBegin
  2
FRONT
 70
     0
 10
0.0
 20
0.0
 30
0.0
  3
FRONT
  1
FRONT
  0
LINE
  5
30F
330
30C
100
AcDbEntity
  8
0
100
AcDbLine
 10
124.7071067811866
 20
0.0
 30
0.0
 11
133.2928932188134
 21
0.0
 31
0.0
  0
LINE
  5
310
330
30C
100
AcDbEntity
  8
0
100
AcDbLine
 10
120.0
 20
8.1
 30
0.0
 11
138.0
 21
8.1
 31
0.0
  0
LINE
  5
311
330
30C
100
AcDbEntity
  8
0
100
AcDbLine
 10
123.15
 20
6.2
 30
0.0
 11
134.85
 21
6.2
 31
0.0
  0
LINE
  5
312
330
30C
100
AcDbEntity
  8
0
100
AcDbLine
 10
123.15
 20
6.2
 30
0.0
 11
121.95
 21
8.1
 31
0.0
  0
LINE
  5
313
330
30C
100
AcDbEntity
  8
0
100
AcDbLine
 10
134.85
 20
6.2
 30
0.0
 11
136.05
 21
8.1
 31
0.0
  0
LINE
  5
314
330
30C
100
AcDbEntity
  8
0
100
AcDbLine
 10
125.7071067811866
 20
1.0
 30
0.0
 11
132.2928932188134
 21
1.0
 31
0.0
  0
LINE
  5
315
330
30C
100
AcDbEntity
  8
0
100
AcDbLine
 10
125.0
 20
1.707106781186548
 30
0.0
 11
125.0
 21
6.2
 31
0.0
  0
LINE
  5
316
330
30C
100
AcDbEntity
  8
0
100
AcDbLine
 10
133.0
 20
1.707106781186548
 30
0.0
 11
133.0
 21
6.2
 31
0.0
  0
ARC
  5
317
330
30C
100
AcDbEntity
  8
0
100
AcDbCircle
 10
125.7071067811866
 20
1.707106781186548
 30
0.0
 40
0.707106781186548
100
AcDbArc
 50
180.0
 51
270.0
  0
ARC
  5
318
330
30C
100
AcDbEntity
  8
0
100
AcDbCircle
 10
132.2928932188134
 20
1.707106781186548
 30
0.0
 40
0.707106781186548
100
AcDbArc
 50
270.0
 51
359.9999999999998
  0
LINE
  5
319
330
30C
100
AcDbEntity
  8
0
100
AcDbLine
 10
121.7
 20
8.1
 30
0.0
 11
121.7
 21
5.207106781186549
 31
0.0
  0
LINE
  5
31A
330
30C
100
AcDbEntity
  8
0
100
AcDbLine
 10
125.0
 20
4.5
 30
0.0
 11
122.4071067811866
 21
4.500000000000001
 31
0.0
  0
ARC
  5
31B
330
30C
100
AcDbEntity
  8
0
100
AcDbCircle
 10
122.4071067811866
 20
5.207106781186549
 30
0.0
 40
0.707106781186548
100
AcDbArc
 50
180.0
 51
270.0
  0
LINE
  5
31C
330
30C
100
AcDbEntity
  8
0
100
AcDbLine
 10
136.3
 20
8.100000000000001
 30
0.0
 11
136.3
 21
5.207106781186541
 31
0.0
  0
LINE
  5
31D
330
30C
100
AcDbEntity
  8
0
100
AcDbLine
 10
133.0170014197672
 20
4.5
 30
0.0
 11
135.5928932188135
 21
4.5
 31
0.0
  0
ARC
  5
31E
330
30C
100
AcDbEntity
  8
0
100
AcDbCircle
 10
135.5928932188135
 20
5.207106781186548
 30
0.0
 40
0.7071067811865475
100
AcDbArc
 50
270.0
 51
359.9999999999993
  0
LINE
  5
31F
330
30C
100
AcDbEntity
  8
0
100
AcDbLine
 10
124.0
 20
4.5
 30
0.0
 11
124.0
 21
0.7071067811865479
 31
0.0
  0
LINE
  5
320
330
30C
100
AcDbEntity
  8
0
100
AcDbLine
 10
134.0
 20
4.5
 30
0.0
 11
134.0
 21
0.7071067811865479
 31
0.0
  0
ARC
  5
321
330
30C
100
AcDbEntity
  8
0
100
AcDbCircle
 10
133.2928932188134
 20
0.707106781186548
 30
0.0
 40
0.707106781186548
100
AcDbArc
 50
270.0
 51
359.9999999999998
  0
ARC
  5
322
330
30C
100
AcDbEntity
  8
0
100
AcDbCircle
 10
124.7071067811866
 20
0.7071067811865479
 30
0.0
 40
0.707106781186548
100
AcDbArc
 50
180.0
 51
270.0
  0
LINE
  5
323
330
30C
100
AcDbEntity
  8
0
100
AcDbLine
 10
120.0
 20
8.1
 30
0.0
 11
120.0
 21
90.1
 31
0.0
  0
LINE
  5
324
330
30C
100
AcDbEntity
  8
0
100
AcDbLine
 10
120.0
 20
90.1
 30
0.0
 11
138.0
 21
90.1
 31
0.0
  0
LINE
  5
325
330
30C
100
AcDbEntity
  8
0
100
AcDbLine
 10
138.0
 20
90.1
 30
0.0
 11
138.0
 21
8.1
 31
0.0
  0
LINE
  5
326
330
30C
100
AcDbEntity
  8
0
100
AcDbLine
 10
123.15
 20
91.99999999999999
 30
0.0
 11
121.95
 21
90.1
 31
0.0
  0
LINE
  5
327
330
30C
100
AcDbEntity
  8
0
100
AcDbLine
 10
123.15
 20
91.99999999999999
 30
0.0
 11
134.85
 21
91.99999999999999
 31
0.0
  0
LINE
  5
328
330
30C
100
AcDbEntity
  8
0
100
AcDbLine
 10
134.85
 20
91.99999999999999
 30
0.0
 11
136.05
 21
90.1
 31
0.0
  0
LINE
  5
329
330
30C
100
AcDbEntity
  8
0
100
AcDbLine
 10
120.0
 20
26.1
 30
0.0
 11
138.0
 21
26.1
 31
0.0
  0
LINE
  5
32A
330
30C
100
AcDbEntity
  8
0
100
AcDbLine
 10
120.0
 20
26.6
 30
0.0
 11
138.0
 21
26.6
 31
0.0
  0
LINE
  5
32B
330
30C
100
AcDbEntity
  8
0
100
AcDbLine
 10
120.0
 20
71.6
 30
0.0
 11
138.0
 21
71.6
 31
0.0
  0
LINE
  5
32C
330
30C
100
AcDbEntity
  8
0
100
AcDbLine
 10
120.0
 20
72.1
 30
0.0
 11
138.0
 21
72.1
 31
0.0
  0
LWPOLYLINE
  5
32D
330
30C
100
AcDbEntity
  8
0
100
AcDbPolyline
 90
        4
 70
     1
 43
0.0
 10
123.0
 20
54.2
 10
123.0
 20
59.89999999999999
 10
135.0
 20
59.89999999999999
 10
135.0
 20
54.2
  0
LINE
  5
32E
330
30C
100
AcDbEntity
  8
0
100
AcDbLine
 10
127.3
 20
26.1
 30
0.0
 11
127.3
 21
24.6
 31
0.0
  0
LINE
  5
32F
330
30C
100
AcDbEntity
  8
0
100
AcDbLine
 10
127.3
 20
24.6
 30
0.0
 11
129.0
 21
24.6
 31
0.0
  0
LINE
  5
330
330
30C
100
AcDbEntity
  8
0
100
AcDbLine
 10
129.0
 20
24.6
 30
0.0
 11
129.0
 21
26.1
 31
0.0
  0
LINE
  5
331
330
30C
100
AcDbEntity
  8
0
100
AcDbLine
 10
126.45
 20
26.1
 30
0.0
 11
126.45
 21
23.6
 31
0.0
  0
LINE
  5
332
330
30C
100
AcDbEntity
  8
0
100
AcDbLine
 10
126.45
 20
23.6
 30
0.0
 11
129.85
 21
23.6
 31
0.0
  0
LINE
  5
333
330
30C
100
AcDbEntity
  8
0
100
AcDbLine
 10
129.85
 20
23.6
 30
0.0
 11
129.85
 21
26.1
 31
0.0
  0
LINE
  5
334
330
30C
100
AcDbEntity
  8
0
100
AcDbLine
 10
126.45
 20
23.6
 30
0.0
 11
127.3
 21
24.6
 31
0.0
  0
LINE
  5
335
330
30C
100
AcDbEntity
  8
0
100
AcDbLine
 10
129.0
 20
24.6
 30
0.0
 11
129.85
 21
23.6
 31
0.0
  0
LINE
  5
336
330
30C
100
AcDbEntity
  8
0
100
AcDbLine
 10
127.3
 20
72.1
 30
0.0
 11
127.3
 21
73.6
 31
0.0
  0
LINE
  5
337
330
30C
100
AcDbEntity
  8
0
100
AcDbLine
 10
127.3
 20
73.6
 30
0.0
 11
129.0
 21
73.6
 31
0.0
  0
LINE
  5
338
330
30C
100
AcDbEntity
  8
0
100
AcDbLine
 10
129.0
 20
73.6
 30
0.0
 11
129.0
 21
72.1
 31
0.0
  0
LINE
  5
339
330
30C
100
AcDbEntity
  8
0
100
AcDbLine
 10
126.45
 20
72.1
 30
0.0
 11
126.45
 21
74.6
 31
0.0
  0
LINE
  5
33A
330
30C
100
AcDbEntity
  8
0
100
AcDbLine
 10
126.45
 20
74.6
 30
0.0
 11
129.85
 21
74.6
 31
0.0
  0
LINE
  5
33B
330
30C
100
AcDbEntity
  8
0
100
AcDbLine
 10
129.85
 20
74.6
 30
0.0
 11
129.85
 21
72.1
 31
0.0
  0
LINE
  5
33C
330
30C
100
AcDbEntity
  8
0
100
AcDbLine
 10
126.45
 20
74.6
 30
0.0
 11
127.3
 21
73.6
 31
0.0
  0
LINE
  5
33D
330
30C
100
AcDbEntity
  8
0
100
AcDbLine
 10
129.0
 20
73.6
 30
0.0
 11
129.85
 21
74.6
 31
0.0
  0
CIRCLE
  5
33E
330
30C
100
AcDbEntity
  8
0
100
AcDbCircle
 10
129.0
 20
16.85
 30
0.0
 40
3.2
  0
LINE
  5
33F
330
30C
100
AcDbEntity
  8
0
100
AcDbLine
 10
120.0
 20
11.7
 30
0.0
 11
138.0
 21
11.7
 31
0.0
  0
LINE
  5
340
330
30C
100
AcDbEntity
  8
0
100
AcDbLine
 10
120.0
 20
86.5
 30
0.0
 11
138.0
 21
86.5
 31
0.0
  0
LINE
  5
341
330
30C
100
AcDbEntity
  8
0
100
AcDbLine
 10
128.35
 20
18.20710678118655
 30
0.0
 11
128.35
 21
19.98328900677866
 31
0.0
  0
LINE
  5
342
330
30C
100
AcDbEntity
  8
0
100
AcDbLine
 10
128.35
 20
13.71671099322134
 30
0.0
 11
128.35
 21
15.49289321881345
 31
0.0
  0
LINE
  5
343
330
30C
100
AcDbEntity
  8
0
100
AcDbLine
 10
129.65
 20
18.20710678118655
 30
0.0
 11
129.65
 21
19.98328900677866
 31
0.0
  0
LINE
  5
344
330
30C
100
AcDbEntity
  8
0
100
AcDbLine
 10
129.65
 20
13.71671099322134
 30
0.0
 11
129.65
 21
15.49289321881345
 31
0.0
  0
ARC
  5
345
330
30C
100
AcDbEntity
  8
0
100
AcDbCircle
 10
127.6428932188135
 20
18.20710678118655
 30
0.0
 40
0.707106781186548
100
AcDbArc
 50
270.0
 51
0.0
  0
ARC
  5
346
330
30C
100
AcDbEntity
  8
0
100
AcDbCircle
 10
130.3571067811866
 20
18.20710678118655
 30
0.0
 40
0.707106781186548
100
AcDbArc
 50
180.0
 51
270.0
  0
ARC
  5
347
330
30C
100
AcDbEntity
  8
0
100
AcDbCircle
 10
130.3571067811866
 20
15.49289321881345
 30
0.0
 40
0.707106781186548
100
AcDbArc
 50
90.0
 51
180.0
  0
ARC
  5
348
330
30C
100
AcDbEntity
  8
0
100
AcDbCircle
 10
127.6428932188135
 20
15.49289321881345
 30
0.0
 40
0.707106781186548
100
AcDbArc
 50
0.0
 51
90.0
  0
LINE
  5
349
330
30C
100
AcDbEntity
  8
0
100
AcDbLine
 10
126.75
 20
16.2
 30
0.0
 11
126.75
 21
17.5
 31
0.0
  0
LINE
  5
34A
330
30C
100
AcDbEntity
  8
0
100
AcDbLine
 10
131.25
 20
16.2
 30
0.0
 11
131.25
 21
17.5
 31
0.0
  0
LINE
  5
34B
330
30C
100
AcDbEntity
  8
0
100
AcDbLine
 10
130.3571067811866
 20
16.2
 30
0.0
 11
131.2451978939826
 21
16.2
 31
0.0
  0
LINE
  5
34C
330
30C
100
AcDbEntity
  8
0
100
AcDbLine
 10
130.3571067811866
 20
17.5
 30
0.0
 11
131.2451978939826
 21
17.5
 31
0.0
  0
LINE
  5
34D
330
30C
100
AcDbEntity
  8
0
100
AcDbLine
 10
126.7548021060174
 20
17.5
 30
0.0
 11
127.6428932188135
 21
17.5
 31
0.0
  0
LINE
  5
34E
330
30C
100
AcDbEntity
  8
0
100
AcDbLine
 10
129.8571067811866
 20
17.70710678118655
 30
0.0
 11
130.3571067811866
 21
18.20710678118655
 31
0.0
  0
LINE
  5
34F
330
30C
100
AcDbEntity
  8
0
100
AcDbLine
 10
126.7548021060174
 20
16.2
 30
0.0
 11
127.6428932188135
 21
16.2
 31
0.0
  0
LINE
  5
350
330
30C
100
AcDbEntity
  8
0
100
AcDbLine
 10
129.8571067811866
 20
15.99289321881345
 30
0.0
 11
130.3571067811866
 21
15.49289321881345
 31
0.0
  0
LINE
  5
351
330
30C
100
AcDbEntity
  8
0
100
AcDbLine
 10
128.1428932188135
 20
17.70710678118655
 30
0.0
 11
127.6428932188135
 21
18.20710678118655
 31
0.0
  0
LINE
  5
352
330
30C
100
AcDbEntity
  8
0
100
AcDbLine
 10
128.1428932188135
 20
15.99289321881345
 30
0.0
 11
127.6428932188135
 21
15.49289321881345
 31
0.0
  0
CIRCLE
  5
353
330
30C
100
AcDbEntity
  8
0
100
AcDbCircle
 10
129.0
 20
16.85
 30
0.0
 40
0.7
  0
CIRCLE
  5
354
330
30C
100
AcDbEntity
  8
0
100
AcDbCircle
 10
129.0
 20
81.35
 30
0.0
 40
3.2
  0
LINE
  5
355
330
30C
100
AcDbEntity
  8
0
100
AcDbLine
 10
128.35
 20
78.21671099322133
 30
0.0
 11
128.35
 21
79.99289321881345
 31
0.0
  0
LINE
  5
356
330
30C
100
AcDbEntity
  8
0
100
AcDbLine
 10
128.35
 20
82.70710678118654
 30
0.0
 11
128.35
 21
84.48328900677866
 31
0.0
  0
LINE
  5
357
330
30C
100
AcDbEntity
  8
0
100
AcDbLine
 10
129.65
 20
78.21671099322133
 30
0.0
 11
129.65
 21
79.99289321881345
 31
0.0
  0
LINE
  5
358
330
30C
100
AcDbEntity
  8
0
100
AcDbLine
 10
129.65
 20
82.70710678118654
 30
0.0
 11
129.65
 21
84.48328900677865
 31
0.0
  0
ARC
  5
359
330
30C
100
AcDbEntity
  8
0
100
AcDbCircle
 10
127.6428932188135
 20
82.70710678118654
 30
0.0
 40
0.707106781186548
100
AcDbArc
 50
270.0
 51
0.0
  0
ARC
  5
35A
330
30C
100
AcDbEntity
  8
0
100
AcDbCircle
 10
130.3571067811866
 20
82.70710678118654
 30
0.0
 40
0.707106781186548
100
AcDbArc
 50
180.0
 51
270.0
  0
ARC
  5
35B
330
30C
100
AcDbEntity
  8
0
100
AcDbCircle
 10
130.3571067811866
 20
79.99289321881345
 30
0.0
 40
0.707106781186548
100
AcDbArc
 50
90.0
 51
180.0
  0
ARC
  5
35C
330
30C
100
AcDbEntity
  8
0
100
AcDbCircle
 10
127.6428932188135
 20
79.99289321881345
 30
0.0
 40
0.707106781186548
100
AcDbArc
 50
0.0
 51
90.0
  0
LINE
  5
35D
330
30C
100
AcDbEntity
  8
0
100
AcDbLine
 10
126.75
 20
80.69999999999999
 30
0.0
 11
126.75
 21
81.99999999999999
 31
0.0
  0
LINE
  5
35E
330
30C
100
AcDbEntity
  8
0
100
AcDbLine
 10
131.25
 20
80.69999999999999
 30
0.0
 11
131.25
 21
81.99999999999999
 31
0.0
  0
LINE
  5
35F
330
30C
100
AcDbEntity
  8
0
100
AcDbLine
 10
130.3571067811866
 20
80.69999999999999
 30
0.0
 11
131.2451978939826
 21
80.69999999999999
 31
0.0
  0
LINE
  5
360
330
30C
100
AcDbEntity
  8
0
100
AcDbLine
 10
130.3571067811866
 20
81.99999999999999
 30
0.0
 11
131.2451978939826
 21
81.99999999999999
 31
0.0
  0
LINE
  5
361
330
30C
100
AcDbEntity
  8
0
100
AcDbLine
 10
126.7548021060174
 20
81.99999999999999
 30
0.0
 11
127.6428932188135
 21
81.99999999999999
 31
0.0
  0
LINE
  5
362
330
30C
100
AcDbEntity
  8
0
100
AcDbLine
 10
129.8571067811866
 20
82.20710678118654
 30
0.0
 11
130.3571067811866
 21
82.70710678118654
 31
0.0
  0
LINE
  5
363
330
30C
100
AcDbEntity
  8
0
100
AcDbLine
 10
126.7548021060174
 20
80.69999999999999
 30
0.0
 11
127.6428932188135
 21
80.69999999999999
 31
0.0
  0
LINE
  5
364
330
30C
100
AcDbEntity
  8
0
100
AcDbLine
 10
129.8571067811866
 20
80.49289321881345
 30
0.0
 11
130.3571067811866
 21
79.99289321881345
 31
0.0
  0
LINE
  5
365
330
30C
100
AcDbEntity
  8
0
100
AcDbLine
 10
128.1428932188135
 20
82.20710678118654
 30
0.0
 11
127.6428932188135
 21
82.70710678118654
 31
0.0
  0
LINE
  5
366
330
30C
100
AcDbEntity
  8
0
100
AcDbLine
 10
128.1428932188135
 20
80.49289321881345
 30
0.0
 11
127.6428932188135
 21
79.99289321881345
 31
0.0
  0
CIRCLE
  5
367
330
30C
100
AcDbEntity
  8
0
100
AcDbCircle
 10
129.0
 20
81.35
 30
0.0
 40
0.7
  0
LINE
  5
368
330
30C
100
AcDbEntity
  8
0
100
AcDbLine
 10
132.0
 20
26.6
 30
0.0
 11
132.0
 21
45.6069647979778
 31
0.0
  0
LINE
  5
369
330
30C
100
AcDbEntity
  8
0
100
AcDbLine
 10
135.0
 20
71.6
 30
0.0
 11
135.0004309006888
 21
51.59527469691521
 31
0.0
  0
LINE
  5
36A
330
30C
100
AcDbEntity
  8
0
100
AcDbLine
 10
132.6112875855771
 20
47.4150501141028
 30
0.0
 11
134.4004309006888
 21
49.79527469691521
 31
0.0
  0
ARC
  5
36B
330
30C
100
AcDbEntity
  8
0
100
AcDbCircle
 10
135.0096524697065
 20
45.6163229958218
 30
0.0
 40
3.0
100
AcDbArc
 50
143.1301023541561
 51
180.0
  0
ARC
  5
36C
330
30C
100
AcDbEntity
  8
0
100
AcDbCircle
 10
135.0096524697065
 20
45.6163229958218
 30
0.0
 40
3.0
100
AcDbArc
 50
143.1301023541561
 51
180.0
  0
ARC
  5
36D
330
30C
100
AcDbEntity
  8
0
100
AcDbCircle
 10
132.0004309006888
 20
51.59527469691521
 30
0.0
 40
3.0
100
AcDbArc
 50
323.1301023541561
 51
0.0
  0
ENDBLK
  5
30E
330
30C
100
AcDbEntity
  8
0
100
AcDbBlockEnd
  0
BLOCK
  5
56D
330
562
100
AcDbEntity
  8
0
100
AcDbBlockBegin
  2
*D2
 70
     1
 10
0.0
 20
0.0
 30
0.0
  3
*D2
  1
*D26
  0
LINE
  5
563
330
562
100
AcDbEntity
  8
KOTY
 62
     0
100
AcDbLine
 10
48.5
 20
38.68170698643668
 30
0.0
 11
48.5
 21
38.79920698643668
 31
0.0
  0
LINE
  5
564
330
562
100
AcDbEntity
  8
KOTY
 62
     0
100
AcDbLine
 10
66.5
 20
38.68170698643668
 30
0.0
 11
66.5
 21
38.79920698643668
 31
0.0
  0
LINE
  5
565
330
562
100
AcDbEntity
  8
KOTY
 62
     0
100
AcDbLine
 10
52.5
 20
38.61920698643668
 30
0.0
 11
62.5
 21
38.61920698643668
 31
0.0
  0
SOLID
  5
566
330
562
100
AcDbEntity
  8
KOTY
 62
     0
100
AcDbTrace
 10
52.5
 20
39.28587365310334
 30
0.0
 11
52.5
 21
37.95254031977002
 31
0.0
 12
48.5
 22
38.61920698643668
 32
0.0
 13
48.5
 23
38.61920698643668
 33
0.0
  0
SOLID
  5
567
330
562
100
AcDbEntity
  8
KOTY
 62
     0
100
AcDbTrace
 10
62.5
 20
37.95254031977002
 30
0.0
 11
62.5
 21
39.28587365310334
 31
0.0
 12
66.5
 22
38.61920698643668
 32
0.0
 13
66.5
 23
38.61920698643668
 33
0.0
  0
MTEXT
  5
568
330
562
100
AcDbEntity
  8
KOTY
 62
     0
100
AcDbMText
 10
57.31093343209884
 20
41.66120698643668
 30
0.0
 40
4.0
 41
0.0
 71
     5
 72
     1
  1
\A1;18
  0
POINT
  5
569
330
562
100
AcDbEntity
  8
DEFPOINTS
 62
     0
100
AcDbPoint
 10
48.5
 20
38.61920698643668
 30
0.0
  0
POINT
  5
56A
330
562
100
AcDbEntity
  8
DEFPOINTS
 62
     0
100
AcDbPoint
 10
66.5
 20
38.61920698643668
 30
0.0
  0
POINT
  5
56B
330
562
100
AcDbEntity
  8
DEFPOINTS
 62
     0
100
AcDbPoint
 10
66.5
 20
38.61920698643668
 30
0.0
  0
ENDBLK
  5
56E
330
562
100
AcDbEntity
  8
0
100
AcDbBlockEnd
  0
BLOCK
  5
57D
330
572
100
AcDbEntity
  8
0
100
AcDbBlockBegin
  2
*D3
 70
     1
 10
0.0
 20
0.0
 30
0.0
  3
*D3
  1
*D27
  0
LINE
  5
573
330
572
100
AcDbEntity
  8
KOTY
 62
     0
100
AcDbLine
 10
72.5625
 20
0.0
 30
0.0
 11
82.68
 21
0.0
 31
0.0
  0
LINE
  5
574
330
572
100
AcDbEntity
  8
KOTY
 62
     0
100
AcDbLine
 10
61.7125
 20
92.0
 30
0.0
 11
82.68
 21
92.0
 31
0.0
  0
LINE
  5
575
330
572
100
AcDbEntity
  8
KOTY
 62
     0
100
AcDbLine
 10
82.5
 20
4.0
 30
0.0
 11
82.5
 21
88.0
 31
0.0
  0
SOLID
  5
576
330
572
100
AcDbEntity
  8
KOTY
 62
     0
100
AcDbTrace
 10
81.83333333333333
 20
4.0
 30
0.0
 11
83.16666666666667
 21
4.0
 31
0.0
 12
82.5
 22
0.0
 32
0.0
 13
82.5
 23
0.0
 33
0.0
  0
SOLID
  5
577
330
572
100
AcDbEntity
  8
KOTY
 62
     0
100
AcDbTrace
 10
83.16666666666667
 20
88.0
 30
0.0
 11
81.83333333333333
 21
88.0
 31
0.0
 12
82.5
 22
92.0
 32
0.0
 13
82.5
 23
92.0
 33
0.0
  0
MTEXT
  5
578
330
572
100
AcDbEntity
  8
KOTY
 62
     0
100
AcDbMText
 10
79.458
 20
46.0
 30
0.0
 40
4.0
 41
0.0
 71
     5
 72
     1
  1
\A1;92
 11
0.0
 21
1.0
 31
0.0
  0
POINT
  5
579
330
572
100
AcDbEntity
  8
DEFPOINTS
 62
     0
100
AcDbPoint
 10
72.5
 20
0.0
 30
0.0
  0
POINT
  5
57A
330
572
100
AcDbEntity
  8
DEFPOINTS
 62
     0
100
AcDbPoint
 10
61.65
 20
92.0
 30
0.0
  0
POINT
  5
57B
330
572
100
AcDbEntity
  8
DEFPOINTS
 62
     0
100
AcDbPoint
 10
82.5
 20
92.0
 30
0.0
  0
ENDBLK
  5
57E
330
572
100
AcDbEntity
  8
0
100
AcDbBlockEnd
  0
BLOCK
  5
58D
330
582
100
AcDbEntity
  8
0
100
AcDbBlockBegin
  2
*D4
 70
     1
 10
0.0
 20
0.0
 30
0.0
  3
*D4
  1
*D28
  0
LINE
  5
583
330
582
100
AcDbEntity
  8
KOTY
 62
     0
100
AcDbLine
 10
0.0
 20
26.5375
 30
0.0
 11
0.0
 21
-29.45005174156129
 31
0.0
  0
LINE
  5
584
330
582
100
AcDbEntity
  8
KOTY
 62
     0
100
AcDbLine
 10
72.5
 20
-0.0625
 30
0.0
 11
72.5
 21
-29.45005174156129
 31
0.0
  0
LINE
  5
585
330
582
100
AcDbEntity
  8
KOTY
 62
     0
100
AcDbLine
 10
4.0
 20
-29.27005174156129
 30
0.0
 11
68.5
 21
-29.27005174156129
 31
0.0
  0
SOLID
  5
586
330
582
100
AcDbEntity
  8
KOTY
 62
     0
100
AcDbTrace
 10
4.0
 20
-28.60338507489462
 30
0.0
 11
4.0
 21
-29.93671840822796
 31
0.0
 12
0.0
 22
-29.27005174156129
 32
0.0
 13
0.0
 23
-29.27005174156129
 33
0.0
  0
SOLID
  5
587
330
582
100
AcDbEntity
  8
KOTY
 62
     0
100
AcDbTrace
 10
68.5
 20
-29.93671840822796
 30
0.0
 11
68.5
 21
-28.60338507489462
 31
0.0
 12
72.5
 22
-29.27005174156129
 32
0.0
 13
72.5
 23
-29.27005174156129
 33
0.0
  0
MTEXT
  5
588
330
582
100
AcDbEntity
  8
KOTY
 62
     0
100
AcDbMText
 10
35.69797016463227
 20
-25.86805174156129
 30
0.0
 40
4.0
 41
0.0
 71
     5
 72
     1
  1
\A1;72,5
  0
POINT
  5
589
330
582
100
AcDbEntity
  8
DEFPOINTS
 62
     0
100
AcDbPoint
 10
0.0
 20
26.6
 30
0.0
  0
POINT
  5
58A
330
582
100
AcDbEntity
  8
DEFPOINTS
 62
     0
100
AcDbPoint
 10
72.5
 20
0.0
 30
0.0
  0
POINT
  5
58B
330
582
100
AcDbEntity
  8
DEFPOINTS
 62
     0
100
AcDbPoint
 10
72.5
 20
-29.27005174156129
 30
0.0
  0
ENDBLK
  5
58E
330
582
100
AcDbEntity
  8
0
100
AcDbBlockEnd
  0
BLOCK
  5
5BD
330
5B2
100
AcDbEntity
  8
0
100
AcDbBlockBegin
  2
*D5
 70
     1
 10
0.0
 20
0.0
 30
0.0
  3
*D5
  1
*D31
  0
LINE
  5
5B3
330
5B2
100
AcDbEntity
  8
KOTY
 62
     0
100
AcDbLine
 10
-0.0625
 20
26.6
 30
0.0
 11
-10.18
 21
26.6
 31
0.0
  0
LINE
  5
5B4
330
5B2
100
AcDbEntity
  8
KOTY
 62
     0
100
AcDbLine
 10
-0.0625
 20
71.6
 30
0.0
 11
-10.18
 21
71.6
 31
0.0
  0
LINE
  5
5B5
330
5B2
100
AcDbEntity
  8
KOTY
 62
     0
100
AcDbLine
 10
-10.0
 20
30.6
 30
0.0
 11
-9.999999999999998
 21
67.6
 31
0.0
  0
SOLID
  5
5B6
330
5B2
100
AcDbEntity
  8
KOTY
 62
     0
100
AcDbTrace
 10
-10.66666666666667
 20
30.6
 30
0.0
 11
-9.333333333333336
 21
30.6
 31
0.0
 12
-10.0
 22
26.6
 32
0.0
 13
-10.0
 23
26.6
 33
0.0
  0
SOLID
  5
5B7
330
5B2
100
AcDbEntity
  8
KOTY
 62
     0
100
AcDbTrace
 10
-9.333333333333332
 20
67.6
 30
0.0
 11
-10.66666666666666
 21
67.6
 31
0.0
 12
-9.999999999999998
 22
71.6
 32
0.0
 13
-9.999999999999998
 23
71.6
 33
0.0
  0
MTEXT
  5
5B8
330
5B2
100
AcDbEntity
  8
KOTY
 62
     0
100
AcDbMText
 10
-13.034
 20
46.0
 30
0.0
 40
4.0
 41
0.0
 71
     5
 72
     1
  1
\A1;45
 11
7.894919286223337E-17
 21
1.0
 31
0.0
  0
POINT
  5
5B9
330
5B2
100
AcDbEntity
  8
DEFPOINTS
 62
     0
100
AcDbPoint
 10
0.0
 20
26.6
 30
0.0
  0
POINT
  5
5BA
330
5B2
100
AcDbEntity
  8
DEFPOINTS
 62
     0
100
AcDbPoint
 10
0.0
 20
71.6
 30
0.0
  0
POINT
  5
5BB
330
5B2
100
AcDbEntity
  8
DEFPOINTS
 62
     0
100
AcDbPoint
 10
-9.999999999999998
 20
71.6
 30
0.0
  0
ENDBLK
  5
5BE
330
5B2
100
AcDbEntity
  8
0
100
AcDbBlockEnd
  0
BLOCK
  5
5CD
330
5C2
100
AcDbEntity
  8
0
100
AcDbBlockBegin
  2
*D6
 70
     1
 10
0.0
 20
0.0
 30
0.0
  3
*D6
  1
*D32
  0
LINE
  5
5C3
330
5C2
100
AcDbEntity
  8
KOTY
 62
     0
100
AcDbLine
 10
28.6375
 20
8.1
 30
0.0
 11
-20.69698663666551
 21
8.099999999999994
 31
0.0
  0
LINE
  5
5C4
330
5C2
100
AcDbEntity
  8
KOTY
 62
     0
100
AcDbLine
 10
28.6375
 20
90.1
 30
0.0
 11
-20.6969866366655
 21
90.1
 31
0.0
  0
LINE
  5
5C5
330
5C2
100
AcDbEntity
  8
KOTY
 62
     0
100
AcDbLine
 10
-20.51698663666551
 20
12.09999999999999
 30
0.0
 11
-20.5169866366655
 21
86.1
 31
0.0
  0
SOLID
  5
5C6
330
5C2
100
AcDbEntity
  8
KOTY
 62
     0
100
AcDbTrace
 10
-21.18365330333217
 20
12.09999999999999
 30
0.0
 11
-19.85031996999884
 21
12.09999999999999
 31
0.0
 12
-20.51698663666551
 22
8.099999999999994
 32
0.0
 13
-20.51698663666551
 23
8.099999999999994
 33
0.0
  0
SOLID
  5
5C7
330
5C2
100
AcDbEntity
  8
KOTY
 62
     0
100
AcDbTrace
 10
-19.85031996999884
 20
86.1
 30
0.0
 11
-21.18365330333217
 21
86.1
 31
0.0
 12
-20.5169866366655
 22
90.1
 32
0.0
 13
-20.5169866366655
 23
90.1
 33
0.0
  0
MTEXT
  5
5C8
330
5C2
100
AcDbEntity
  8
KOTY
 62
     0
100
AcDbMText
 10
-23.55898663666551
 20
46.00000000000001
 30
0.0
 40
4.0
 41
0.0
 71
     5
 72
     1
  1
\A1;82
 11
4.332577657073782E-17
 21
1.0
 31
0.0
  0
POINT
  5
5C9
330
5C2
100
AcDbEntity
  8
DEFPOINTS
 62
     0
100
AcDbPoint
 10
28.7
 20
8.1
 30
0.0
  0
POINT
  5
5CA
330
5C2
100
AcDbEntity
  8
DEFPOINTS
 62
     0
100
AcDbPoint
 10
28.7
 20
90.1
 30
0.0
  0
POINT
  5
5CB
330
5C2
100
AcDbEntity
  8
DEFPOINTS
 62
     0
100
AcDbPoint
 10
-20.5169866366655
 20
90.1
 30
0.0
  0
ENDBLK
  5
5CE
330
5C2
100
AcDbEntity
  8
0
100
AcDbBlockEnd
  0
BLOCK
  5
5E8
330
5DD
100
AcDbEntity
  8
0
100
AcDbBlockBegin
  2
*D7
 70
     1
 10
0.0
 20
0.0
 30
0.0
  3
*D7
  1
*D34
  0
LINE
  5
5DE
330
5DD
100
AcDbEntity
  8
KOTY
 62
     0
100
AcDbLine
 10
66.5
 20
30.4375
 30
0.0
 11
66.5
 21
-10.18
 31
0.0
  0
LINE
  5
5DF
330
5DD
100
AcDbEntity
  8
KOTY
 62
     0
100
AcDbLine
 10
22.5
 20
11.6375
 30
0.0
 11
22.5
 21
-10.18
 31
0.0
  0
LINE
  5
5E0
330
5DD
100
AcDbEntity
  8
KOTY
 62
     0
100
AcDbLine
 10
62.5
 20
-10.0
 30
0.0
 11
26.5
 21
-10.0
 31
0.0
  0
SOLID
  5
5E1
330
5DD
100
AcDbEntity
  8
KOTY
 62
     0
100
AcDbTrace
 10
62.5
 20
-10.66666666666667
 30
0.0
 11
62.5
 21
-9.333333333333334
 31
0.0
 12
66.5
 22
-10.0
 32
0.0
 13
66.5
 23
-10.0
 33
0.0
  0
SOLID
  5
5E2
330
5DD
100
AcDbEntity
  8
KOTY
 62
     0
100
AcDbTrace
 10
26.5
 20
-9.333333333333334
 30
0.0
 11
26.5
 21
-10.66666666666667
 31
0.0
 12
22.5
 22
-10.0
 32
0.0
 13
22.5
 23
-10.0
 33
0.0
  0
MTEXT
  5
5E3
330
5DD
100
AcDbEntity
  8
KOTY
 62
     0
100
AcDbMText
 10
44.5
 20
-7.0
 30
0.0
 40
4.0
 41
0.0
 71
     5
 72
     1
  1
\A1;44
  0
POINT
  5
5E4
330
5DD
100
AcDbEntity
  8
DEFPOINTS
 62
     0
100
AcDbPoint
 10
66.5
 20
30.5
 30
0.0
  0
POINT
  5
5E5
330
5DD
100
AcDbEntity
  8
DEFPOINTS
 62
     0
100
AcDbPoint
 10
22.5
 20
11.7
 30
0.0
  0
POINT
  5
5E6
330
5DD
100
AcDbEntity
  8
DEFPOINTS
 62
     0
100
AcDbPoint
 10
22.5
 20
-10.0
 30
0.0
  0
ENDBLK
  5
5E9
330
5DD
100
AcDbEntity
  8
0
100
AcDbBlockEnd
  0
BLOCK
  5
5F8
330
5ED
100
AcDbEntity
  8
0
100
AcDbBlockBegin
  2
*D8
 70
     1
 10
0.0
 20
0.0
 30
0.0
  3
*D8
  1
*D35
  0
LINE
  5
5EE
330
5ED
100
AcDbEntity
  8
KOTY
 62
     0
100
AcDbLine
 10
0.0
 20
26.5375
 30
0.0
 11
0.0
 21
-20.15544537134176
 31
0.0
  0
LINE
  5
5EF
330
5ED
100
AcDbEntity
  8
KOTY
 62
     0
100
AcDbLine
 10
66.5
 20
30.375
 30
0.0
 11
66.5
 21
-20.15544537134176
 31
0.0
  0
LINE
  5
5F0
330
5ED
100
AcDbEntity
  8
KOTY
 62
     0
100
AcDbLine
 10
4.0
 20
-19.97544537134176
 30
0.0
 11
62.5
 21
-19.97544537134176
 31
0.0
  0
SOLID
  5
5F1
330
5ED
100
AcDbEntity
  8
KOTY
 62
     0
100
AcDbTrace
 10
4.0
 20
-19.3087787046751
 30
0.0
 11
4.0
 21
-20.64211203800843
 31
0.0
 12
0.0
 22
-19.97544537134176
 32
0.0
 13
0.0
 23
-19.97544537134176
 33
0.0
  0
SOLID
  5
5F2
330
5ED
100
AcDbEntity
  8
KOTY
 62
     0
100
AcDbTrace
 10
62.5
 20
-20.64211203800843
 30
0.0
 11
62.5
 21
-19.3087787046751
 31
0.0
 12
66.5
 22
-19.97544537134176
 32
0.0
 13
66.5
 23
-19.97544537134176
 33
0.0
  0
MTEXT
  5
5F3
330
5ED
100
AcDbEntity
  8
KOTY
 62
     0
100
AcDbMText
 10
33.25
 20
-16.57344537134176
 30
0.0
 40
4.0
 41
0.0
 71
     5
 72
     1
  1
\A1;66,5
  0
POINT
  5
5F4
330
5ED
100
AcDbEntity
  8
DEFPOINTS
 62
     0
100
AcDbPoint
 10
0.0
 20
26.6
 30
0.0
  0
POINT
  5
5F5
330
5ED
100
AcDbEntity
  8
DEFPOINTS
 62
     0
100
AcDbPoint
 10
66.5
 20
30.4375
 30
0.0
  0
POINT
  5
5F6
330
5ED
100
AcDbEntity
  8
DEFPOINTS
 62
     0
100
AcDbPoint
 10
66.5
 20
-19.97544537134176
 30
0.0
  0
ENDBLK
  5
5F9
330
5ED
100
AcDbEntity
  8
0
100
AcDbBlockEnd
  0
BLOCK
  5
608
330
607
100
AcDbEntity
  8
0
100
AcDbBlockBegin
  2
_CLOSEDBLANK
 70
     0
 10
0.0
 20
0.0
 30
0.0
  3
_CLOSEDBLANK
  1
_CLOSEDBLANK
  0
LINE
  5
60A
330
607
100
AcDbEntity
  8
0
  6
BYBLOCK
 62
     0
100
AcDbLine
 10
-1.0
 20
0.166667
 30
0.0
 11
0.0
 21
0.0
 31
0.0
  0
LINE
  5
60B
330
607
100
AcDbEntity
  8
0
  6
BYBLOCK
 62
     0
100
AcDbLine
 10
0.0
 20
0.0
 30
0.0
 11
-1.0
 21
-0.166667
 31
0.0
  0
LINE
  5
60C
330
607
100
AcDbEntity
  8
0
  6
BYBLOCK
 62
     0
100
AcDbLine
 10
-1.0
 20
0.166667
 30
0.0
 11
-1.0
 21
-0.166667
 31
0.0
  0
ENDBLK
  5
609
330
607
100
AcDbEntity
  8
0
100
AcDbBlockEnd
  0
BLOCK
  5
60E
330
60D
100
AcDbEntity
  8
0
100
AcDbBlockBegin
  2
_CLOSED
 70
     0
 10
0.0
 20
0.0
 30
0.0
  3
_CLOSED
  1
_CLOSED
  0
LINE
  5
610
330
60D
100
AcDbEntity
  8
0
  6
BYBLOCK
 62
     0
100
AcDbLine
 10
-1.0
 20
0.166667
 30
0.0
 11
0.0
 21
0.0
 31
0.0
  0
LINE
  5
611
330
60D
100
AcDbEntity
  8
0
  6
BYBLOCK
 62
     0
100
AcDbLine
 10
0.0
 20
0.0
 30
0.0
 11
-1.0
 21
-0.166667
 31
0.0
  0
LINE
  5
612
330
60D
100
AcDbEntity
  8
0
  6
BYBLOCK
 62
     0
100
AcDbLine
 10
-1.0
 20
0.166667
 30
0.0
 11
-1.0
 21
-0.166667
 31
0.0
  0
LINE
  5
613
330
60D
100
AcDbEntity
  8
0
  6
BYBLOCK
 62
     0
100
AcDbLine
 10
0.0
 20
0.0
 30
0.0
 11
-1.0
 21
0.0
 31
0.0
  0
ENDBLK
  5
60F
330
60D
100
AcDbEntity
  8
0
100
AcDbBlockEnd
  0
BLOCK
  5
615
330
614
100
AcDbEntity
  8
0
100
AcDbBlockBegin
  2
_DOT
 70
     0
 10
0.0
 20
0.0
 30
0.0
  3
_DOT
  1
_DOT
  0
LWPOLYLINE
  5
617
330
614
100
AcDbEntity
  8
0
  6
BYBLOCK
 62
     0
100
AcDbPolyline
 90
        2
 70
     1
 43
0.5
 10
-0.25
 20
0.0
 42
1.0
 10
0.25
 20
0.0
 42
1.0
  0
LINE
  5
618
330
614
100
AcDbEntity
  8
0
  6
BYBLOCK
 62
     0
100
AcDbLine
 10
-0.5
 20
0.0
 30
0.0
 11
-1.0
 21
0.0
 31
0.0
  0
ENDBLK
  5
616
330
614
100
AcDbEntity
  8
0
100
AcDbBlockEnd
  0
BLOCK
  5
61A
330
619
100
AcDbEntity
  8
0
100
AcDbBlockBegin
  2
_ARCHTICK
 70
     0
 10
0.0
 20
0.0
 30
0.0
  3
_ARCHTICK
  1
_ARCHTICK
  0
LWPOLYLINE
  5
61C
330
619
100
AcDbEntity
  8
0
  6
BYBLOCK
 62
     0
100
AcDbPolyline
 90
        2
 70
     0
 43
0.15
 10
-0.5
 20
-0.5
 10
0.5
 20
0.5
  0
ENDBLK
  5
61B
330
619
100
AcDbEntity
  8
0
100
AcDbBlockEnd
  0
BLOCK
  5
6FD
330
6F2
100
AcDbEntity
  8
0
100
AcDbBlockBegin
  2
*D13
 70
     1
 10
0.0
 20
0.0
 30
0.0
  3
*D13
  1
*D43
  0
LINE
  5
6F3
330
6F2
100
AcDbEntity
  8
KOTY
 62
     0
100
AcDbLine
 10
120.0
 20
8.0375
 30
0.0
 11
120.0
 21
-10.18
 31
0.0
  0
LINE
  5
6F4
330
6F2
100
AcDbEntity
  8
KOTY
 62
     0
100
AcDbLine
 10
156.0
 20
8.037499999999994
 30
0.0
 11
156.0
 21
-10.18
 31
0.0
  0
LINE
  5
6F5
330
6F2
100
AcDbEntity
  8
KOTY
 62
     0
100
AcDbLine
 10
124.0
 20
-10.0
 30
0.0
 11
152.0
 21
-10.0
 31
0.0
  0
SOLID
  5
6F6
330
6F2
100
AcDbEntity
  8
KOTY
 62
     0
100
AcDbTrace
 10
124.0
 20
-9.333333333333334
 30
0.0
 11
124.0
 21
-10.66666666666667
 31
0.0
 12
120.0
 22
-10.0
 32
0.0
 13
120.0
 23
-10.0
 33
0.0
  0
SOLID
  5
6F7
330
6F2
100
AcDbEntity
  8
KOTY
 62
     0
100
AcDbTrace
 10
152.0
 20
-10.66666666666667
 30
0.0
 11
152.0
 21
-9.333333333333334
 31
0.0
 12
156.0
 22
-10.0
 32
0.0
 13
156.0
 23
-10.0
 33
0.0
  0
MTEXT
  5
6F8
330
6F2
100
AcDbEntity
  8
KOTY
 62
     0
100
AcDbMText
 10
138.0
 20
-6.958
 30
0.0
 40
4.0
 41
0.0
 71
     5
 72
     1
  1
\A1;36
  0
POINT
  5
6F9
330
6F2
100
AcDbEntity
  8
DEFPOINTS
 62
     0
100
AcDbPoint
 10
120.0
 20
8.1
 30
0.0
  0
POINT
  5
6FA
330
6F2
100
AcDbEntity
  8
DEFPOINTS
 62
     0
100
AcDbPoint
 10
156.0
 20
8.099999999999994
 30
0.0
  0
POINT
  5
6FB
330
6F2
100
AcDbEntity
  8
DEFPOINTS
 62
     0
100
AcDbPoint
 10
156.0
 20
-10.0
 30
0.0
  0
ENDBLK
  5
6FE
330
6F2
100
AcDbEntity
  8
0
100
AcDbBlockEnd
  0
BLOCK
  5
70D
330
702
100
AcDbEntity
  8
0
100
AcDbBlockBegin
  2
*D14
 70
     1
 10
0.0
 20
0.0
 30
0.0
  3
*D14
  1
*D44
  0
LINE
  5
703
330
702
100
AcDbEntity
  8
KOTY
 62
     0
100
AcDbLine
 10
147.0625
 20
81.35
 30
0.0
 11
166.18
 21
81.35
 31
0.0
  0
LINE
  5
704
330
702
100
AcDbEntity
  8
KOTY
 62
     0
100
AcDbLine
 10
147.0625
 20
16.85
 30
0.0
 11
166.18
 21
16.85
 31
0.0
  0
LINE
  5
705
330
702
100
AcDbEntity
  8
KOTY
 62
     0
100
AcDbLine
 10
166.0
 20
77.35
 30
0.0
 11
166.0
 21
20.85
 31
0.0
  0
SOLID
  5
706
330
702
100
AcDbEntity
  8
KOTY
 62
     0
100
AcDbTrace
 10
166.6666666666667
 20
77.35
 30
0.0
 11
165.3333333333333
 21
77.35
 31
0.0
 12
166.0
 22
81.35
 32
0.0
 13
166.0
 23
81.35
 33
0.0
  0
SOLID
  5
707
330
702
100
AcDbEntity
  8
KOTY
 62
     0
100
AcDbTrace
 10
165.3333333333333
 20
20.85
 30
0.0
 11
166.6666666666667
 21
20.85
 31
0.0
 12
166.0
 22
16.85
 32
0.0
 13
166.0
 23
16.85
 33
0.0
  0
MTEXT
  5
708
330
702
100
AcDbEntity
  8
KOTY
 62
     0
100
AcDbMText
 10
162.598
 20
49.09999999999999
 30
0.0
 40
4.0
 41
0.0
 71
     5
 72
     1
  1
\A1;64,5
 11
0.0
 21
1.0
 31
0.0
  0
POINT
  5
709
330
702
100
AcDbEntity
  8
DEFPOINTS
 62
     0
100
AcDbPoint
 10
147.0
 20
81.35
 30
0.0
  0
POINT
  5
70A
330
702
100
AcDbEntity
  8
DEFPOINTS
 62
     0
100
AcDbPoint
 10
147.0
 20
16.85
 30
0.0
  0
POINT
  5
70B
330
702
100
AcDbEntity
  8
DEFPOINTS
 62
     0
100
AcDbPoint
 10
166.0
 20
16.85
 30
0.0
  0
ENDBLK
  5
70E
330
702
100
AcDbEntity
  8
0
100
AcDbBlockEnd
  0
BLOCK
  5
740
330
735
100
AcDbEntity
  8
0
100
AcDbBlockBegin
  2
*D15
 70
     1
 10
0.0
 20
0.0
 30
0.0
  3
*D15
  1
*D46
  0
LINE
  5
736
330
735
100
AcDbEntity
  8
KOTY
 62
     0
100
AcDbLine
 10
36.00002989583506
 20
90.1625
 30
0.0
 11
36.00002989583506
 21
100.28
 31
0.0
  0
LINE
  5
737
330
735
100
AcDbEntity
  8
KOTY
 62
     0
100
AcDbLine
 10
66.5
 20
66.6625
 30
0.0
 11
66.5
 21
100.28
 31
0.0
  0
LINE
  5
738
330
735
100
AcDbEntity
  8
KOTY
 62
     0
100
AcDbLine
 10
40.00002989583506
 20
100.1
 30
0.0
 11
62.5
 21
100.1
 31
0.0
  0
SOLID
  5
739
330
735
100
AcDbEntity
  8
KOTY
 62
     0
100
AcDbTrace
 10
40.00002989583506
 20
100.7666666666667
 30
0.0
 11
40.00002989583506
 21
99.43333333333332
 31
0.0
 12
36.00002989583506
 22
100.1
 32
0.0
 13
36.00002989583506
 23
100.1
 33
0.0
  0
SOLID
  5
73A
330
735
100
AcDbEntity
  8
KOTY
 62
     0
100
AcDbTrace
 10
62.5
 20
99.43333333333332
 30
0.0
 11
62.5
 21
100.7666666666667
 31
0.0
 12
66.5
 22
100.1
 32
0.0
 13
66.5
 23
100.1
 33
0.0
  0
MTEXT
  5
73B
330
735
100
AcDbEntity
  8
KOTY
 62
     0
100
AcDbMText
 10
51.25001494791753
 20
103.502
 30
0.0
 40
4.0
 41
0.0
 71
     5
 72
     1
  1
\A1;30,5
  0
POINT
  5
73C
330
735
100
AcDbEntity
  8
DEFPOINTS
 62
     0
100
AcDbPoint
 10
36.00002989583506
 20
90.1
 30
0.0
  0
POINT
  5
73D
330
735
100
AcDbEntity
  8
DEFPOINTS
 62
     0
100
AcDbPoint
 10
66.5
 20
66.6
 30
0.0
  0
POINT
  5
73E
330
735
100
AcDbEntity
  8
DEFPOINTS
 62
     0
100
AcDbPoint
 10
66.5
 20
100.1
 30
0.0
  0
ENDBLK
  5
741
330
735
100
AcDbEntity
  8
0
100
AcDbBlockEnd
  0
ENDSEC
  0
SECTION
  2
ENTITIES
  0
LINE
  5
E3
330
1F
100
AcDbEntity
  8
OBRYS
 62
     5
100
AcDbLine
 10
72.5
 20
8.1
 30
0.0
 11
72.5
 21
0.0
 31
0.0
  0
LINE
  5
E4
330
1F
100
AcDbEntity
  8
OBRYS
 62
     5
100
AcDbLine
 10
72.5
 20
0.0
 30
0.0
 11
67.9
 21
0.0
 31
0.0
  0
LINE
  5
E5
330
1F
100
AcDbEntity
  8
OBRYS
 62
     5
100
AcDbLine
 10
67.9
 20
0.0
 30
0.0
 11
67.9
 21
8.1
 31
0.0
  0
LINE
  5
E6
330
1F
100
AcDbEntity
  8
OBRYS
 62
     5
100
AcDbLine
 10
67.9
 20
4.5
 30
0.0
 11
66.6
 21
4.5
 31
0.0
  0
LINE
  5
E7
330
1F
100
AcDbEntity
  8
OBRYS
 62
     5
100
AcDbLine
 10
66.6
 20
4.5
 30
0.0
 11
66.6
 21
8.1
 31
0.0
  0
LINE
  5
E8
330
1F
100
AcDbEntity
  8
OBRYS
 62
     5
100
AcDbLine
 10
72.5
 20
8.1
 30
0.0
 11
28.7
 21
8.1
 31
0.0
  0
LINE
  5
EB
330
1F
100
AcDbEntity
  8
OBRYS
 62
     5
100
AcDbLine
 10
65.3
 20
8.1
 30
0.0
 11
65.3
 21
30.5
 31
0.0
  0
LINE
  5
EC
330
1F
100
AcDbEntity
  8
OBRYS
 62
     5
100
AcDbLine
 10
65.3
 20
30.5
 30
0.0
 11
72.5
 21
30.5
 31
0.0
  0
LINE
  5
ED
330
1F
100
AcDbEntity
  8
OBRYS
 62
     5
100
AcDbLine
 10
72.5
 20
30.5
 30
0.0
 11
72.5
 21
8.1
 31
0.0
  0
LINE
  5
EE
330
1F
100
AcDbEntity
  8
OBRYS
 62
     5
100
AcDbLine
 10
61.65
 20
6.2
 30
0.0
 11
49.34999999999999
 21
6.2
 31
0.0
  0
LINE
  5
F0
330
1F
100
AcDbEntity
  8
OBRYS
 62
     5
100
AcDbLine
 10
61.65
 20
6.2
 30
0.0
 11
62.8
 21
8.1
 31
0.0
  0
LINE
  5
F1
330
1F
100
AcDbEntity
  8
OBRYS
 62
     5
100
AcDbLine
 10
49.34999999999999
 20
6.2
 30
0.0
 11
48.2
 21
8.1
 31
0.0
  0
LINE
  5
F2
330
1F
100
AcDbEntity
  8
OBRYS
 62
     5
100
AcDbLine
 10
22.5
 20
11.7
 30
0.0
 11
22.5
 21
26.1
 31
0.0
  0
LINE
  5
F3
330
1F
100
AcDbEntity
  8
OBRYS
 62
     5
100
AcDbLine
 10
22.5
 20
11.7
 30
0.0
 11
23.35474539744931
 21
11.20330606154289
 31
0.0
  0
LINE
  5
F6
330
1F
100
AcDbEntity
  8
OBRYS
 62
     5
100
AcDbLine
 10
66.5
 20
30.5
 30
0.0
 11
66.5
 21
66.6
 31
0.0
  0
LINE
  5
F7
330
1F
100
AcDbEntity
  8
OBRYS
 62
     5
100
AcDbLine
 10
66.5
 20
66.6
 30
0.0
 11
72.5
 21
66.6
 31
0.0
  0
LINE
  5
F8
330
1F
100
AcDbEntity
  8
OBRYS
 62
     5
100
AcDbLine
 10
72.5
 20
66.6
 30
0.0
 11
72.5
 21
83.3
 31
0.0
  0
LINE
  5
F9
330
1F
100
AcDbEntity
  8
OBRYS
 62
     5
100
AcDbLine
 10
72.5
 20
66.6
 30
0.0
 11
72.5
 21
64.7
 31
0.0
  0
LINE
  5
FA
330
1F
100
AcDbEntity
  8
OBRYS
 62
     5
100
AcDbLine
 10
72.5
 20
64.7
 30
0.0
 11
69.5
 21
64.7
 31
0.0
  0
LINE
  5
FB
330
1F
100
AcDbEntity
  8
OBRYS
 62
     5
100
AcDbLine
 10
69.5
 20
64.7
 30
0.0
 11
68.1
 21
66.6
 31
0.0
  0
LINE
  5
FD
330
1F
100
AcDbEntity
  8
OBRYS
 62
     5
100
AcDbLine
 10
25.0
 20
26.4
 30
0.0
 11
48.5
 21
26.4
 31
0.0
  0
LINE
  5
FE
330
1F
100
AcDbEntity
  8
OBRYS
 62
     5
100
AcDbLine
 10
48.5
 20
26.4
 30
0.0
 11
48.5
 21
71.8
 31
0.0
  0
LINE
  5
FF
330
1F
100
AcDbEntity
  8
OBRYS
 62
     5
100
AcDbLine
 10
48.5
 20
71.8
 30
0.0
 11
25.0
 21
71.8
 31
0.0
  0
LINE
  5
100
330
1F
100
AcDbEntity
  8
OBRYS
 62
     5
100
AcDbLine
 10
22.5
 20
72.1
 30
0.0
 11
22.5
 21
86.5
 31
0.0
  0
LINE
  5
112
330
1F
100
AcDbEntity
  8
OBRYS
 62
     5
100
AcDbLine
 10
28.7
 20
90.1
 30
0.0
 11
70.8
 21
90.1
 31
0.0
  0
LINE
  5
115
330
1F
100
AcDbEntity
  8
OBRYS
 62
     5
100
AcDbLine
 10
48.5
 20
26.6
 30
0.0
 11
9.1
 21
26.6
 31
0.0
  0
LINE
  5
116
330
1F
100
AcDbEntity
  8
OBRYS
 62
     5
100
AcDbLine
 10
48.5
 20
71.6
 30
0.0
 11
9.1
 21
71.6
 31
0.0
  0
LINE
  5
117
330
1F
100
AcDbEntity
  8
OBRYS
 62
     5
100
AcDbLine
 10
0.0
 20
26.6
 30
0.0
 11
0.0
 21
71.6
 31
0.0
  0
LINE
  5
128
330
1F
100
AcDbEntity
  8
OBRYS
 62
     5
100
AcDbLine
 10
0.0
 20
26.6
 30
0.0
 11
2.0
 21
26.6
 31
0.0
  0
LINE
  5
129
330
1F
100
AcDbEntity
  8
OBRYS
 62
     5
100
AcDbLine
 10
0.0
 20
71.6
 30
0.0
 11
2.0
 21
71.6
 31
0.0
  0
LINE
  5
14A
330
1F
100
AcDbEntity
  8
OBRYS
 62
     5
100
AcDbLine
 10
2.5
 20
27.1
 30
0.0
 11
8.6
 21
27.1
 31
0.0
  0
LINE
  5
15B
330
1F
100
AcDbEntity
  8
OBRYS
 62
     5
100
AcDbLine
 10
2.0
 20
26.6
 30
0.0
 11
2.5
 21
27.1
 31
0.0
  0
LINE
  5
15C
330
1F
100
AcDbEntity
  8
OBRYS
 62
     5
100
AcDbLine
 10
8.6
 20
27.1
 30
0.0
 11
9.1
 21
26.6
 31
0.0
  0
LINE
  5
15F
330
1F
100
AcDbEntity
  8
OBRYS
 62
     5
100
AcDbLine
 10
2.5
 20
71.1
 30
0.0
 11
8.6
 21
71.1
 31
0.0
  0
LINE
  5
160
330
1F
100
AcDbEntity
  8
OBRYS
 62
     5
100
AcDbLine
 10
2.0
 20
71.6
 30
0.0
 11
2.5
 21
71.1
 31
0.0
  0
LINE
  5
161
330
1F
100
AcDbEntity
  8
OBRYS
 62
     5
100
AcDbLine
 10
8.6
 20
71.1
 30
0.0
 11
9.1
 21
71.6
 31
0.0
  0
ARC
  5
175
330
1F
100
AcDbEntity
  8
OBRYS
 62
     5
100
AcDbCircle
 10
5.45
 20
27.1
 30
0.0
 40
0.25
100
AcDbArc
 50
180.0
 51
0.3652309648402171
  0
ARC
  5
17A
330
1F
100
AcDbEntity
  8
OBRYS
 62
     5
100
AcDbCircle
 10
3.55
 20
27.1
 30
0.0
 40
0.25
100
AcDbArc
 50
180.0
 51
0.1423211833411854
  0
ARC
  5
17B
330
1F
100
AcDbEntity
  8
OBRYS
 62
     5
100
AcDbCircle
 10
7.35
 20
27.1
 30
0.0
 40
0.25
100
AcDbArc
 50
180.0
 51
358.9752080979408
  0
ARC
  5
17F
330
1F
100
AcDbEntity
  8
OBRYS
 62
     5
100
AcDbCircle
 10
3.55
 20
71.1
 30
0.0
 40
0.25
100
AcDbArc
 50
0.0
 51
179.6960893550858
  0
ARC
  5
180
330
1F
100
AcDbEntity
  8
OBRYS
 62
     5
100
AcDbCircle
 10
5.45
 20
71.1
 30
0.0
 40
0.25
100
AcDbArc
 50
0.0
 51
179.6818731305043
  0
ARC
  5
182
330
1F
100
AcDbEntity
  8
OBRYS
 62
     5
100
AcDbCircle
 10
7.35
 20
71.1
 30
0.0
 40
0.25
100
AcDbArc
 50
0.0
 51
180.4641496716499
  0
LINE
  5
184
330
1F
100
AcDbEntity
  8
OBRYS
 62
     5
100
AcDbLine
 10
49.34999999999999
 20
92.0
 30
0.0
 11
61.65
 21
92.0
 31
0.0
  0
LINE
  5
185
330
1F
100
AcDbEntity
  8
OBRYS
 62
     5
100
AcDbLine
 10
70.8
 20
90.1
 30
0.0
 11
72.5
 21
83.3
 31
0.0
  0
LINE
  5
186
330
1F
100
AcDbEntity
  8
OBRYS
 62
     5
100
AcDbLine
 10
49.34999999999999
 20
92.0
 30
0.0
 11
48.2
 21
90.1
 31
0.0
  0
LINE
  5
187
330
1F
100
AcDbEntity
  8
OBRYS
 62
     5
100
AcDbLine
 10
61.65
 20
92.0
 30
0.0
 11
62.8
 21
90.1
 31
0.0
  0
LINE
  5
198
330
1F
100
AcDbEntity
  8
OBRYS
 62
     5
100
AcDbLine
 10
22.5
 20
86.5
 30
0.0
 11
28.7
 21
90.1
 31
0.0
  0
LINE
  5
1A0
330
1F
100
AcDbEntity
  8
OBRYS
 62
     5
100
AcDbLine
 10
22.5
 20
26.1
 30
0.0
 11
25.0
 21
26.4
 31
0.0
  0
LINE
  5
1A1
330
1F
100
AcDbEntity
  8
OBRYS
 62
     5
100
AcDbLine
 10
22.5
 20
72.1
 30
0.0
 11
25.0
 21
71.8
 31
0.0
  0
LINE
  5
1C5
330
1F
100
AcDbEntity
  8
OBRYS
 62
     5
100
AcDbLine
 10
62.9
 20
15.6
 30
0.0
 11
62.9
 21
18.7
 31
0.0
  0
LINE
  5
1C6
330
1F
100
AcDbEntity
  8
OBRYS
 62
     5
100
AcDbLine
 10
62.9
 20
18.7
 30
0.0
 11
59.8
 21
18.7
 31
0.0
  0
LINE
  5
1C7
330
1F
100
AcDbEntity
  8
OBRYS
 62
     5
100
AcDbLine
 10
59.8
 20
18.7
 30
0.0
 11
59.8
 21
15.6
 31
0.0
  0
LINE
  5
1C8
330
1F
100
AcDbEntity
  8
OBRYS
 62
     5
100
AcDbLine
 10
59.8
 20
15.6
 30
0.0
 11
62.9
 21
15.6
 31
0.0
  0
LINE
  5
1CD
330
1F
100
AcDbEntity
  8
OBRYS
 62
     5
100
AcDbLine
 10
62.2
 20
15.6
 30
0.0
 11
62.2
 21
18.7
 31
0.0
  0
LINE
  5
1CE
330
1F
100
AcDbEntity
  8
OBRYS
 62
     5
100
AcDbLine
 10
60.2
 20
15.6
 30
0.0
 11
60.2
 21
18.7
 31
0.0
  0
LINE
  5
1CF
330
1F
100
AcDbEntity
  8
OBRYS
 62
     5
100
AcDbLine
 10
62.9
 20
47.5
 30
0.0
 11
62.9
 21
50.59999999999999
 31
0.0
  0
LINE
  5
1D0
330
1F
100
AcDbEntity
  8
OBRYS
 62
     5
100
AcDbLine
 10
62.9
 20
50.59999999999999
 30
0.0
 11
59.8
 21
50.59999999999999
 31
0.0
  0
LINE
  5
1D1
330
1F
100
AcDbEntity
  8
OBRYS
 62
     5
100
AcDbLine
 10
59.8
 20
50.59999999999999
 30
0.0
 11
59.8
 21
47.5
 31
0.0
  0
LINE
  5
1D2
330
1F
100
AcDbEntity
  8
OBRYS
 62
     5
100
AcDbLine
 10
59.8
 20
47.5
 30
0.0
 11
62.9
 21
47.5
 31
0.0
  0
LINE
  5
1D3
330
1F
100
AcDbEntity
  8
OBRYS
 62
     5
100
AcDbLine
 10
62.2
 20
47.5
 30
0.0
 11
62.2
 21
50.59999999999999
 31
0.0
  0
LINE
  5
1D4
330
1F
100
AcDbEntity
  8
OBRYS
 62
     5
100
AcDbLine
 10
60.2
 20
47.5
 30
0.0
 11
60.2
 21
50.59999999999999
 31
0.0
  0
LINE
  5
1D5
330
1F
100
AcDbEntity
  8
OBRYS
 62
     5
100
AcDbLine
 10
68.8
 20
69.8
 30
0.0
 11
68.8
 21
72.89999999999999
 31
0.0
  0
LINE
  5
1D6
330
1F
100
AcDbEntity
  8
OBRYS
 62
     5
100
AcDbLine
 10
68.8
 20
72.89999999999999
 30
0.0
 11
65.7
 21
72.89999999999999
 31
0.0
  0
LINE
  5
1D7
330
1F
100
AcDbEntity
  8
OBRYS
 62
     5
100
AcDbLine
 10
65.7
 20
72.89999999999999
 30
0.0
 11
65.7
 21
69.8
 31
0.0
  0
LINE
  5
1D8
330
1F
100
AcDbEntity
  8
OBRYS
 62
     5
100
AcDbLine
 10
65.7
 20
69.8
 30
0.0
 11
68.8
 21
69.8
 31
0.0
  0
LINE
  5
1D9
330
1F
100
AcDbEntity
  8
OBRYS
 62
     5
100
AcDbLine
 10
68.10000000000001
 20
69.8
 30
0.0
 11
68.10000000000001
 21
72.89999999999999
 31
0.0
  0
LINE
  5
1DA
330
1F
100
AcDbEntity
  8
OBRYS
 62
     5
100
AcDbLine
 10
66.10000000000001
 20
69.8
 30
0.0
 11
66.10000000000001
 21
72.89999999999999
 31
0.0
  0
LINE
  5
1DB
330
1F
100
AcDbEntity
  8
OBRYS
 62
     5
100
AcDbLine
 10
68.8
 20
84.1
 30
0.0
 11
68.8
 21
87.19999999999999
 31
0.0
  0
LINE
  5
1DC
330
1F
100
AcDbEntity
  8
OBRYS
 62
     5
100
AcDbLine
 10
68.8
 20
87.19999999999999
 30
0.0
 11
65.7
 21
87.19999999999999
 31
0.0
  0
LINE
  5
1DD
330
1F
100
AcDbEntity
  8
OBRYS
 62
     5
100
AcDbLine
 10
65.7
 20
87.19999999999999
 30
0.0
 11
65.7
 21
84.1
 31
0.0
  0
LINE
  5
1DE
330
1F
100
AcDbEntity
  8
OBRYS
 62
     5
100
AcDbLine
 10
65.7
 20
84.1
 30
0.0
 11
68.8
 21
84.1
 31
0.0
  0
LINE
  5
1DF
330
1F
100
AcDbEntity
  8
OBRYS
 62
     5
100
AcDbLine
 10
68.10000000000001
 20
84.1
 30
0.0
 11
68.10000000000001
 21
87.19999999999999
 31
0.0
  0
LINE
  5
1E0
330
1F
100
AcDbEntity
  8
OBRYS
 62
     5
100
AcDbLine
 10
66.10000000000001
 20
84.1
 30
0.0
 11
66.10000000000001
 21
87.19999999999999
 31
0.0
  0
LINE
  5
2B6
330
1F
100
AcDbEntity
  8
OBRYS
 62
     5
100
AcDbLine
 10
27.83479919941555
 20
8.602374658403873
 30
0.0
 11
28.7
 21
8.1
 31
0.0
  0
LINE
  5
2BB
330
1F
100
AcDbEntity
  8
OBRYS
 62
     5
100
AcDbLine
 10
27.83479919941555
 20
8.602374658403873
 30
0.0
 11
23.35474539744931
 21
11.20330606154289
 31
0.0
  0
LINE
  5
3EF
330
1F
100
AcDbEntity
  8
OBRYS
 62
     5
100
AcDbLine
 10
134.3969719792858
 20
0.0000000000000033
 30
0.0
 11
141.3892480580031
 21
0.0000000000000007
 31
0.0
  0
LINE
  5
3F0
330
1F
100
AcDbEntity
  8
OBRYS
 62
     5
100
AcDbLine
 10
120.0
 20
8.1
 30
0.0
 11
138.0
 21
8.1
 31
0.0
  0
LINE
  5
3F1
330
1F
100
AcDbEntity
  8
OBRYS
 62
     5
100
AcDbLine
 10
123.15
 20
6.2
 30
0.0
 11
134.85
 21
6.2
 31
0.0
  0
LINE
  5
3F2
330
1F
100
AcDbEntity
  8
OBRYS
 62
     5
100
AcDbLine
 10
123.15
 20
6.2
 30
0.0
 11
121.95
 21
8.1
 31
0.0
  0
LINE
  5
3F3
330
1F
100
AcDbEntity
  8
OBRYS
 62
     5
100
AcDbLine
 10
134.85
 20
6.2
 30
0.0
 11
136.05
 21
8.1
 31
0.0
  0
LINE
  5
3F4
330
1F
100
AcDbEntity
  8
OBRYS
 62
     5
100
AcDbLine
 10
134.6071067811866
 20
1.0
 30
0.0
 11
141.1928932188135
 21
1.0
 31
0.0
  0
LINE
  5
3F5
330
1F
100
AcDbEntity
  8
OBRYS
 62
     5
100
AcDbLine
 10
133.9
 20
1.707106781186548
 30
0.0
 11
133.9
 21
6.2
 31
0.0
  0
LINE
  5
3F6
330
1F
100
AcDbEntity
  8
OBRYS
 62
     5
100
AcDbLine
 10
141.9
 20
1.707106781186548
 30
0.0
 11
141.9
 21
6.2
 31
0.0
  0
ARC
  5
3F7
330
1F
100
AcDbEntity
  8
OBRYS
 62
     5
100
AcDbCircle
 10
134.6071067811866
 20
1.707106781186548
 30
0.0
 40
0.707106781186548
100
AcDbArc
 50
180.0
 51
270.0
  0
ARC
  5
3F8
330
1F
100
AcDbEntity
  8
OBRYS
 62
     5
100
AcDbCircle
 10
141.1928932188135
 20
1.707106781186548
 30
0.0
 40
0.707106781186548
100
AcDbArc
 50
270.0
 51
359.9999999999998
  0
LINE
  5
3F9
330
1F
100
AcDbEntity
  8
OBRYS
 62
     5
100
AcDbLine
 10
130.6
 20
6.2
 30
0.0
 11
130.6
 21
5.207106781186549
 31
0.0
  0
LINE
  5
3FA
330
1F
100
AcDbEntity
  8
OBRYS
 62
     5
100
AcDbLine
 10
133.9
 20
4.5
 30
0.0
 11
131.3071067811865
 21
4.500000000000001
 31
0.0
  0
ARC
  5
3FB
330
1F
100
AcDbEntity
  8
OBRYS
 62
     5
100
AcDbCircle
 10
131.3071067811865
 20
5.207106781186549
 30
0.0
 40
0.707106781186548
100
AcDbArc
 50
180.0
 51
270.0
  0
LINE
  5
3FC
330
1F
100
AcDbEntity
  8
OBRYS
 62
     5
100
AcDbLine
 10
145.2
 20
6.2
 30
0.0
 11
145.2
 21
5.207106781186541
 31
0.0
  0
LINE
  5
3FD
330
1F
100
AcDbEntity
  8
OBRYS
 62
     5
100
AcDbLine
 10
141.9170014197672
 20
4.5
 30
0.0
 11
144.4928932188135
 21
4.5
 31
0.0
  0
ARC
  5
3FE
330
1F
100
AcDbEntity
  8
OBRYS
 62
     5
100
AcDbCircle
 10
144.4928932188135
 20
5.207106781186548
 30
0.0
 40
0.7071067811865475
100
AcDbArc
 50
270.0
 51
359.9999999999993
  0
LINE
  5
3FF
330
1F
100
AcDbEntity
  8
OBRYS
 62
     5
100
AcDbLine
 10
132.9
 20
4.5
 30
0.0
 11
132.8999990265624
 21
1.503194007024523
 31
0.0
  0
LINE
  5
400
330
1F
100
AcDbEntity
  8
OBRYS
 62
     5
100
AcDbLine
 10
142.9
 20
4.5
 30
0.0
 11
142.9
 21
1.49604698548332
 31
0.0
  0
ARC
  5
401
330
1F
100
AcDbEntity
  8
OBRYS
 62
     5
100
AcDbCircle
 10
141.3601391923747
 20
1.540219193746501
 30
0.0
 40
1.540494235900705
100
AcDbArc
 50
271.0827138285986
 51
358.356872755389
  0
ARC
  5
402
330
1F
100
AcDbEntity
  8
OBRYS
 62
     5
100
AcDbCircle
 10
134.4032078059073
 20
1.503195845114476
 30
0.0
 40
1.503208779346059
100
AcDbArc
 50
179.9347947880687
 51
269.7623167341435
  0
LINE
  5
403
330
1F
100
AcDbEntity
  8
OBRYS
 62
     5
100
AcDbLine
 10
120.0
 20
8.1
 30
0.0
 11
120.0
 21
90.1
 31
0.0
  0
LINE
  5
404
330
1F
100
AcDbEntity
  8
OBRYS
 62
     5
100
AcDbLine
 10
120.0
 20
90.1
 30
0.0
 11
138.0
 21
90.1
 31
0.0
  0
LINE
  5
406
330
1F
100
AcDbEntity
  8
OBRYS
 62
     5
100
AcDbLine
 10
123.15
 20
91.99999999999999
 30
0.0
 11
121.95
 21
90.1
 31
0.0
  0
LINE
  5
407
330
1F
100
AcDbEntity
  8
OBRYS
 62
     5
100
AcDbLine
 10
123.15
 20
91.99999999999999
 30
0.0
 11
134.85
 21
91.99999999999999
 31
0.0
  0
LINE
  5
408
330
1F
100
AcDbEntity
  8
OBRYS
 62
     5
100
AcDbLine
 10
134.85
 20
91.99999999999999
 30
0.0
 11
136.05
 21
90.1
 31
0.0
  0
LINE
  5
409
330
1F
100
AcDbEntity
  8
OBRYS
 62
     5
100
AcDbLine
 10
120.0
 20
26.1
 30
0.0
 11
138.0
 21
26.1
 31
0.0
  0
LINE
  5
40A
330
1F
100
AcDbEntity
  8
OBRYS
 62
     5
100
AcDbLine
 10
120.3
 20
26.6
 30
0.0
 11
137.7
 21
26.6
 31
0.0
  0
LINE
  5
40B
330
1F
100
AcDbEntity
  8
OBRYS
 62
     5
100
AcDbLine
 10
120.3
 20
71.6
 30
0.0
 11
137.7
 21
71.6
 31
0.0
  0
LINE
  5
40C
330
1F
100
AcDbEntity
  8
OBRYS
 62
     5
100
AcDbLine
 10
120.0
 20
72.1
 30
0.0
 11
138.0
 21
72.1
 31
0.0
  0
LINE
  5
40E
330
1F
100
AcDbEntity
  8
OBRYS
 62
     5
100
AcDbLine
 10
127.3
 20
26.1
 30
0.0
 11
127.3
 21
24.6
 31
0.0
  0
LINE
  5
40F
330
1F
100
AcDbEntity
  8
OBRYS
 62
     5
100
AcDbLine
 10
127.3
 20
24.6
 30
0.0
 11
129.0
 21
24.6
 31
0.0
  0
LINE
  5
410
330
1F
100
AcDbEntity
  8
OBRYS
 62
     5
100
AcDbLine
 10
129.0
 20
24.6
 30
0.0
 11
129.0
 21
26.1
 31
0.0
  0
LINE
  5
411
330
1F
100
AcDbEntity
  8
OBRYS
 62
     5
100
AcDbLine
 10
126.45
 20
26.1
 30
0.0
 11
126.45
 21
23.6
 31
0.0
  0
LINE
  5
412
330
1F
100
AcDbEntity
  8
OBRYS
 62
     5
100
AcDbLine
 10
126.45
 20
23.6
 30
0.0
 11
129.85
 21
23.6
 31
0.0
  0
LINE
  5
413
330
1F
100
AcDbEntity
  8
OBRYS
 62
     5
100
AcDbLine
 10
129.85
 20
23.6
 30
0.0
 11
129.85
 21
26.1
 31
0.0
  0
LINE
  5
414
330
1F
100
AcDbEntity
  8
OBRYS
 62
     5
100
AcDbLine
 10
126.45
 20
23.6
 30
0.0
 11
127.3
 21
24.6
 31
0.0
  0
LINE
  5
415
330
1F
100
AcDbEntity
  8
OBRYS
 62
     5
100
AcDbLine
 10
129.0
 20
24.6
 30
0.0
 11
129.85
 21
23.6
 31
0.0
  0
LINE
  5
416
330
1F
100
AcDbEntity
  8
OBRYS
 62
     5
100
AcDbLine
 10
127.3
 20
72.1
 30
0.0
 11
127.3
 21
73.6
 31
0.0
  0
LINE
  5
417
330
1F
100
AcDbEntity
  8
OBRYS
 62
     5
100
AcDbLine
 10
127.3
 20
73.6
 30
0.0
 11
129.0
 21
73.6
 31
0.0
  0
LINE
  5
418
330
1F
100
AcDbEntity
  8
OBRYS
 62
     5
100
AcDbLine
 10
129.0
 20
73.6
 30
0.0
 11
129.0
 21
72.1
 31
0.0
  0
LINE
  5
419
330
1F
100
AcDbEntity
  8
OBRYS
 62
     5
100
AcDbLine
 10
126.45
 20
72.1
 30
0.0
 11
126.45
 21
74.6
 31
0.0
  0
LINE
  5
41A
330
1F
100
AcDbEntity
  8
OBRYS
 62
     5
100
AcDbLine
 10
126.45
 20
74.6
 30
0.0
 11
129.85
 21
74.6
 31
0.0
  0
LINE
  5
41B
330
1F
100
AcDbEntity
  8
OBRYS
 62
     5
100
AcDbLine
 10
129.85
 20
74.6
 30
0.0
 11
129.85
 21
72.1
 31
0.0
  0
LINE
  5
41C
330
1F
100
AcDbEntity
  8
OBRYS
 62
     5
100
AcDbLine
 10
126.45
 20
74.6
 30
0.0
 11
127.3
 21
73.6
 31
0.0
  0
LINE
  5
41D
330
1F
100
AcDbEntity
  8
OBRYS
 62
     5
100
AcDbLine
 10
129.0
 20
73.6
 30
0.0
 11
129.85
 21
74.6
 31
0.0
  0
CIRCLE
  5
41E
330
1F
100
AcDbEntity
  8
OBRYS
 62
     5
100
AcDbCircle
 10
129.0
 20
16.85
 30
0.0
 40
3.2
  0
LINE
  5
41F
330
1F
100
AcDbEntity
  8
OBRYS
 62
     5
100
AcDbLine
 10
120.0
 20
11.7
 30
0.0
 11
138.0
 21
11.7
 31
0.0
  0
LINE
  5
420
330
1F
100
AcDbEntity
  8
OBRYS
 62
     5
100
AcDbLine
 10
120.0
 20
86.5
 30
0.0
 11
138.0
 21
86.5
 31
0.0
  0
LINE
  5
421
330
1F
100
AcDbEntity
  8
OBRYS
 62
     5
100
AcDbLine
 10
128.35
 20
18.20710678118655
 30
0.0
 11
128.35
 21
19.98328900677866
 31
0.0
  0
LINE
  5
422
330
1F
100
AcDbEntity
  8
OBRYS
 62
     5
100
AcDbLine
 10
128.35
 20
13.71671099322134
 30
0.0
 11
128.35
 21
15.49289321881345
 31
0.0
  0
LINE
  5
423
330
1F
100
AcDbEntity
  8
OBRYS
 62
     5
100
AcDbLine
 10
129.65
 20
18.20710678118655
 30
0.0
 11
129.65
 21
19.98328900677866
 31
0.0
  0
LINE
  5
424
330
1F
100
AcDbEntity
  8
OBRYS
 62
     5
100
AcDbLine
 10
129.65
 20
13.71671099322134
 30
0.0
 11
129.65
 21
15.49289321881345
 31
0.0
  0
ARC
  5
425
330
1F
100
AcDbEntity
  8
OBRYS
 62
     5
100
AcDbCircle
 10
127.6428932188135
 20
18.20710678118655
 30
0.0
 40
0.707106781186548
100
AcDbArc
 50
270.0
 51
0.0
  0
ARC
  5
426
330
1F
100
AcDbEntity
  8
OBRYS
 62
     5
100
AcDbCircle
 10
130.3571067811866
 20
18.20710678118655
 30
0.0
 40
0.707106781186548
100
AcDbArc
 50
180.0
 51
270.0
  0
ARC
  5
427
330
1F
100
AcDbEntity
  8
OBRYS
 62
     5
100
AcDbCircle
 10
130.3571067811866
 20
15.49289321881345
 30
0.0
 40
0.707106781186548
100
AcDbArc
 50
90.0
 51
180.0
  0
ARC
  5
428
330
1F
100
AcDbEntity
  8
OBRYS
 62
     5
100
AcDbCircle
 10
127.6428932188135
 20
15.49289321881345
 30
0.0
 40
0.707106781186548
100
AcDbArc
 50
0.0
 51
90.0
  0
LINE
  5
429
330
1F
100
AcDbEntity
  8
OBRYS
 62
     5
100
AcDbLine
 10
126.75
 20
16.2
 30
0.0
 11
126.75
 21
17.5
 31
0.0
  0
LINE
  5
42A
330
1F
100
AcDbEntity
  8
OBRYS
 62
     5
100
AcDbLine
 10
131.25
 20
16.2
 30
0.0
 11
131.25
 21
17.5
 31
0.0
  0
LINE
  5
42B
330
1F
100
AcDbEntity
  8
OBRYS
 62
     5
100
AcDbLine
 10
130.3571067811866
 20
16.2
 30
0.0
 11
131.2451978939826
 21
16.2
 31
0.0
  0
LINE
  5
42C
330
1F
100
AcDbEntity
  8
OBRYS
 62
     5
100
AcDbLine
 10
130.3571067811866
 20
17.5
 30
0.0
 11
131.2451978939826
 21
17.5
 31
0.0
  0
LINE
  5
42D
330
1F
100
AcDbEntity
  8
OBRYS
 62
     5
100
AcDbLine
 10
126.7548021060174
 20
17.5
 30
0.0
 11
127.6428932188135
 21
17.5
 31
0.0
  0
LINE
  5
42E
330
1F
100
AcDbEntity
  8
OBRYS
 62
     5
100
AcDbLine
 10
129.8571067811866
 20
17.70710678118655
 30
0.0
 11
130.3571067811866
 21
18.20710678118655
 31
0.0
  0
LINE
  5
42F
330
1F
100
AcDbEntity
  8
OBRYS
 62
     5
100
AcDbLine
 10
126.7548021060174
 20
16.2
 30
0.0
 11
127.6428932188135
 21
16.2
 31
0.0
  0
LINE
  5
430
330
1F
100
AcDbEntity
  8
OBRYS
 62
     5
100
AcDbLine
 10
129.8571067811866
 20
15.99289321881345
 30
0.0
 11
130.3571067811866
 21
15.49289321881345
 31
0.0
  0
LINE
  5
431
330
1F
100
AcDbEntity
  8
OBRYS
 62
     5
100
AcDbLine
 10
128.1428932188135
 20
17.70710678118655
 30
0.0
 11
127.6428932188135
 21
18.20710678118655
 31
0.0
  0
LINE
  5
432
330
1F
100
AcDbEntity
  8
OBRYS
 62
     5
100
AcDbLine
 10
128.1428932188135
 20
15.99289321881345
 30
0.0
 11
127.6428932188135
 21
15.49289321881345
 31
0.0
  0
CIRCLE
  5
433
330
1F
100
AcDbEntity
  8
OBRYS
 62
     5
100
AcDbCircle
 10
129.0
 20
16.85
 30
0.0
 40
0.7
  0
CIRCLE
  5
434
330
1F
100
AcDbEntity
  8
OBRYS
 62
     5
100
AcDbCircle
 10
129.0
 20
81.35
 30
0.0
 40
3.2
  0
LINE
  5
435
330
1F
100
AcDbEntity
  8
OBRYS
 62
     5
100
AcDbLine
 10
128.35
 20
78.21671099322133
 30
0.0
 11
128.35
 21
79.99289321881345
 31
0.0
  0
LINE
  5
436
330
1F
100
AcDbEntity
  8
OBRYS
 62
     5
100
AcDbLine
 10
128.35
 20
82.70710678118654
 30
0.0
 11
128.35
 21
84.48328900677866
 31
0.0
  0
LINE
  5
437
330
1F
100
AcDbEntity
  8
OBRYS
 62
     5
100
AcDbLine
 10
129.65
 20
78.21671099322133
 30
0.0
 11
129.65
 21
79.99289321881345
 31
0.0
  0
LINE
  5
438
330
1F
100
AcDbEntity
  8
OBRYS
 62
     5
100
AcDbLine
 10
129.65
 20
82.70710678118654
 30
0.0
 11
129.65
 21
84.48328900677865
 31
0.0
  0
ARC
  5
439
330
1F
100
AcDbEntity
  8
OBRYS
 62
     5
100
AcDbCircle
 10
127.6428932188135
 20
82.70710678118654
 30
0.0
 40
0.707106781186548
100
AcDbArc
 50
270.0
 51
0.0
  0
ARC
  5
43A
330
1F
100
AcDbEntity
  8
OBRYS
 62
     5
100
AcDbCircle
 10
130.3571067811866
 20
82.70710678118654
 30
0.0
 40
0.707106781186548
100
AcDbArc
 50
180.0
 51
270.0
  0
ARC
  5
43B
330
1F
100
AcDbEntity
  8
OBRYS
 62
     5
100
AcDbCircle
 10
130.3571067811866
 20
79.99289321881345
 30
0.0
 40
0.707106781186548
100
AcDbArc
 50
90.0
 51
180.0
  0
ARC
  5
43C
330
1F
100
AcDbEntity
  8
OBRYS
 62
     5
100
AcDbCircle
 10
127.6428932188135
 20
79.99289321881345
 30
0.0
 40
0.707106781186548
100
AcDbArc
 50
0.0
 51
90.0
  0
LINE
  5
43D
330
1F
100
AcDbEntity
  8
OBRYS
 62
     5
100
AcDbLine
 10
126.75
 20
80.69999999999999
 30
0.0
 11
126.75
 21
81.99999999999999
 31
0.0
  0
LINE
  5
43E
330
1F
100
AcDbEntity
  8
OBRYS
 62
     5
100
AcDbLine
 10
131.25
 20
80.69999999999999
 30
0.0
 11
131.25
 21
81.99999999999999
 31
0.0
  0
LINE
  5
43F
330
1F
100
AcDbEntity
  8
OBRYS
 62
     5
100
AcDbLine
 10
130.3571067811866
 20
80.69999999999999
 30
0.0
 11
131.2451978939826
 21
80.69999999999999
 31
0.0
  0
LINE
  5
440
330
1F
100
AcDbEntity
  8
OBRYS
 62
     5
100
AcDbLine
 10
130.3571067811866
 20
81.99999999999999
 30
0.0
 11
131.2451978939826
 21
81.99999999999999
 31
0.0
  0
LINE
  5
441
330
1F
100
AcDbEntity
  8
OBRYS
 62
     5
100
AcDbLine
 10
126.7548021060174
 20
81.99999999999999
 30
0.0
 11
127.6428932188135
 21
81.99999999999999
 31
0.0
  0
LINE
  5
442
330
1F
100
AcDbEntity
  8
OBRYS
 62
     5
100
AcDbLine
 10
129.8571067811866
 20
82.20710678118654
 30
0.0
 11
130.3571067811866
 21
82.70710678118654
 31
0.0
  0
LINE
  5
443
330
1F
100
AcDbEntity
  8
OBRYS
 62
     5
100
AcDbLine
 10
126.7548021060174
 20
80.69999999999999
 30
0.0
 11
127.6428932188135
 21
80.69999999999999
 31
0.0
  0
LINE
  5
444
330
1F
100
AcDbEntity
  8
OBRYS
 62
     5
100
AcDbLine
 10
129.8571067811866
 20
80.49289321881345
 30
0.0
 11
130.3571067811866
 21
79.99289321881345
 31
0.0
  0
LINE
  5
445
330
1F
100
AcDbEntity
  8
OBRYS
 62
     5
100
AcDbLine
 10
128.1428932188135
 20
82.20710678118654
 30
0.0
 11
127.6428932188135
 21
82.70710678118654
 31
0.0
  0
LINE
  5
446
330
1F
100
AcDbEntity
  8
OBRYS
 62
     5
100
AcDbLine
 10
128.1428932188135
 20
80.49289321881345
 30
0.0
 11
127.6428932188135
 21
79.99289321881345
 31
0.0
  0
CIRCLE
  5
447
330
1F
100
AcDbEntity
  8
OBRYS
 62
     5
100
AcDbCircle
 10
129.0
 20
81.35
 30
0.0
 40
0.7
  0
LINE
  5
44E
330
1F
100
AcDbEntity
  8
OBRYS
 62
     5
100
AcDbLine
 10
120.0
 20
8.6
 30
0.0
 11
138.0
 21
8.599999999999994
 31
0.0
  0
LINE
  5
44F
330
1F
100
AcDbEntity
  8
OBRYS
 62
     5
100
AcDbLine
 10
120.0
 20
89.6
 30
0.0
 11
138.0
 21
89.6
 31
0.0
  0
LINE
  5
4E0
330
1F
100
AcDbEntity
  8
OBRYS
 62
     5
100
AcDbLine
 10
23.17858802006699
 20
11.88396178886323
 30
0.0
 11
23.60596071879165
 21
11.63561481963468
 31
0.0
  0
LINE
  5
4E1
330
1F
100
AcDbEntity
  8
OBRYS
 62
     5
100
AcDbLine
 10
28.08586695810881
 20
9.034769131708918
 30
0.0
 11
28.51846735840103
 21
8.783581802506982
 31
0.0
  0
LINE
  5
4E2
330
1F
100
AcDbEntity
  8
OBRYS
 62
     5
100
AcDbLine
 10
23.17858802006699
 20
11.88396178886323
 30
0.0
 11
23.73102181544385
 21
12.83537554756782
 31
0.0
  0
LINE
  5
4E3
330
1F
100
AcDbEntity
  8
OBRYS
 62
     5
100
AcDbLine
 10
28.51846735840103
 20
8.783581802506982
 30
0.0
 11
29.07081642752618
 21
9.73484964377808
 31
0.0
  0
LINE
  5
4E4
330
1F
100
AcDbEntity
  8
OBRYS
 62
     5
100
AcDbLine
 10
27.83479919941555
 20
8.602374658403873
 30
0.0
 11
28.08586695810881
 21
9.034769131708918
 31
0.0
  0
LINE
  5
4E5
330
1F
100
AcDbEntity
  8
OBRYS
 62
     5
100
AcDbLine
 10
23.35474539744931
 20
11.20330606154289
 30
0.0
 11
23.60581314151945
 21
11.63570050966369
 31
0.0
  0
LINE
  5
4E6
330
1F
100
AcDbEntity
  8
OBRYS
 62
     5
100
AcDbLine
 10
23.73102181544385
 20
12.83537554756782
 30
0.0
 11
29.07081642752618
 21
9.73484964377808
 31
0.0
  0
ELLIPSE
  5
4E7
330
1F
100
AcDbEntity
  8
OBRYS
 62
     5
100
AcDbEllipse
 10
26.40091912148502
 20
11.28511259567295
 30
0.0
 11
-1.039943320270123
 21
0.6038380569310341
 31
0.0
210
0.0
220
0.0
230
1.0
 40
0.6385440653482459
 41
6.283185307179586
 42
9.42477796076938
  0
LINE
  5
4E8
330
1F
100
AcDbEntity
  8
OBRYS
 62
     5
100
AcDbLine
 10
24.60098340460934
 20
12.33023656031044
 30
0.0
 11
24.09875154992429
 21
11.46515194972255
 31
0.0
  0
LINE
  5
4E9
330
1F
100
AcDbEntity
  8
OBRYS
 62
     5
100
AcDbLine
 10
28.20211116541818
 20
10.23925915080853
 30
0.0
 11
27.70001548530882
 21
9.374409098281191
 31
0.0
  0
LINE
  5
4EA
330
1F
100
AcDbEntity
  8
OBRYS
 62
     5
100
AcDbLine
 10
27.70001548530882
 20
9.374409098281191
 30
0.0
 11
24.09875154992429
 21
11.46515194972255
 31
0.0
  0
LINE
  5
4EB
330
1F
100
AcDbEntity
  8
OBRYS
 62
     5
100
AcDbLine
 10
23.17858802006699
 20
86.31603821113676
 30
0.0
 11
23.60596071879165
 21
86.5643851803653
 31
0.0
  0
LINE
  5
4EC
330
1F
100
AcDbEntity
  8
OBRYS
 62
     5
100
AcDbLine
 10
28.08586695810881
 20
89.16523086829106
 30
0.0
 11
28.51846735840103
 21
89.416418197493
 31
0.0
  0
LINE
  5
4ED
330
1F
100
AcDbEntity
  8
OBRYS
 62
     5
100
AcDbLine
 10
23.17858802006699
 20
86.31603821113676
 30
0.0
 11
23.73102181544385
 21
85.36462445243217
 31
0.0
  0
LINE
  5
4EE
330
1F
100
AcDbEntity
  8
OBRYS
 62
     5
100
AcDbLine
 10
28.51846735840103
 20
89.416418197493
 30
0.0
 11
29.07081642752618
 21
88.4651503562219
 31
0.0
  0
LINE
  5
4EF
330
1F
100
AcDbEntity
  8
OBRYS
 62
     5
100
AcDbLine
 10
27.83479919941555
 20
89.59762534159611
 30
0.0
 11
28.08586695810881
 21
89.16523086829106
 31
0.0
  0
LINE
  5
4F0
330
1F
100
AcDbEntity
  8
OBRYS
 62
     5
100
AcDbLine
 10
23.35474539744931
 20
86.9966939384571
 30
0.0
 11
23.60581314151945
 21
86.5642994903363
 31
0.0
  0
LINE
  5
4F1
330
1F
100
AcDbEntity
  8
OBRYS
 62
     5
100
AcDbLine
 10
23.73102181544385
 20
85.36462445243217
 30
0.0
 11
29.07081642752618
 21
88.4651503562219
 31
0.0
  0
ELLIPSE
  5
4F2
330
1F
100
AcDbEntity
  8
OBRYS
 62
     5
100
AcDbEllipse
 10
26.40091912148502
 20
86.91488740432703
 30
0.0
 11
-1.039943320270123
 21
-0.603838056931034
 31
0.0
210
0.0
220
0.0
230
-1.0
 40
0.6385440653482459
 41
6.283185307179586
 42
9.42477796076938
  0
LINE
  5
4F3
330
1F
100
AcDbEntity
  8
OBRYS
 62
     5
100
AcDbLine
 10
24.60098340460934
 20
85.86976343968955
 30
0.0
 11
24.09875154992429
 21
86.73484805027744
 31
0.0
  0
LINE
  5
4F4
330
1F
100
AcDbEntity
  8
OBRYS
 62
     5
100
AcDbLine
 10
28.20211116541818
 20
87.96074084919145
 30
0.0
 11
27.70001548530882
 21
88.8255909017188
 31
0.0
  0
LINE
  5
4F5
330
1F
100
AcDbEntity
  8
OBRYS
 62
     5
100
AcDbLine
 10
27.70001548530882
 20
88.8255909017188
 30
0.0
 11
24.09875154992429
 21
86.73484805027744
 31
0.0
  0
LINE
  5
4F6
330
1F
100
AcDbEntity
  8
OBRYS
 62
     5
100
AcDbLine
 10
123.0
 20
54.2
 30
0.0
 11
123.0
 21
59.89999999999999
 31
0.0
  0
LINE
  5
4F7
330
1F
100
AcDbEntity
  8
OBRYS
 62
     5
100
AcDbLine
 10
123.0
 20
59.89999999999999
 30
0.0
 11
135.0
 21
59.89999999999999
 31
0.0
  0
LINE
  5
4F8
330
1F
100
AcDbEntity
  8
OBRYS
 62
     5
100
AcDbLine
 10
135.0
 20
59.89999999999999
 30
0.0
 11
135.0
 21
54.2
 31
0.0
  0
LINE
  5
4F9
330
1F
100
AcDbEntity
  8
OBRYS
 62
     5
100
AcDbLine
 10
135.0
 20
54.2
 30
0.0
 11
123.0
 21
54.2
 31
0.0
  0
LINE
  5
516
330
1F
100
AcDbEntity
  8
OBRYS
 62
     5
100
AcDbLine
 10
66.5
 20
43.0145913078578
 30
0.0
 11
66.5
 21
43.47198337547407
 31
0.0
  0
LINE
  5
517
330
1F
100
AcDbEntity
  8
OBRYS
 62
     5
100
AcDbLine
 10
48.5
 20
43.0145913078578
 30
0.0
 11
48.5
 21
43.47198337547407
 31
0.0
  0
DIMENSION
  5
55F
330
1F
100
AcDbEntity
  8
KOTY
 62
     1
100
AcDbDimension
  2
*D2
 10
66.5
 20
38.61920698643668
 30
0.0
 11
57.31093343209884
 21
38.61920698643668
 31
0.0
 70
   160
  3
STANDARD
100
AcDbAlignedDimension
 13
48.5
 23
38.61920698643668
 33
0.0
 14
66.5
 24
38.61920698643668
 34
0.0
100
AcDbRotatedDimension
1001
ACAD
1000
DSTYLE
1002
{
1070
     7
1000

1070
     6
1000

1070
     5
1000

1070
   278
1070
    44
1070
   147
1040
1.0
1070
   173
1070
     1
1070
    77
1070
     1
1070
   271
1070
     0
1070
    41
1040
4.0
1070
   140
1040
4.0
1002
}
  0
DIMENSION
  5
56F
330
1F
100
AcDbEntity
  8
KOTY
 62
     1
100
AcDbDimension
  2
*D3
 10
82.5
 20
92.0
 30
0.0
 11
82.5
 21
46.0
 31
0.0
 70
   160
  3
STANDARD
100
AcDbAlignedDimension
 13
72.5
 23
0.0
 33
0.0
 14
61.65
 24
92.0
 34
0.0
 50
90.0
100
AcDbRotatedDimension
1001
ACAD
1000
DSTYLE
1002
{
1070
     7
1000

1070
     6
1000

1070
     5
1000

1070
    73
1070
     0
1070
   278
1070
    44
1070
   147
1040
1.0
1070
   173
1070
     1
1070
    77
1070
     1
1070
   271
1070
     0
1070
    41
1040
4.0
1070
   140
1040
4.0
1002
}
  0
DIMENSION
  5
57F
330
1F
100
AcDbEntity
  8
KOTY
 62
     1
100
AcDbDimension
  2
*D4
 10
72.5
 20
-29.27005174156129
 30
0.0
 11
35.69797016463227
 21
-29.27005174156129
 31
0.0
 70
   160
  3
STANDARD
100
AcDbAlignedDimension
 13
0.0
 23
26.6
 33
0.0
 14
72.5
 24
0.0
 34
0.0
100
AcDbRotatedDimension
1001
ACAD
1000
DSTYLE
1002
{
1070
     7
1000

1070
     6
1000

1070
     5
1000

1070
   278
1070
    44
1070
   147
1040
1.0
1070
   173
1070
     1
1070
    77
1070
     1
1070
   271
1070
     1
1070
    41
1040
4.0
1070
   140
1040
4.0
1002
}
  0
DIMENSION
  5
5AF
330
1F
100
AcDbEntity
  8
KOTY
 62
     1
100
AcDbDimension
  2
*D5
 10
-9.999999999999998
 20
71.6
 30
0.0
 11
-10.0
 21
46.0
 31
0.0
 70
   160
  3
STANDARD
100
AcDbAlignedDimension
 13
0.0
 23
26.6
 33
0.0
 14
0.0
 24
71.6
 34
0.0
 50
90.0
100
AcDbRotatedDimension
1001
ACAD
1000
DSTYLE
1002
{
1070
     7
1000

1070
     6
1000

1070
     5
1000

1070
    73
1070
     0
1070
   278
1070
    44
1070
   147
1040
1.0
1070
   173
1070
     1
1070
    77
1070
     2
1070
   271
1070
     0
1070
    41
1040
4.0
1070
   140
1040
4.0
1002
}
  0
DIMENSION
  5
5BF
330
1F
100
AcDbEntity
  8
KOTY
 62
     1
100
AcDbDimension
  2
*D6
 10
-20.5169866366655
 20
90.1
 30
0.0
 11
-20.51698663666551
 21
46.00000000000001
 31
0.0
 70
   160
  3
STANDARD
100
AcDbAlignedDimension
 13
28.7
 23
8.1
 33
0.0
 14
28.7
 24
90.1
 34
0.0
 50
90.0
100
AcDbRotatedDimension
1001
ACAD
1000
DSTYLE
1002
{
1070
     7
1000

1070
     6
1000

1070
     5
1000

1070
    73
1070
     0
1070
   278
1070
    44
1070
   147
1040
1.0
1070
   173
1070
     1
1070
   280
1070
     0
1070
    77
1070
     2
1070
   271
1070
     0
1070
    41
1040
4.0
1070
   140
1040
4.0
1002
}
  0
DIMENSION
  5
5DA
330
1F
100
AcDbEntity
  8
KOTY
 62
     1
100
AcDbDimension
  2
*D7
 10
22.5
 20
-10.0
 30
0.0
 11
44.5
 21
-10.0
 31
0.0
 70
   160
  3
STANDARD
100
AcDbAlignedDimension
 13
66.5
 23
30.5
 33
0.0
 14
22.5
 24
11.7
 34
0.0
100
AcDbRotatedDimension
1001
ACAD
1000
DSTYLE
1002
{
1070
     7
1000

1070
     6
1000

1070
     5
1000

1070
   278
1070
    44
1070
   147
1040
1.0
1070
    77
1070
     1
1070
   173
1070
     1
1070
   271
1070
     0
1070
   140
1040
4.0
1070
    41
1040
4.0
1002
}
  0
DIMENSION
  5
5EA
330
1F
100
AcDbEntity
  8
KOTY
 62
     1
100
AcDbDimension
  2
*D8
 10
66.5
 20
-19.97544537134176
 30
0.0
 11
33.25
 21
-19.97544537134176
 31
0.0
 70
   160
  3
STANDARD
100
AcDbAlignedDimension
 13
0.0
 23
26.6
 33
0.0
 14
66.5
 24
30.4375
 34
0.0
100
AcDbRotatedDimension
1001
ACAD
1000
DSTYLE
1002
{
1070
     7
1000

1070
     6
1000

1070
     5
1000

1070
   278
1070
    44
1070
   147
1040
1.0
1070
    77
1070
     1
1070
   173
1070
     1
1070
   271
1070
     1
1070
   140
1040
4.0
1070
    41
1040
4.0
1002
}
  0
LINE
  5
63D
330
1F
100
AcDbEntity
  8
OBRYS
 62
     5
100
AcDbLine
 10
128.35
 20
19.0952
 30
0.0
 11
129.65
 21
19.0951978939826
 31
0.0
  0
LINE
  5
63E
330
1F
100
AcDbEntity
  8
OBRYS
 62
     5
100
AcDbLine
 10
128.35
 20
14.6048021060174
 30
0.0
 11
129.65
 21
14.6048021060174
 31
0.0
  0
LINE
  5
63F
330
1F
100
AcDbEntity
  8
OBRYS
 62
     5
100
AcDbLine
 10
128.35
 20
79.1048
 30
0.0
 11
129.65
 21
79.1048
 31
0.0
  0
LINE
  5
640
330
1F
100
AcDbEntity
  8
OBRYS
 62
     5
100
AcDbLine
 10
128.35
 20
83.5952
 30
0.0
 11
129.65
 21
83.5952
 31
0.0
  0
LINE
  5
641
330
1F
100
AcDbEntity
  8
OBRYS
 62
     5
100
AcDbLine
 10
120.0
 20
11.2
 30
0.0
 11
138.0
 21
11.2
 31
0.0
  0
LINE
  5
642
330
1F
100
AcDbEntity
  8
OBRYS
 62
     5
100
AcDbLine
 10
120.0
 20
87.0
 30
0.0
 11
138.0
 21
87.0
 31
0.0
  0
LINE
  5
678
330
1F
100
AcDbEntity
  8
OBRYS
 62
     5
100
AcDbLine
 10
120.3
 20
71.6
 30
0.0
 11
120.3
 21
26.6
 31
0.0
  0
LINE
  5
679
330
1F
100
AcDbEntity
  8
OBRYS
 62
     5
100
AcDbLine
 10
137.7
 20
71.6
 30
0.0
 11
137.7
 21
26.6
 31
0.0
  0
LINE
  5
67B
330
1F
100
AcDbEntity
  8
OBRYS
 62
     5
100
AcDbLine
 10
138.0
 20
8.1
 30
0.0
 11
156.0
 21
8.1
 31
0.0
  0
LINE
  5
67C
330
1F
100
AcDbEntity
  8
OBRYS
 62
     5
100
AcDbLine
 10
141.15
 20
6.2
 30
0.0
 11
152.85
 21
6.2
 31
0.0
  0
LINE
  5
67D
330
1F
100
AcDbEntity
  8
OBRYS
 62
     5
100
AcDbLine
 10
141.15
 20
6.2
 30
0.0
 11
139.95
 21
8.1
 31
0.0
  0
LINE
  5
67E
330
1F
100
AcDbEntity
  8
OBRYS
 62
     5
100
AcDbLine
 10
152.85
 20
6.2
 30
0.0
 11
154.05
 21
8.1
 31
0.0
  0
LINE
  5
68E
330
1F
100
AcDbEntity
  8
OBRYS
 62
     5
100
AcDbLine
 10
138.0
 20
90.1
 30
0.0
 11
156.0
 21
90.1
 31
0.0
  0
LINE
  5
68F
330
1F
100
AcDbEntity
  8
OBRYS
 62
     5
100
AcDbLine
 10
156.0
 20
90.1
 30
0.0
 11
156.0
 21
8.1
 31
0.0
  0
LINE
  5
690
330
1F
100
AcDbEntity
  8
OBRYS
 62
     5
100
AcDbLine
 10
141.15
 20
91.99999999999999
 30
0.0
 11
139.95
 21
90.1
 31
0.0
  0
LINE
  5
691
330
1F
100
AcDbEntity
  8
OBRYS
 62
     5
100
AcDbLine
 10
141.15
 20
91.99999999999999
 30
0.0
 11
152.85
 21
91.99999999999999
 31
0.0
  0
LINE
  5
692
330
1F
100
AcDbEntity
  8
OBRYS
 62
     5
100
AcDbLine
 10
152.85
 20
91.99999999999999
 30
0.0
 11
154.05
 21
90.1
 31
0.0
  0
LINE
  5
693
330
1F
100
AcDbEntity
  8
OBRYS
 62
     5
100
AcDbLine
 10
138.0
 20
26.1
 30
0.0
 11
156.0
 21
26.1
 31
0.0
  0
LINE
  5
694
330
1F
100
AcDbEntity
  8
OBRYS
 62
     5
100
AcDbLine
 10
138.3
 20
26.6
 30
0.0
 11
155.7
 21
26.6
 31
0.0
  0
LINE
  5
695
330
1F
100
AcDbEntity
  8
OBRYS
 62
     5
100
AcDbLine
 10
138.3
 20
71.6
 30
0.0
 11
155.7
 21
71.6
 31
0.0
  0
LINE
  5
696
330
1F
100
AcDbEntity
  8
OBRYS
 62
     5
100
AcDbLine
 10
138.0
 20
72.1
 30
0.0
 11
156.0
 21
72.1
 31
0.0
  0
LINE
  5
697
330
1F
100
AcDbEntity
  8
OBRYS
 62
     5
100
AcDbLine
 10
145.3
 20
26.1
 30
0.0
 11
145.3
 21
24.6
 31
0.0
  0
LINE
  5
698
330
1F
100
AcDbEntity
  8
OBRYS
 62
     5
100
AcDbLine
 10
145.3
 20
24.6
 30
0.0
 11
147.0
 21
24.6
 31
0.0
  0
LINE
  5
699
330
1F
100
AcDbEntity
  8
OBRYS
 62
     5
100
AcDbLine
 10
147.0
 20
24.6
 30
0.0
 11
147.0
 21
26.1
 31
0.0
  0
LINE
  5
69A
330
1F
100
AcDbEntity
  8
OBRYS
 62
     5
100
AcDbLine
 10
144.45
 20
26.1
 30
0.0
 11
144.45
 21
23.6
 31
0.0
  0
LINE
  5
69B
330
1F
100
AcDbEntity
  8
OBRYS
 62
     5
100
AcDbLine
 10
144.45
 20
23.6
 30
0.0
 11
147.85
 21
23.6
 31
0.0
  0
LINE
  5
69C
330
1F
100
AcDbEntity
  8
OBRYS
 62
     5
100
AcDbLine
 10
147.85
 20
23.6
 30
0.0
 11
147.85
 21
26.1
 31
0.0
  0
LINE
  5
69D
330
1F
100
AcDbEntity
  8
OBRYS
 62
     5
100
AcDbLine
 10
144.45
 20
23.6
 30
0.0
 11
145.3
 21
24.6
 31
0.0
  0
LINE
  5
69E
330
1F
100
AcDbEntity
  8
OBRYS
 62
     5
100
AcDbLine
 10
147.0
 20
24.6
 30
0.0
 11
147.85
 21
23.6
 31
0.0
  0
LINE
  5
69F
330
1F
100
AcDbEntity
  8
OBRYS
 62
     5
100
AcDbLine
 10
145.3
 20
72.1
 30
0.0
 11
145.3
 21
73.6
 31
0.0
  0
LINE
  5
6A0
330
1F
100
AcDbEntity
  8
OBRYS
 62
     5
100
AcDbLine
 10
145.3
 20
73.6
 30
0.0
 11
147.0
 21
73.6
 31
0.0
  0
LINE
  5
6A1
330
1F
100
AcDbEntity
  8
OBRYS
 62
     5
100
AcDbLine
 10
147.0
 20
73.6
 30
0.0
 11
147.0
 21
72.1
 31
0.0
  0
LINE
  5
6A2
330
1F
100
AcDbEntity
  8
OBRYS
 62
     5
100
AcDbLine
 10
144.45
 20
72.1
 30
0.0
 11
144.45
 21
74.6
 31
0.0
  0
LINE
  5
6A3
330
1F
100
AcDbEntity
  8
OBRYS
 62
     5
100
AcDbLine
 10
144.45
 20
74.6
 30
0.0
 11
147.85
 21
74.6
 31
0.0
  0
LINE
  5
6A4
330
1F
100
AcDbEntity
  8
OBRYS
 62
     5
100
AcDbLine
 10
147.85
 20
74.6
 30
0.0
 11
147.85
 21
72.1
 31
0.0
  0
LINE
  5
6A5
330
1F
100
AcDbEntity
  8
OBRYS
 62
     5
100
AcDbLine
 10
144.45
 20
74.6
 30
0.0
 11
145.3
 21
73.6
 31
0.0
  0
LINE
  5
6A6
330
1F
100
AcDbEntity
  8
OBRYS
 62
     5
100
AcDbLine
 10
147.0
 20
73.6
 30
0.0
 11
147.85
 21
74.6
 31
0.0
  0
CIRCLE
  5
6A7
330
1F
100
AcDbEntity
  8
OBRYS
 62
     5
100
AcDbCircle
 10
147.0
 20
16.85
 30
0.0
 40
3.2
  0
LINE
  5
6A8
330
1F
100
AcDbEntity
  8
OBRYS
 62
     5
100
AcDbLine
 10
138.0
 20
11.7
 30
0.0
 11
156.0
 21
11.7
 31
0.0
  0
LINE
  5
6A9
330
1F
100
AcDbEntity
  8
OBRYS
 62
     5
100
AcDbLine
 10
138.0
 20
86.5
 30
0.0
 11
156.0
 21
86.5
 31
0.0
  0
LINE
  5
6AA
330
1F
100
AcDbEntity
  8
OBRYS
 62
     5
100
AcDbLine
 10
146.35
 20
18.20710678118655
 30
0.0
 11
146.35
 21
19.98328900677866
 31
0.0
  0
LINE
  5
6AB
330
1F
100
AcDbEntity
  8
OBRYS
 62
     5
100
AcDbLine
 10
146.35
 20
13.71671099322134
 30
0.0
 11
146.35
 21
15.49289321881345
 31
0.0
  0
LINE
  5
6AC
330
1F
100
AcDbEntity
  8
OBRYS
 62
     5
100
AcDbLine
 10
147.65
 20
18.20710678118655
 30
0.0
 11
147.65
 21
19.98328900677866
 31
0.0
  0
LINE
  5
6AD
330
1F
100
AcDbEntity
  8
OBRYS
 62
     5
100
AcDbLine
 10
147.65
 20
13.71671099322134
 30
0.0
 11
147.65
 21
15.49289321881345
 31
0.0
  0
ARC
  5
6AE
330
1F
100
AcDbEntity
  8
OBRYS
 62
     5
100
AcDbCircle
 10
145.6428932188135
 20
18.20710678118655
 30
0.0
 40
0.707106781186548
100
AcDbArc
 50
270.0
 51
0.0
  0
ARC
  5
6AF
330
1F
100
AcDbEntity
  8
OBRYS
 62
     5
100
AcDbCircle
 10
148.3571067811866
 20
18.20710678118655
 30
0.0
 40
0.707106781186548
100
AcDbArc
 50
180.0
 51
270.0
  0
ARC
  5
6B0
330
1F
100
AcDbEntity
  8
OBRYS
 62
     5
100
AcDbCircle
 10
148.3571067811866
 20
15.49289321881345
 30
0.0
 40
0.707106781186548
100
AcDbArc
 50
90.0
 51
180.0
  0
ARC
  5
6B1
330
1F
100
AcDbEntity
  8
OBRYS
 62
     5
100
AcDbCircle
 10
145.6428932188135
 20
15.49289321881345
 30
0.0
 40
0.707106781186548
100
AcDbArc
 50
0.0
 51
90.0
  0
LINE
  5
6B2
330
1F
100
AcDbEntity
  8
OBRYS
 62
     5
100
AcDbLine
 10
144.75
 20
16.2
 30
0.0
 11
144.75
 21
17.5
 31
0.0
  0
LINE
  5
6B3
330
1F
100
AcDbEntity
  8
OBRYS
 62
     5
100
AcDbLine
 10
149.25
 20
16.2
 30
0.0
 11
149.25
 21
17.5
 31
0.0
  0
LINE
  5
6B4
330
1F
100
AcDbEntity
  8
OBRYS
 62
     5
100
AcDbLine
 10
148.3571067811866
 20
16.2
 30
0.0
 11
149.2451978939826
 21
16.2
 31
0.0
  0
LINE
  5
6B5
330
1F
100
AcDbEntity
  8
OBRYS
 62
     5
100
AcDbLine
 10
148.3571067811866
 20
17.5
 30
0.0
 11
149.2451978939826
 21
17.5
 31
0.0
  0
LINE
  5
6B6
330
1F
100
AcDbEntity
  8
OBRYS
 62
     5
100
AcDbLine
 10
144.7548021060174
 20
17.5
 30
0.0
 11
145.6428932188135
 21
17.5
 31
0.0
  0
LINE
  5
6B7
330
1F
100
AcDbEntity
  8
OBRYS
 62
     5
100
AcDbLine
 10
147.8571067811866
 20
17.70710678118655
 30
0.0
 11
148.3571067811866
 21
18.20710678118655
 31
0.0
  0
LINE
  5
6B8
330
1F
100
AcDbEntity
  8
OBRYS
 62
     5
100
AcDbLine
 10
144.7548021060174
 20
16.2
 30
0.0
 11
145.6428932188135
 21
16.2
 31
0.0
  0
LINE
  5
6B9
330
1F
100
AcDbEntity
  8
OBRYS
 62
     5
100
AcDbLine
 10
147.8571067811866
 20
15.99289321881345
 30
0.0
 11
148.3571067811866
 21
15.49289321881345
 31
0.0
  0
LINE
  5
6BA
330
1F
100
AcDbEntity
  8
OBRYS
 62
     5
100
AcDbLine
 10
146.1428932188135
 20
17.70710678118655
 30
0.0
 11
145.6428932188135
 21
18.20710678118655
 31
0.0
  0
LINE
  5
6BB
330
1F
100
AcDbEntity
  8
OBRYS
 62
     5
100
AcDbLine
 10
146.1428932188135
 20
15.99289321881345
 30
0.0
 11
145.6428932188135
 21
15.49289321881345
 31
0.0
  0
CIRCLE
  5
6BC
330
1F
100
AcDbEntity
  8
OBRYS
 62
     5
100
AcDbCircle
 10
147.0
 20
16.85
 30
0.0
 40
0.7
  0
CIRCLE
  5
6BD
330
1F
100
AcDbEntity
  8
OBRYS
 62
     5
100
AcDbCircle
 10
147.0
 20
81.35
 30
0.0
 40
3.2
  0
LINE
  5
6BE
330
1F
100
AcDbEntity
  8
OBRYS
 62
     5
100
AcDbLine
 10
146.35
 20
78.21671099322133
 30
0.0
 11
146.35
 21
79.99289321881345
 31
0.0
  0
LINE
  5
6BF
330
1F
100
AcDbEntity
  8
OBRYS
 62
     5
100
AcDbLine
 10
146.35
 20
82.70710678118654
 30
0.0
 11
146.35
 21
84.48328900677866
 31
0.0
  0
LINE
  5
6C0
330
1F
100
AcDbEntity
  8
OBRYS
 62
     5
100
AcDbLine
 10
147.65
 20
78.21671099322133
 30
0.0
 11
147.65
 21
79.99289321881345
 31
0.0
  0
LINE
  5
6C1
330
1F
100
AcDbEntity
  8
OBRYS
 62
     5
100
AcDbLine
 10
147.65
 20
82.70710678118654
 30
0.0
 11
147.65
 21
84.48328900677865
 31
0.0
  0
ARC
  5
6C2
330
1F
100
AcDbEntity
  8
OBRYS
 62
     5
100
AcDbCircle
 10
145.6428932188135
 20
82.70710678118654
 30
0.0
 40
0.707106781186548
100
AcDbArc
 50
270.0
 51
0.0
  0
ARC
  5
6C3
330
1F
100
AcDbEntity
  8
OBRYS
 62
     5
100
AcDbCircle
 10
148.3571067811866
 20
82.70710678118654
 30
0.0
 40
0.707106781186548
100
AcDbArc
 50
180.0
 51
270.0
  0
ARC
  5
6C4
330
1F
100
AcDbEntity
  8
OBRYS
 62
     5
100
AcDbCircle
 10
148.3571067811866
 20
79.99289321881345
 30
0.0
 40
0.707106781186548
100
AcDbArc
 50
90.0
 51
180.0
  0
ARC
  5
6C5
330
1F
100
AcDbEntity
  8
OBRYS
 62
     5
100
AcDbCircle
 10
145.6428932188135
 20
79.99289321881345
 30
0.0
 40
0.707106781186548
100
AcDbArc
 50
0.0
 51
90.0
  0
LINE
  5
6C6
330
1F
100
AcDbEntity
  8
OBRYS
 62
     5
100
AcDbLine
 10
144.75
 20
80.69999999999999
 30
0.0
 11
144.75
 21
81.99999999999999
 31
0.0
  0
LINE
  5
6C7
330
1F
100
AcDbEntity
  8
OBRYS
 62
     5
100
AcDbLine
 10
149.25
 20
80.69999999999999
 30
0.0
 11
149.25
 21
81.99999999999999
 31
0.0
  0
LINE
  5
6C8
330
1F
100
AcDbEntity
  8
OBRYS
 62
     5
100
AcDbLine
 10
148.3571067811866
 20
80.69999999999999
 30
0.0
 11
149.2451978939826
 21
80.69999999999999
 31
0.0
  0
LINE
  5
6C9
330
1F
100
AcDbEntity
  8
OBRYS
 62
     5
100
AcDbLine
 10
148.3571067811866
 20
81.99999999999999
 30
0.0
 11
149.2451978939826
 21
81.99999999999999
 31
0.0
  0
LINE
  5
6CA
330
1F
100
AcDbEntity
  8
OBRYS
 62
     5
100
AcDbLine
 10
144.7548021060174
 20
81.99999999999999
 30
0.0
 11
145.6428932188135
 21
81.99999999999999
 31
0.0
  0
LINE
  5
6CB
330
1F
100
AcDbEntity
  8
OBRYS
 62
     5
100
AcDbLine
 10
147.8571067811866
 20
82.20710678118654
 30
0.0
 11
148.3571067811866
 21
82.70710678118654
 31
0.0
  0
LINE
  5
6CC
330
1F
100
AcDbEntity
  8
OBRYS
 62
     5
100
AcDbLine
 10
144.7548021060174
 20
80.69999999999999
 30
0.0
 11
145.6428932188135
 21
80.69999999999999
 31
0.0
  0
LINE
  5
6CD
330
1F
100
AcDbEntity
  8
OBRYS
 62
     5
100
AcDbLine
 10
147.8571067811866
 20
80.49289321881345
 30
0.0
 11
148.3571067811866
 21
79.99289321881345
 31
0.0
  0
LINE
  5
6CE
330
1F
100
AcDbEntity
  8
OBRYS
 62
     5
100
AcDbLine
 10
146.1428932188135
 20
82.20710678118654
 30
0.0
 11
145.6428932188135
 21
82.70710678118654
 31
0.0
  0
LINE
  5
6CF
330
1F
100
AcDbEntity
  8
OBRYS
 62
     5
100
AcDbLine
 10
146.1428932188135
 20
80.49289321881345
 30
0.0
 11
145.6428932188135
 21
79.99289321881345
 31
0.0
  0
CIRCLE
  5
6D0
330
1F
100
AcDbEntity
  8
OBRYS
 62
     5
100
AcDbCircle
 10
147.0
 20
81.35
 30
0.0
 40
0.7
  0
LINE
  5
6D1
330
1F
100
AcDbEntity
  8
OBRYS
 62
     5
100
AcDbLine
 10
138.0
 20
8.6
 30
0.0
 11
156.0
 21
8.599999999999994
 31
0.0
  0
LINE
  5
6D2
330
1F
100
AcDbEntity
  8
OBRYS
 62
     5
100
AcDbLine
 10
138.0
 20
89.6
 30
0.0
 11
156.0
 21
89.6
 31
0.0
  0
LINE
  5
6D3
102
{ACAD_REACTORS
330
796
102
}
330
1F
100
AcDbEntity
  8
OBRYS
 62
     5
100
AcDbLine
 10
141.0
 20
54.2
 30
0.0
 11
141.0
 21
59.89999999999999
 31
0.0
  0
LINE
  5
6D4
102
{ACAD_REACTORS
330
796
102
}
330
1F
100
AcDbEntity
  8
OBRYS
 62
     5
100
AcDbLine
 10
141.0
 20
59.89999999999999
 30
0.0
 11
153.0
 21
59.89999999999999
 31
0.0
  0
LINE
  5
6D5
102
{ACAD_REACTORS
330
796
102
}
330
1F
100
AcDbEntity
  8
OBRYS
 62
     5
100
AcDbLine
 10
153.0
 20
59.89999999999999
 30
0.0
 11
153.0
 21
54.2
 31
0.0
  0
LINE
  5
6D6
102
{ACAD_REACTORS
330
796
102
}
330
1F
100
AcDbEntity
  8
OBRYS
 62
     5
100
AcDbLine
 10
153.0
 20
54.2
 30
0.0
 11
141.0
 21
54.2
 31
0.0
  0
LINE
  5
6D7
330
1F
100
AcDbEntity
  8
OBRYS
 62
     5
100
AcDbLine
 10
146.35
 20
19.0952
 30
0.0
 11
147.65
 21
19.0951978939826
 31
0.0
  0
LINE
  5
6D8
330
1F
100
AcDbEntity
  8
OBRYS
 62
     5
100
AcDbLine
 10
146.35
 20
14.6048021060174
 30
0.0
 11
147.65
 21
14.6048021060174
 31
0.0
  0
LINE
  5
6D9
330
1F
100
AcDbEntity
  8
OBRYS
 62
     5
100
AcDbLine
 10
146.35
 20
79.1048
 30
0.0
 11
147.65
 21
79.1048
 31
0.0
  0
LINE
  5
6DA
330
1F
100
AcDbEntity
  8
OBRYS
 62
     5
100
AcDbLine
 10
146.35
 20
83.5952
 30
0.0
 11
147.65
 21
83.5952
 31
0.0
  0
LINE
  5
6DB
330
1F
100
AcDbEntity
  8
OBRYS
 62
     5
100
AcDbLine
 10
138.0
 20
11.2
 30
0.0
 11
156.0
 21
11.2
 31
0.0
  0
LINE
  5
6DC
330
1F
100
AcDbEntity
  8
OBRYS
 62
     5
100
AcDbLine
 10
138.0
 20
87.0
 30
0.0
 11
156.0
 21
87.0
 31
0.0
  0
LINE
  5
6DD
330
1F
100
AcDbEntity
  8
OBRYS
 62
     5
100
AcDbLine
 10
138.3
 20
71.6
 30
0.0
 11
138.3
 21
26.6
 31
0.0
  0
LINE
  5
6DE
330
1F
100
AcDbEntity
  8
OBRYS
 62
     5
100
AcDbLine
 10
155.7
 20
71.6
 30
0.0
 11
155.7
 21
26.6
 31
0.0
  0
DIMENSION
  5
6EF
330
1F
100
AcDbEntity
  8
KOTY
 62
     1
100
AcDbDimension
  2
*D13
 10
156.0
 20
-10.0
 30
0.0
 11
138.0
 21
-10.0
 31
0.0
 70
   160
  3
STANDARD
100
AcDbAlignedDimension
 13
120.0
 23
8.1
 33
0.0
 14
156.0
 24
8.099999999999994
 34
0.0
100
AcDbRotatedDimension
1001
ACAD
1000
DSTYLE
1002
{
1070
   271
1070
     0
1070
   278
1070
    44
1070
   140
1040
4.0
1070
    77
1070
     1
1070
   147
1040
1.0
1070
    41
1040
4.0
1002
}
  0
DIMENSION
  5
6FF
330
1F
100
AcDbEntity
  8
KOTY
 62
     1
100
AcDbDimension
  2
*D14
 10
166.0
 20
16.85
 30
0.0
 11
166.0
 21
49.09999999999999
 31
0.0
 70
   160
  3
STANDARD
100
AcDbAlignedDimension
 13
147.0
 23
81.35
 33
0.0
 14
147.0
 24
16.85
 34
0.0
 50
90.0
100
AcDbRotatedDimension
1001
ACAD
1000
DSTYLE
1002
{
1070
   271
1070
     1
1070
   278
1070
    44
1070
   140
1040
4.0
1070
    73
1070
     0
1070
    77
1070
     1
1070
   147
1040
1.0
1070
    41
1040
4.0
1002
}
  0
LINE
  5
72F
330
1F
100
AcDbEntity
  8
OBRYS
  6
HIDDEN
 62
     5
 48
8.0
100
AcDbLine
 10
32.50002989583506
 20
90.1
 30
0.0
 11
32.50002989583506
 21
87.1
 31
0.0
  0
LINE
  5
730
330
1F
100
AcDbEntity
  8
OBRYS
  6
HIDDEN
 62
     5
 48
8.0
100
AcDbLine
 10
32.50002989583506
 20
87.1
 30
0.0
 11
36.00002989583506
 21
87.1
 31
0.0
  0
LINE
  5
731
330
1F
100
AcDbEntity
  8
OBRYS
  6
HIDDEN
 62
     5
 48
8.0
100
AcDbLine
 10
36.00002989583506
 20
87.1
 30
0.0
 11
36.00002989583506
 21
90.1
 31
0.0
  0
DIMENSION
  5
732
330
1F
100
AcDbEntity
  8
KOTY
 62
     1
100
AcDbDimension
  2
*D15
 10
66.5
 20
100.1
 30
0.0
 11
51.25001494791753
 21
100.1
 31
0.0
 70
   160
  3
STANDARD
100
AcDbAlignedDimension
 13
36.00002989583506
 23
90.1
 33
0.0
 14
66.5
 24
66.6
 34
0.0
100
AcDbRotatedDimension
1001
ACAD
1000
DSTYLE
1002
{
1070
   271
1070
     1
1070
   278
1070
    44
1070
   140
1040
4.0
1070
    77
1070
     1
1070
   147
1040
1.0
1070
    41
1040
4.0
1002
}
  0
HATCH
  5
796
330
1F
100
AcDbEntity
  8
OKENKO
 62
     5
100
AcDbHatch
 10
0.0
 20
0.0
 30
0.0
210
0.0
220
0.0
230
1.0
  2
ANSI31
 70
     0
 71
     1
 91
        1
 92
        7
 72
     0
 73
     1
 93
        4
 10
153.0
 20
54.2
 10
153.0
 20
59.89999999999999
 10
141.0
 20
59.89999999999999
 10
141.0
 20
54.2
 97
        4
330
6D5
330
6D4
330
6D3
330
6D6
 75
     0
 76
     1
 52
45.0
 41
0.0000001
 77
     0
 78
     1
 53
90.0
 43
0.0
 44
0.0
 45
-0.0000000125
 46
0.0
 79
     0
 47
0.0
 98
        1
 10
146.1235741793229
 20
56.67640696721842
1001
ACAD
1010
0.0
1020
0.0
1030
0.0
  0
VIEWPORT
  5
878
330
874
100
AcDbEntity
 67
     1
  8
0
100
AcDbViewport
 10
5.25
 20
4.0
 30
0.0
 40
12.6
 41
9.6
 68
     1
 69
     1
1001
ACAD
1000
MVIEW
1002
{
1070
    16
1010
0.0
1020
0.0
1030
0.0
1010
0.0
1020
0.0
1030
1.0
1040
0.0
1040
9.6
1040
5.25
1040
4.0
1040
50.0
1040
0.0
1040
0.0
1070
     0
1070
   100
1070
     0
1070
     3
1070
     0
1070
     0
1070
     0
1070
     0
1040
0.0
1040
0.0
1040
0.0
1040
0.5
1040
0.5
1040
0.0
1040
0.0
1070
     0
1002
{
1002
}
1002
}
  0
VIEWPORT
  5
879
330
874
100
AcDbEntity
 67
     1
  8
0
100
AcDbViewport
 10
5.25
 20
4.0
 30
0.0
 40
8.4
 41
6.4
 68
     2
 69
     2
1001
ACAD
1000
MVIEW
1002
{
1070
    16
1010
0.0
1020
0.0
1030
0.0
1010
0.0
1020
0.0
1030
1.0
1040
0.0
1040
149.425650567161
1040
70.52884001500058
1040
37.98764079588601
1040
50.0
1040
0.0
1040
0.0
1070
     0
1070
   100
1070
     0
1070
     3
1070
     0
1070
     0
1070
     0
1070
     0
1040
0.0
1040
0.0
1040
0.0
1040
0.5
1040
0.5
1040
0.0
1040
0.0
1070
     0
1002
{
1002
}
1002
}
  0
ENDSEC
  0
SECTION
  2
OBJECTS
  0
DICTIONARY
  5
C
330
0
100
AcDbDictionary
  3
ACAD_DETAILVIEWSTYLE
350
77A
  3
ACAD_GROUP
350
D
  3
ACAD_IMAGE_VARS
350
DC
  3
ACAD_MLINESTYLE
350
17
  3
ACAD_SCALELIST
350
82E
  3
ACAD_SECTIONVIEWSTYLE
350
77B
  3
ACDBVARIABLEDICTIONARY
350
66
  3
APPDATA
350
E1
  3
DWGPROPS
350
87B
  0
DICTIONARY
  5
754
330
2
100
AcDbDictionary
280
     1
  3
ACAD_LAYERSTATES
360
75A
  3
ACLYDICTIONARY
360
79D
  0
DICTIONARY
  5
77A
102
{ACAD_REACTORS
330
C
102
}
330
C
100
AcDbDictionary
  0
DICTIONARY
  5
D
102
{ACAD_REACTORS
330
C
102
}
330
C
100
AcDbDictionary
  0
RASTERVARIABLES
  5
DC
102
{ACAD_REACTORS
330
C
102
}
330
C
100
AcDbRasterVariables
 90
        0
 70
     1
 71
     1
 72
     5
  0
DICTIONARY
  5
17
102
{ACAD_REACTORS
330
C
102
}
330
C
100
AcDbDictionary
  3
STANDARD
350
18
  0
DICTIONARY
  5
82E
102
{ACAD_REACTORS
330
C
102
}
330
C
100
AcDbDictionary
  0
DICTIONARY
  5
77B
102
{ACAD_REACTORS
330
C
102
}
330
C
100
AcDbDictionary
  0
DICTIONARY
  5
66
102
{ACAD_REACTORS
330
C
102
}
330
C
100
AcDbDictionary
  3
DIMASSOC
350
67
  3
HIDETEXT
350
6B
  0
DICTIONARY
  5
E1
102
{ACAD_REACTORS
330
C
102
}
330
C
100
AcDbDictionary
  0
XRECORD
  5
87B
102
{ACAD_REACTORS
330
C
102
}
330
C
100
AcDbXrecord
  1
DWGPROPS COOKIE
  2

  3

  4

  6

  7

  8
jaromir.podrabsky
  9

300
=
301
=
302
=
303
=
304
=
305
=
306
=
307
=
308
=
309
=
 40
0.0
 41
2452643.021717593
 42
2456765.25289044
  1

 90
        0
  0
DICTIONARY
  5
75A
102
{ACAD_REACTORS
330
754
102
}
330
754
100
AcDbDictionary
  0
DICTIONARY
  5
79D
102
{ACAD_REACTORS
330
754
102
}
330
754
100
AcDbDictionary
1001
ACAD
1000
<All
  0
MLINESTYLE
  5
18
102
{ACAD_REACTORS
330
17
102
}
330
17
100
AcDbMlineStyle
  2
STANDARD
 70
     0
  3

 62
   256
 51
90.0
 52
90.0
 71
     2
 49
0.5
 62
   256
  6
BYLAYER
 49
-0.5
 62
   256
  6
BYLAYER
  0
DICTIONARYVAR
  5
67
102
{ACAD_REACTORS
330
66
102
}
330
66
100
DictionaryVariables
280
     0
  1
2
  0
DICTIONARYVAR
  5
6B
102
{ACAD_REACTORS
330
66
102
}
330
66
100
DictionaryVariables
280
     0
  1
1
  0
ENDSEC
  0
EOF
