  0
SECTION
  2
HEADER
  9
$ACADVER
  1
AC1014
  9
$ACADMAINTVER
 70
     9
  9
$DWGCODEPAGE
  3
ANSI_1250
  9
$INSBASE
 10
0.0
 20
0.0
 30
0.0
  9
$EXTMIN
 10
-24.11172232291835
 20
-29.3229501619597
 30
0.0
  9
$EXTMAX
 10
202.6666666666667
 20
107.812
 30
0.0
  9
$LIMMIN
 10
0.0
 20
0.0
  9
$LIMMAX
 10
12.0
 20
9.0
  9
$ORTHOMODE
 70
     0
  9
$REGENMODE
 70
     1
  9
$FILLMODE
 70
     1
  9
$QTEXTMODE
 70
     0
  9
$MIRRTEXT
 70
     0
  9
$DRAGMODE
 70
     2
  9
$LTSCALE
 40
1.0
  9
$OSMODE
 70
 15359
  9
$ATTMODE
 70
     1
  9
$TEXTSIZE
 40
0.2
  9
$TRACEWID
 40
0.05
  9
$TEXTSTYLE
  7
STANDARD
  9
$CLAYER
  8
OKENKO
  9
$CELTYPE
  6
HIDDEN
  9
$CECOLOR
 62
   256
  9
$CELTSCALE
 40
1.0
  9
$DELOBJ
 70
     1
  9
$DISPSILH
 70
     0
  9
$DIMSCALE
 40
1.0
  9
$DIMASZ
 40
0.18
  9
$DIMEXO
 40
0.0625
  9
$DIMDLI
 40
0.38
  9
$DIMRND
 40
0.0
  9
$DIMDLE
 40
0.0
  9
$DIMEXE
 40
0.18
  9
$DIMTP
 40
0.0
  9
$DIMTM
 40
0.0
  9
$DIMTXT
 40
0.18
  9
$DIMCEN
 40
0.09
  9
$DIMTSZ
 40
0.0
  9
$DIMTOL
 70
     0
  9
$DIMLIM
 70
     0
  9
$DIMTIH
 70
     1
  9
$DIMTOH
 70
     1
  9
$DIMSE1
 70
     0
  9
$DIMSE2
 70
     0
  9
$DIMTAD
 70
     0
  9
$DIMZIN
 70
     0
  9
$DIMBLK
  1

  9
$DIMASO
 70
     1
  9
$DIMSHO
 70
     1
  9
$DIMPOST
  1

  9
$DIMAPOST
  1

  9
$DIMALT
 70
     0
  9
$DIMALTD
 70
     2
  9
$DIMALTF
 40
25.4
  9
$DIMLFAC
 40
1.0
  9
$DIMTOFL
 70
     0
  9
$DIMTVP
 40
0.0
  9
$DIMTIX
 70
     0
  9
$DIMSOXD
 70
     0
  9
$DIMSAH
 70
     0
  9
$DIMBLK1
  1

  9
$DIMBLK2
  1

  9
$DIMSTYLE
  2
STANDARD
  9
$DIMCLRD
 70
     0
  9
$DIMCLRE
 70
     0
  9
$DIMCLRT
 70
     0
  9
$DIMTFAC
 40
1.0
  9
$DIMGAP
 40
0.09
  9
$DIMJUST
 70
     0
  9
$DIMSD1
 70
     0
  9
$DIMSD2
 70
     0
  9
$DIMTOLJ
 70
     1
  9
$DIMTZIN
 70
     0
  9
$DIMALTZ
 70
     0
  9
$DIMALTTZ
 70
     0
  9
$DIMFIT
 70
     5
  9
$DIMUPT
 70
     0
  9
$DIMUNIT
 70
     2
  9
$DIMDEC
 70
     4
  9
$DIMTDEC
 70
     4
  9
$DIMALTU
 70
     2
  9
$DIMALTTD
 70
     2
  9
$DIMTXSTY
  7
STANDARD
  9
$DIMAUNIT
 70
     0
  9
$LUNITS
 70
     2
  9
$LUPREC
 70
     4
  9
$SKETCHINC
 40
0.1
  9
$FILLETRAD
 40
0.6968703693801268
  9
$AUNITS
 70
     0
  9
$AUPREC
 70
     0
  9
$MENU
  1
.
  9
$ELEVATION
 40
0.0
  9
$PELEVATION
 40
0.0
  9
$THICKNESS
 40
0.0
  9
$LIMCHECK
 70
     0
  9
$CHAMFERA
 40
0.0
  9
$CHAMFERB
 40
0.0
  9
$CHAMFERC
 40
0.0
  9
$CHAMFERD
 40
0.0
  9
$SKPOLY
 70
     0
  9
$TDCREATE
 40
2452643.105050926
  9
$TDUPDATE
 40
2456765.349061725
  9
$TDINDWG
 40
0.6113184954
  9
$TDUSRTIMER
 40
2456765.264243125
  9
$USRTIMER
 70
     1
  9
$ANGBASE
 50
0.0
  9
$ANGDIR
 70
     0
  9
$PDMODE
 70
     0
  9
$PDSIZE
 40
0.0
  9
$PLINEWID
 40
0.0
  9
$COORDS
 70
     2
  9
$SPLFRAME
 70
     0
  9
$SPLINETYPE
 70
     6
  9
$SPLINESEGS
 70
     8
  9
$ATTDIA
 70
     0
  9
$ATTREQ
 70
     1
  9
$HANDLING
 70
     1
  9
$HANDSEED
  5
B33
  9
$SURFTAB1
 70
     6
  9
$SURFTAB2
 70
     6
  9
$SURFTYPE
 70
     6
  9
$SURFU
 70
     6
  9
$SURFV
 70
     6
  9
$UCSNAME
  2

  9
$UCSORG
 10
0.0
 20
0.0
 30
0.0
  9
$UCSXDIR
 10
1.0
 20
0.0
 30
0.0
  9
$UCSYDIR
 10
0.0
 20
1.0
 30
0.0
  9
$PUCSNAME
  2

  9
$PUCSORG
 10
0.0
 20
0.0
 30
0.0
  9
$PUCSXDIR
 10
1.0
 20
0.0
 30
0.0
  9
$PUCSYDIR
 10
0.0
 20
1.0
 30
0.0
  9
$USERI1
 70
     0
  9
$USERI2
 70
     0
  9
$USERI3
 70
     0
  9
$USERI4
 70
     0
  9
$USERI5
 70
     0
  9
$USERR1
 40
0.0
  9
$USERR2
 40
0.0
  9
$USERR3
 40
0.0
  9
$USERR4
 40
0.0
  9
$USERR5
 40
0.0
  9
$WORLDVIEW
 70
     1
  9
$SHADEDGE
 70
     3
  9
$SHADEDIF
 70
    70
  9
$TILEMODE
 70
     0
  9
$MAXACTVP
 70
    64
  9
$PINSBASE
 10
0.0
 20
0.0
 30
0.0
  9
$PLIMCHECK
 70
     0
  9
$PEXTMIN
 10
0.0
 20
0.0
 30
0.0
  9
$PEXTMAX
 10
0.0
 20
0.0
 30
0.0
  9
$PLIMMIN
 10
-0.25
 20
-0.25
  9
$PLIMMAX
 10
10.75
 20
8.25
  9
$UNITMODE
 70
     0
  9
$VISRETAIN
 70
     1
  9
$PLINEGEN
 70
     0
  9
$PSLTSCALE
 70
     1
  9
$TREEDEPTH
 70
  3020
  9
$PICKSTYLE
 70
     0
  9
$CMLSTYLE
  2
STANDARD
  9
$CMLJUST
 70
     0
  9
$CMLSCALE
 40
1.0
  9
$PROXYGRAPHICS
 70
     1
  9
$MEASUREMENT
 70
     0
  0
ENDSEC
  0
SECTION
  2
CLASSES
  0
CLASS
  1
ACDBDICTIONARYWDFLT
  2
AcDbDictionaryWithDefault
  3
ObjectDBX Classes
 90
        0
280
     0
281
     0
  0
CLASS
  1
ACDBPLACEHOLDER
  2
AcDbPlaceHolder
  3
ObjectDBX Classes
 90
        0
280
     0
281
     0
  0
CLASS
  1
LAYOUT
  2
AcDbLayout
  3
ObjectDBX Classes
 90
        0
280
     0
281
     0
  0
CLASS
  1
DICTIONARYVAR
  2
AcDbDictionaryVar
  3
ObjectDBX Classes
 90
        0
280
     0
281
     0
  0
CLASS
  1
TABLESTYLE
  2
AcDbTableStyle
  3
ObjectDBX Classes
 90
     4095
280
     0
281
     0
  0
CLASS
  1
MATERIAL
  2
AcDbMaterial
  3
ObjectDBX Classes
 90
     1153
280
     0
281
     0
  0
CLASS
  1
VISUALSTYLE
  2
AcDbVisualStyle
  3
ObjectDBX Classes
 90
     4095
280
     0
281
     0
  0
CLASS
  1
SCALE
  2
AcDbScale
  3
ObjectDBX Classes
 90
     1153
280
     0
281
     0
  0
CLASS
  1
CELLSTYLEMAP
  2
AcDbCellStyleMap
  3
ObjectDBX Classes
 90
     1152
280
     0
281
     0
  0
CLASS
  1
RASTERVARIABLES
  2
AcDbRasterVariables
  3
ISM
 90
        0
280
     0
281
     0
  0
CLASS
  1
DIMASSOC
  2
AcDbDimAssoc
  3
"AcDbDimAssoc|Product Desc:     AcDim ARX App For Dimension|Company:          Autodesk, Inc.|WEB Address:      www.autodesk.com"
 90
        0
280
     0
281
     0
  0
CLASS
  1
SUN
  2
AcDbSun
  3
SCENEOE
 90
     1153
280
     0
281
     0
  0
CLASS
  1
XRECORD
  2
AcDbXrecord
  3
ObjectDBX Classes
 90
        0
280
     0
281
     0
  0
CLASS
  1
LWPOLYLINE
  2
AcDbPolyline
  3
ObjectDBX Classes
 90
        0
280
     0
281
     1
  0
CLASS
  1
HATCH
  2
AcDbHatch
  3
ObjectDBX Classes
 90
        0
280
     0
281
     1
  0
ENDSEC
  0
SECTION
  2
TABLES
  0
TABLE
  2
VPORT
  5
8
330
0
100
AcDbSymbolTable
 70
     1
  0
VPORT
  5
94
330
8
100
AcDbSymbolTableRecord
100
AcDbViewportTableRecord
  2
*ACTIVE
 70
     0
 10
0.0
 20
0.0
 11
1.0
 21
1.0
 12
115.7443913088125
 22
58.96541112442588
 13
0.0
 23
0.0
 14
0.5
 24
0.5
 15
0.5
 25
0.5
 16
0.0
 26
0.0
 36
1.0
 17
-27.66959356598068
 27
-19.53870295786183
 37
0.0
 40
206.8049917373816
 41
1.260923845193508
 42
50.0
 43
0.0
 44
0.0
 50
0.0
 51
0.0
 71
    16
 72
  1000
 73
     1
 74
     3
 75
     0
 76
     0
 77
     0
 78
     0
  0
ENDTAB
  0
TABLE
  2
LTYPE
  5
5
330
0
100
AcDbSymbolTable
 70
    28
  0
LTYPE
  5
14
330
5
100
AcDbSymbolTableRecord
100
AcDbLinetypeTableRecord
  2
BYBLOCK
 70
     0
  3

 72
    65
 73
     0
 40
0.0
  0
LTYPE
  5
15
330
5
100
AcDbSymbolTableRecord
100
AcDbLinetypeTableRecord
  2
BYLAYER
 70
     0
  3
Solid line
 72
    65
 73
     0
 40
0.0
  0
LTYPE
  5
16
330
5
100
AcDbSymbolTableRecord
100
AcDbLinetypeTableRecord
  2
CONTINUOUS
 70
     0
  3
Solid line
 72
    65
 73
     0
 40
0.0
  0
LTYPE
  5
A06
330
5
100
AcDbSymbolTableRecord
100
AcDbLinetypeTableRecord
  2
BATTING
 70
     0
  3
Batting SSSSSSSSSSSSSSSSSSSSSSSSSSSSSSSSSSSSSSS
 72
    65
 73
     4
 40
0.4001
 49
0.0001
 74
     0
 49
-0.1
 74
     4
 75
   134
340
A05
 46
0.1
 50
0.0
 44
-0.1
 45
0.0
 49
-0.2
 74
     4
 75
   134
340
A05
 46
0.1
 50
180.0
 44
0.1
 45
0.0
 49
-0.1
 74
     0
  0
LTYPE
  5
A07
330
5
100
AcDbSymbolTableRecord
100
AcDbLinetypeTableRecord
  2
BORDER
 70
     0
  3
 Border __ __ . __ __ . __ __ . __ __ . __ __ .
 72
    65
 73
     6
 40
1.75
 49
0.5
 74
     0
 49
-0.25
 74
     0
 49
0.5
 74
     0
 49
-0.25
 74
     0
 49
0.0
 74
     0
 49
-0.25
 74
     0
  0
LTYPE
  5
A08
330
5
100
AcDbSymbolTableRecord
100
AcDbLinetypeTableRecord
  2
CENTER
 70
     0
  3
 Center ____ _ ____ _ ____ _ ____ _ ____ _ ____
 72
    65
 73
     4
 40
2.0
 49
1.25
 74
     0
 49
-0.25
 74
     0
 49
0.25
 74
     0
 49
-0.25
 74
     0
  0
LTYPE
  5
A09
330
5
100
AcDbSymbolTableRecord
100
AcDbLinetypeTableRecord
  2
DASH2
 70
     0
  3
 DashLong ____   ____   ____   ____   ____   __
 72
    65
 73
     2
 40
0.75
 49
0.5
 74
     0
 49
-0.25
 74
     0
  0
LTYPE
  5
A0A
330
5
100
AcDbSymbolTableRecord
100
AcDbLinetypeTableRecord
  2
DASH2DOT
 70
     0
  3
 DashDotDot ____ . . ____ . . ____ . . ____ . .
 72
    65
 73
     6
 40
1.25
 49
0.5
 74
     0
 49
-0.25
 74
     0
 49
0.0
 74
     0
 49
-0.25
 74
     0
 49
0.0
 74
     0
 49
-0.25
 74
     0
  0
LTYPE
  5
A0B
330
5
100
AcDbSymbolTableRecord
100
AcDbLinetypeTableRecord
  2
DASHDOT
 70
     0
  3
 DashDot __ . __ . __ . __ . __ . __ . __ . __ 
 72
    65
 73
     4
 40
1.0
 49
0.5
 74
     0
 49
-0.25
 74
     0
 49
0.0
 74
     0
 49
-0.25
 74
     0
  0
LTYPE
  5
A0C
330
5
100
AcDbSymbolTableRecord
100
AcDbLinetypeTableRecord
  2
DASHED
 70
     0
  3
 Dashed __ __ __ __ __ __ __ __ __ __ __ __ __ 
 72
    65
 73
     2
 40
0.375
 49
0.25
 74
     0
 49
-0.125
 74
     0
  0
LTYPE
  5
A0D
330
5
100
AcDbSymbolTableRecord
100
AcDbLinetypeTableRecord
  2
DIAMOND
 70
     0
  3
Diamond ######################
 72
    65
 73
     2
 40
0.15748
 49
0.0
 74
     2
 75
     0
340
11
 46
0.23622
 50
0.0
 44
0.0
 45
-0.11811
  9
#
 49
-0.15748
 74
     0
  0
LTYPE
  5
A0E
330
5
100
AcDbSymbolTableRecord
100
AcDbLinetypeTableRecord
  2
DIAMONDSMALL
 70
     0
  3
DiamondSmall ######################
 72
    65
 73
     2
 40
0.052493
 49
0.0
 74
     2
 75
     0
340
11
 46
0.07874
 50
0.0
 44
0.0
 45
-0.03937
  9
#
 49
-0.052493
 74
     2
 75
     0
340
11
 46
0.07874
 50
0.0
 44
-0.052493
 45
-0.03937
  9
#
  0
LTYPE
  5
A0F
330
5
100
AcDbSymbolTableRecord
100
AcDbLinetypeTableRecord
  2
DIVIDE
 70
     0
  3
 DashDotDot __  .  . __  .  . __  .  . __  .  .
 72
    65
 73
     6
 40
1.25
 49
0.5
 74
     0
 49
-0.25
 74
     0
 49
0.0
 74
     0
 49
-0.25
 74
     0
 49
0.0
 74
     0
 49
-0.25
 74
     0
  0
LTYPE
  5
A10
330
5
100
AcDbSymbolTableRecord
100
AcDbLinetypeTableRecord
  2
DOTTED
 70
     0
  3
 Dotted . . . . . . . . . . . . . . . . . . . .
 72
    65
 73
     2
 40
0.25
 49
0.0
 74
     0
 49
-0.25
 74
     0
  0
LTYPE
  5
A11
330
5
100
AcDbSymbolTableRecord
100
AcDbLinetypeTableRecord
  2
FENCELINE
 70
     0
  3
 Fenceline ----0-----0----0-----0----0-----0--
 72
    65
 73
     4
 40
1.375
 49
0.625
 74
     0
 49
-0.25
 74
     4
 75
   133
340
A05
 46
0.25
 50
0.0
 44
-0.25
 45
0.0
 49
-0.25
 74
     0
 49
0.25
 74
     0
  0
LTYPE
  5
A12
330
5
100
AcDbSymbolTableRecord
100
AcDbLinetypeTableRecord
  2
FENCELINE1
 70
     0
  3
Fence circle ----0-----0----0-----0----0-----0-
 72
    65
 73
     4
 40
0.5499999999999999
 49
0.25
 74
     0
 49
-0.1
 74
     4
 75
   133
340
A05
 46
0.1
 50
0.0
 44
-0.1
 45
0.0
 49
-0.1
 74
     0
 49
0.1
 74
     0
  0
LTYPE
  5
A13
330
5
100
AcDbSymbolTableRecord
100
AcDbLinetypeTableRecord
  2
FENCELINE2
 70
     0
  3
Fence square ----[]-----[]----[]-----[]----[]--
 72
    65
 73
     4
 40
0.5499999999999999
 49
0.25
 74
     0
 49
-0.1
 74
     4
 75
   132
340
A05
 46
0.1
 50
0.0
 44
-0.1
 45
0.0
 49
-0.1
 74
     0
 49
0.1
 74
     0
  0
LTYPE
  5
A14
330
5
100
AcDbSymbolTableRecord
100
AcDbLinetypeTableRecord
  2
FENCELINE21
 70
     0
  3
Fence square 45 ----[]-----[]----[]-----[]----[
 72
    65
 73
     4
 40
0.5413380000000001
 49
0.205294
 74
     0
 49
-0.139194
 74
     4
 75
   132
340
A05
 46
0.098425
 50
45.0
 44
-0.069597
 45
-0.069597
 49
-0.139194
 74
     0
 49
0.057656
 74
     0
  0
LTYPE
  5
A15
330
5
100
AcDbSymbolTableRecord
100
AcDbLinetypeTableRecord
  2
FIVELINE
 70
     0
  3
FIVELINE =5=5=5=5=5=5=5=5=5=
 72
    65
 73
     2
 40
0.19685
 49
0.0
 74
     4
 75
   137
340
A05
 46
0.03937
 50
0.0
 44
0.0
 45
0.0
 49
-0.19685
 74
     0
  0
LTYPE
  5
A16
330
5
100
AcDbSymbolTableRecord
100
AcDbLinetypeTableRecord
  2
GAS_LINE
 70
     0
  3
Gas line ----GAS----GAS----GAS----GAS----GAS---
 72
    65
 73
     3
 40
0.95
 49
0.5
 74
     0
 49
-0.2
 74
     2
 75
     0
340
11
 46
0.1
 50
0.0
 44
-0.1
 45
-0.05
  9
GAS
 49
-0.25
 74
     0
  0
LTYPE
  5
A17
330
5
100
AcDbSymbolTableRecord
100
AcDbLinetypeTableRecord
  2
HIDDEN
 70
     0
  3
 Hidden _ _ _ _ _ _ _ _ _ _ _ _ _ _ _ _ _ _ _ _
 72
    65
 73
     2
 40
0.375
 49
0.25
 74
     0
 49
-0.125
 74
     0
  0
LTYPE
  5
A18
330
5
100
AcDbSymbolTableRecord
100
AcDbLinetypeTableRecord
  2
HOT_WATER
 70
     0
  3
Hot water line ---- HW ---- HW ---- HW ----
 72
    65
 73
     3
 40
0.8999999999999999
 49
0.5
 74
     0
 49
-0.2
 74
     2
 75
     0
340
11
 46
0.1
 50
0.0
 44
-0.1
 45
-0.05
  9
HW
 49
-0.2
 74
     0
  0
LTYPE
  5
A19
330
5
100
AcDbSymbolTableRecord
100
AcDbLinetypeTableRecord
  2
PHANTOM
 70
     0
  3
Phantom ______  __  __  ______  __  __  ______ 
 72
    65
 73
     6
 40
2.5
 49
1.25
 74
     0
 49
-0.25
 74
     0
 49
0.25
 74
     0
 49
-0.25
 74
     0
 49
0.25
 74
     0
 49
-0.25
 74
     0
  0
LTYPE
  5
A1A
330
5
100
AcDbSymbolTableRecord
100
AcDbLinetypeTableRecord
  2
SINUS
 70
     0
  3
SINUS ~~~~~~~~~~~~~~~~~~~~~~
 72
    65
 73
     3
 40
0.31496
 49
0.0
 74
     4
 75
   150
340
A05
 46
0.03937
 50
0.0
 44
0.0
 45
0.0
 49
-0.15748
 74
     4
 75
   150
340
A05
 46
0.03937
 50
180.0
 44
0.15748
 45
0.0
 49
-0.15748
 74
     0
  0
LTYPE
  5
A1B
330
5
100
AcDbSymbolTableRecord
100
AcDbLinetypeTableRecord
  2
STAR4
 70
     0
  3
Star4
 72
    65
 73
     2
 40
0.35433
 49
0.0
 74
     4
 75
   138
340
A05
 46
0.03937
 50
0.0
 44
0.0
 45
0.0
 49
-0.35433
 74
     0
  0
LTYPE
  5
A1C
330
5
100
AcDbSymbolTableRecord
100
AcDbLinetypeTableRecord
  2
STAR4ROT45
 70
     0
  3
Star4R45
 72
    65
 73
     2
 40
0.35433
 49
0.0
 74
     4
 75
   138
340
A05
 46
0.03937
 50
45.0
 44
0.0
 45
0.0
 49
-0.35433
 74
     0
  0
LTYPE
  5
A1D
330
5
100
AcDbSymbolTableRecord
100
AcDbLinetypeTableRecord
  2
TRACK
 70
     0
  3
Tracks -|-|-|-|-|-|-|-|-|-|-|-|-|-|-|-|-|-|-|-|
 72
    65
 73
     2
 40
0.3
 49
0.15
 74
     4
 75
   130
340
A05
 46
0.25
 50
0.0
 44
0.0
 45
0.0
 49
0.15
 74
     0
  0
LTYPE
  5
A1E
330
5
100
AcDbSymbolTableRecord
100
AcDbLinetypeTableRecord
  2
TRILINE
 70
     0
  3
TriLine =3=3=3=3=3=3=3=3=3=
 72
    65
 73
     2
 40
0.19685
 49
0.0
 74
     4
 75
   136
340
A05
 46
0.03937
 50
0.0
 44
0.0
 45
0.0
 49
-0.19685
 74
     0
  0
LTYPE
  5
A1F
330
5
100
AcDbSymbolTableRecord
100
AcDbLinetypeTableRecord
  2
XLINE
 70
     0
  3
XLine X-X-X-X-X-X-X-X-X-X-X-X-X-X-X-X-X-X-X
 72
    65
 73
     2
 40
0.23622
 49
0.15748
 74
     2
 75
     0
340
11
 46
0.11811
 50
0.0
 44
-0.11811
 45
-0.059055
  9
X
 49
-0.07874
 74
     0
  0
LTYPE
  5
A20
330
5
100
AcDbSymbolTableRecord
100
AcDbLinetypeTableRecord
  2
ZIGZAG
 70
     0
  3
Zig zag /\/\/\/\/\/\/\/\/\/\/\/\/\/\/\/\/\/\/\/
 72
    65
 73
     4
 40
0.8001
 49
0.0001
 74
     0
 49
-0.2
 74
     4
 75
   131
340
A05
 46
0.2
 50
0.0
 44
-0.2
 45
0.0
 49
-0.4
 74
     4
 75
   131
340
A05
 46
0.2
 50
180.0
 44
0.2
 45
0.0
 49
-0.2
 74
     0
  0
ENDTAB
  0
TABLE
  2
LAYER
  5
2
102
{ACAD_XDICTIONARY
360
A32
102
}
330
0
100
AcDbSymbolTable
 70
     5
  0
LAYER
  5
10
330
2
100
AcDbSymbolTableRecord
100
AcDbLayerTableRecord
  2
0
 70
     0
 62
     7
  6
CONTINUOUS
  0
LAYER
  5
101
330
2
100
AcDbSymbolTableRecord
100
AcDbLayerTableRecord
  2
DEFPOINTS
 70
     0
 62
     7
  6
CONTINUOUS
  0
LAYER
  5
A35
330
2
100
AcDbSymbolTableRecord
100
AcDbLayerTableRecord
  2
OBRYS
 70
     0
 62
     5
  6
CONTINUOUS
1001
ACAECLAYERSTANDARD
1000

1000

  0
LAYER
  5
A37
330
2
100
AcDbSymbolTableRecord
100
AcDbLayerTableRecord
  2
KOTY
 70
     0
 62
     1
  6
CONTINUOUS
1001
ACAECLAYERSTANDARD
1000

1000

  0
LAYER
  5
A50
330
2
100
AcDbSymbolTableRecord
100
AcDbLayerTableRecord
  2
OKENKO
 70
     0
 62
     5
  6
CONTINUOUS
1001
ACAECLAYERSTANDARD
1000

1000

  0
ENDTAB
  0
TABLE
  2
STYLE
  5
3
330
0
100
AcDbSymbolTable
 70
     2
  0
STYLE
  5
11
330
3
100
AcDbSymbolTableRecord
100
AcDbTextStyleTableRecord
  2
STANDARD
 70
     0
 40
0.0
 41
1.0
 50
0.0
 71
     0
 42
0.2
  3
arial.ttf
  4

1001
ACAD
1000
Arial
1071
        0
  0
STYLE
  5
A05
330
3
100
AcDbSymbolTableRecord
100
AcDbTextStyleTableRecord
  2

 70
     1
 40
0.0
 41
1.0
 50
0.0
 71
     0
 42
0.2
  3
ltypeshp.shx
  4

  0
ENDTAB
  0
TABLE
  2
VIEW
  5
6
330
0
100
AcDbSymbolTable
 70
     0
  0
ENDTAB
  0
TABLE
  2
UCS
  5
7
330
0
100
AcDbSymbolTable
 70
     0
  0
ENDTAB
  0
TABLE
  2
APPID
  5
9
330
0
100
AcDbSymbolTable
 70
     2
  0
APPID
  5
12
330
9
100
AcDbSymbolTableRecord
100
AcDbRegAppTableRecord
  2
ACAD
 70
     0
  0
APPID
  5
A36
330
9
100
AcDbSymbolTableRecord
100
AcDbRegAppTableRecord
  2
ACAECLAYERSTANDARD
 70
     0
  0
ENDTAB
  0
TABLE
  2
DIMSTYLE
  5
A
330
0
100
AcDbSymbolTable
 70
     1
  0
DIMSTYLE
105
27
102
{ACAD_REACTORS
330
55F
330
56F
330
57F
330
5AF
330
5BF
330
5DA
330
5EA
330
95C
330
96C
330
9E1
102
}
330
A
100
AcDbSymbolTableRecord
100
AcDbDimStyleTableRecord
  2
STANDARD
 70
     0
  3

  4

  5

  6

  7

 40
1.0
 41
0.18
 42
0.0625
 43
0.38
 44
0.18
 45
0.0
 46
0.0
 47
0.0
 48
0.0
140
0.18
141
0.09
142
0.0
143
25.4
144
1.0
145
0.0
146
1.0
147
0.09
 71
     0
 72
     0
 73
     1
 74
     1
 75
     0
 76
     0
 77
     0
 78
     0
170
     0
171
     2
172
     0
173
     0
174
     0
175
     0
176
     0
177
     0
178
     0
270
     2
271
     4
272
     4
273
     2
274
     2
340
11
275
     0
280
     0
281
     0
282
     0
283
     1
284
     0
285
     0
286
     0
287
     3
288
     0
  0
ENDTAB
  0
TABLE
  2
BLOCK_RECORD
  5
1
330
0
100
AcDbSymbolTable
 70
    17
  0
BLOCK_RECORD
  5
1F
330
1
100
AcDbSymbolTableRecord
100
AcDbBlockTableRecord
  2
*MODEL_SPACE
  0
BLOCK_RECORD
  5
B2B
330
1
100
AcDbSymbolTableRecord
100
AcDbBlockTableRecord
  2
*PAPER_SPACE
  0
BLOCK_RECORD
  5
2F1
330
1
100
AcDbSymbolTableRecord
100
AcDbBlockTableRecord
  2
KRAJ
  0
BLOCK_RECORD
  5
30C
330
1
100
AcDbSymbolTableRecord
100
AcDbBlockTableRecord
  2
FRONT
  0
BLOCK_RECORD
  5
562
330
1
100
AcDbSymbolTableRecord
100
AcDbBlockTableRecord
  2
*D2
  0
BLOCK_RECORD
  5
572
330
1
100
AcDbSymbolTableRecord
100
AcDbBlockTableRecord
  2
*D3
  0
BLOCK_RECORD
  5
582
330
1
100
AcDbSymbolTableRecord
100
AcDbBlockTableRecord
  2
*D4
  0
BLOCK_RECORD
  5
5B2
330
1
100
AcDbSymbolTableRecord
100
AcDbBlockTableRecord
  2
*D5
  0
BLOCK_RECORD
  5
5C2
330
1
100
AcDbSymbolTableRecord
100
AcDbBlockTableRecord
  2
*D6
  0
BLOCK_RECORD
  5
5DD
330
1
100
AcDbSymbolTableRecord
100
AcDbBlockTableRecord
  2
*D7
  0
BLOCK_RECORD
  5
5ED
330
1
100
AcDbSymbolTableRecord
100
AcDbBlockTableRecord
  2
*D8
  0
BLOCK_RECORD
  5
607
330
1
100
AcDbSymbolTableRecord
100
AcDbBlockTableRecord
  2
_CLOSEDBLANK
  0
BLOCK_RECORD
  5
60D
330
1
100
AcDbSymbolTableRecord
100
AcDbBlockTableRecord
  2
_CLOSED
  0
BLOCK_RECORD
  5
614
330
1
100
AcDbSymbolTableRecord
100
AcDbBlockTableRecord
  2
_DOT
  0
BLOCK_RECORD
  5
619
330
1
100
AcDbSymbolTableRecord
100
AcDbBlockTableRecord
  2
_ARCHTICK
  0
BLOCK_RECORD
  5
95F
330
1
100
AcDbSymbolTableRecord
100
AcDbBlockTableRecord
  2
*D13
  0
BLOCK_RECORD
  5
96F
330
1
100
AcDbSymbolTableRecord
100
AcDbBlockTableRecord
  2
*D14
  0
BLOCK_RECORD
  5
9E4
330
1
100
AcDbSymbolTableRecord
100
AcDbBlockTableRecord
  2
*D15
  0
ENDTAB
  0
ENDSEC
  0
SECTION
  2
BLOCKS
  0
BLOCK
  5
20
330
1F
100
AcDbEntity
  8
0
100
AcDbBlockBegin
  2
*MODEL_SPACE
 70
     0
 10
0.0
 20
0.0
 30
0.0
  3
*MODEL_SPACE
  1

  0
ENDBLK
  5
21
330
1F
100
AcDbEntity
  8
0
100
AcDbBlockEnd
  0
BLOCK
  5
B2D
330
B2B
100
AcDbEntity
 67
     1
  8
0
100
AcDbBlockBegin
  2
*PAPER_SPACE
 70
     0
 10
0.0
 20
0.0
 30
0.0
  3
*PAPER_SPACE
  1

  0
ENDBLK
  5
B2E
330
B2B
100
AcDbEntity
 67
     1
  8
0
100
AcDbBlockEnd
  0
BLOCK
  5
2F2
330
2F1
100
AcDbEntity
  8
0
100
AcDbBlockBegin
  2
KRAJ
 70
     0
 10
0.0
 20
0.0
 30
0.0
  3
KRAJ
  1
kraj
  0
LINE
  5
2F4
330
2F1
100
AcDbEntity
  8
0
100
AcDbLine
 10
23.17858802006699
 20
11.88396178886323
 30
0.0
 11
23.60596071879165
 21
11.63561481963468
 31
0.0
  0
LINE
  5
2F5
330
2F1
100
AcDbEntity
  8
0
100
AcDbLine
 10
28.08586695810881
 20
9.034769131708918
 30
0.0
 11
28.51846735840103
 21
8.783581802506982
 31
0.0
  0
LINE
  5
2F6
330
2F1
100
AcDbEntity
  8
0
100
AcDbLine
 10
23.17858802006699
 20
11.88396178886323
 30
0.0
 11
23.73102181544385
 21
12.83537554756782
 31
0.0
  0
LINE
  5
2F7
330
2F1
100
AcDbEntity
  8
0
100
AcDbLine
 10
28.51846735840103
 20
8.783581802506982
 30
0.0
 11
29.07081642752618
 21
9.73484964377808
 31
0.0
  0
LINE
  5
2F8
330
2F1
100
AcDbEntity
  8
0
100
AcDbLine
 10
27.83479919941555
 20
8.602374658403873
 30
0.0
 11
28.08586695810881
 21
9.034769131708918
 31
0.0
  0
LINE
  5
2F9
330
2F1
100
AcDbEntity
  8
0
100
AcDbLine
 10
23.35474539744931
 20
11.20330606154289
 30
0.0
 11
23.60581314151945
 21
11.63570050966369
 31
0.0
  0
LINE
  5
2FA
330
2F1
100
AcDbEntity
  8
0
100
AcDbLine
 10
23.73102181544385
 20
12.83537554756782
 30
0.0
 11
29.07081642752618
 21
9.73484964377808
 31
0.0
  0
ELLIPSE
  5
2FB
330
2F1
100
AcDbEntity
  8
0
100
AcDbEllipse
 10
26.40091912148502
 20
11.28511259567295
 30
0.0
 11
-1.039943320270123
 21
0.6038380569310341
 31
0.0
210
0.0
220
0.0
230
1.0
 40
0.6385440653482459
 41
6.283185307179586
 42
9.42477796076938
  0
LINE
  5
2FC
330
2F1
100
AcDbEntity
  8
0
100
AcDbLine
 10
24.60098340460934
 20
12.33023656031044
 30
0.0
 11
24.09875154992429
 21
11.46515194972255
 31
0.0
  0
LINE
  5
2FD
330
2F1
100
AcDbEntity
  8
0
100
AcDbLine
 10
28.20211116541818
 20
10.23925915080853
 30
0.0
 11
27.70001548530882
 21
9.374409098281191
 31
0.0
  0
LINE
  5
2FE
330
2F1
100
AcDbEntity
  8
0
100
AcDbLine
 10
27.70001548530882
 20
9.374409098281191
 30
0.0
 11
24.09875154992429
 21
11.46515194972255
 31
0.0
  0
ENDBLK
  5
2F3
330
2F1
100
AcDbEntity
  8
0
100
AcDbBlockEnd
  0
BLOCK
  5
30D
330
30C
100
AcDbEntity
  8
0
100
AcDbBlockBegin
  2
FRONT
 70
     0
 10
0.0
 20
0.0
 30
0.0
  3
FRONT
  1
front
  0
LINE
  5
30F
330
30C
100
AcDbEntity
  8
0
100
AcDbLine
 10
124.7071067811866
 20
0.0
 30
0.0
 11
133.2928932188134
 21
0.0
 31
0.0
  0
LINE
  5
310
330
30C
100
AcDbEntity
  8
0
100
AcDbLine
 10
120.0
 20
8.1
 30
0.0
 11
138.0
 21
8.1
 31
0.0
  0
LINE
  5
311
330
30C
100
AcDbEntity
  8
0
100
AcDbLine
 10
123.15
 20
6.2
 30
0.0
 11
134.85
 21
6.2
 31
0.0
  0
LINE
  5
312
330
30C
100
AcDbEntity
  8
0
100
AcDbLine
 10
123.15
 20
6.2
 30
0.0
 11
121.95
 21
8.1
 31
0.0
  0
LINE
  5
313
330
30C
100
AcDbEntity
  8
0
100
AcDbLine
 10
134.85
 20
6.2
 30
0.0
 11
136.05
 21
8.1
 31
0.0
  0
LINE
  5
314
330
30C
100
AcDbEntity
  8
0
100
AcDbLine
 10
125.7071067811866
 20
1.0
 30
0.0
 11
132.2928932188134
 21
1.0
 31
0.0
  0
LINE
  5
315
330
30C
100
AcDbEntity
  8
0
100
AcDbLine
 10
125.0
 20
1.707106781186548
 30
0.0
 11
125.0
 21
6.2
 31
0.0
  0
LINE
  5
316
330
30C
100
AcDbEntity
  8
0
100
AcDbLine
 10
133.0
 20
1.707106781186548
 30
0.0
 11
133.0
 21
6.2
 31
0.0
  0
ARC
  5
317
330
30C
100
AcDbEntity
  8
0
100
AcDbCircle
 10
125.7071067811866
 20
1.707106781186548
 30
0.0
 40
0.707106781186548
100
AcDbArc
 50
180.0
 51
270.0
  0
ARC
  5
318
330
30C
100
AcDbEntity
  8
0
100
AcDbCircle
 10
132.2928932188134
 20
1.707106781186548
 30
0.0
 40
0.707106781186548
100
AcDbArc
 50
270.0
 51
359.9999999999998
  0
LINE
  5
319
330
30C
100
AcDbEntity
  8
0
100
AcDbLine
 10
121.7
 20
8.1
 30
0.0
 11
121.7
 21
5.207106781186549
 31
0.0
  0
LINE
  5
31A
330
30C
100
AcDbEntity
  8
0
100
AcDbLine
 10
125.0
 20
4.5
 30
0.0
 11
122.4071067811866
 21
4.500000000000001
 31
0.0
  0
ARC
  5
31B
330
30C
100
AcDbEntity
  8
0
100
AcDbCircle
 10
122.4071067811866
 20
5.207106781186549
 30
0.0
 40
0.707106781186548
100
AcDbArc
 50
180.0
 51
270.0
  0
LINE
  5
31C
330
30C
100
AcDbEntity
  8
0
100
AcDbLine
 10
136.3
 20
8.100000000000001
 30
0.0
 11
136.3
 21
5.207106781186541
 31
0.0
  0
LINE
  5
31D
330
30C
100
AcDbEntity
  8
0
100
AcDbLine
 10
133.0170014197672
 20
4.5
 30
0.0
 11
135.5928932188135
 21
4.5
 31
0.0
  0
ARC
  5
31E
330
30C
100
AcDbEntity
  8
0
100
AcDbCircle
 10
135.5928932188135
 20
5.207106781186548
 30
0.0
 40
0.7071067811865475
100
AcDbArc
 50
270.0
 51
359.9999999999993
  0
LINE
  5
31F
330
30C
100
AcDbEntity
  8
0
100
AcDbLine
 10
124.0
 20
4.5
 30
0.0
 11
124.0
 21
0.7071067811865479
 31
0.0
  0
LINE
  5
320
330
30C
100
AcDbEntity
  8
0
100
AcDbLine
 10
134.0
 20
4.5
 30
0.0
 11
134.0
 21
0.7071067811865479
 31
0.0
  0
ARC
  5
321
330
30C
100
AcDbEntity
  8
0
100
AcDbCircle
 10
133.2928932188134
 20
0.707106781186548
 30
0.0
 40
0.707106781186548
100
AcDbArc
 50
270.0
 51
359.9999999999998
  0
ARC
  5
322
330
30C
100
AcDbEntity
  8
0
100
AcDbCircle
 10
124.7071067811866
 20
0.7071067811865479
 30
0.0
 40
0.707106781186548
100
AcDbArc
 50
180.0
 51
270.0
  0
LINE
  5
323
330
30C
100
AcDbEntity
  8
0
100
AcDbLine
 10
120.0
 20
8.1
 30
0.0
 11
120.0
 21
90.1
 31
0.0
  0
LINE
  5
324
330
30C
100
AcDbEntity
  8
0
100
AcDbLine
 10
120.0
 20
90.1
 30
0.0
 11
138.0
 21
90.1
 31
0.0
  0
LINE
  5
325
330
30C
100
AcDbEntity
  8
0
100
AcDbLine
 10
138.0
 20
90.1
 30
0.0
 11
138.0
 21
8.1
 31
0.0
  0
LINE
  5
326
330
30C
100
AcDbEntity
  8
0
100
AcDbLine
 10
123.15
 20
91.99999999999999
 30
0.0
 11
121.95
 21
90.1
 31
0.0
  0
LINE
  5
327
330
30C
100
AcDbEntity
  8
0
100
AcDbLine
 10
123.15
 20
91.99999999999999
 30
0.0
 11
134.85
 21
91.99999999999999
 31
0.0
  0
LINE
  5
328
330
30C
100
AcDbEntity
  8
0
100
AcDbLine
 10
134.85
 20
91.99999999999999
 30
0.0
 11
136.05
 21
90.1
 31
0.0
  0
LINE
  5
329
330
30C
100
AcDbEntity
  8
0
100
AcDbLine
 10
120.0
 20
26.1
 30
0.0
 11
138.0
 21
26.1
 31
0.0
  0
LINE
  5
32A
330
30C
100
AcDbEntity
  8
0
100
AcDbLine
 10
120.0
 20
26.6
 30
0.0
 11
138.0
 21
26.6
 31
0.0
  0
LINE
  5
32B
330
30C
100
AcDbEntity
  8
0
100
AcDbLine
 10
120.0
 20
71.6
 30
0.0
 11
138.0
 21
71.6
 31
0.0
  0
LINE
  5
32C
330
30C
100
AcDbEntity
  8
0
100
AcDbLine
 10
120.0
 20
72.1
 30
0.0
 11
138.0
 21
72.1
 31
0.0
  0
LWPOLYLINE
  5
32D
330
30C
100
AcDbEntity
  8
0
100
AcDbPolyline
 90
        4
 70
     1
 43
0.0
 10
123.0
 20
54.2
 10
123.0
 20
59.89999999999999
 10
135.0
 20
59.89999999999999
 10
135.0
 20
54.2
  0
LINE
  5
32E
330
30C
100
AcDbEntity
  8
0
100
AcDbLine
 10
127.3
 20
26.1
 30
0.0
 11
127.3
 21
24.6
 31
0.0
  0
LINE
  5
32F
330
30C
100
AcDbEntity
  8
0
100
AcDbLine
 10
127.3
 20
24.6
 30
0.0
 11
129.0
 21
24.6
 31
0.0
  0
LINE
  5
330
330
30C
100
AcDbEntity
  8
0
100
AcDbLine
 10
129.0
 20
24.6
 30
0.0
 11
129.0
 21
26.1
 31
0.0
  0
LINE
  5
331
330
30C
100
AcDbEntity
  8
0
100
AcDbLine
 10
126.45
 20
26.1
 30
0.0
 11
126.45
 21
23.6
 31
0.0
  0
LINE
  5
332
330
30C
100
AcDbEntity
  8
0
100
AcDbLine
 10
126.45
 20
23.6
 30
0.0
 11
129.85
 21
23.6
 31
0.0
  0
LINE
  5
333
330
30C
100
AcDbEntity
  8
0
100
AcDbLine
 10
129.85
 20
23.6
 30
0.0
 11
129.85
 21
26.1
 31
0.0
  0
LINE
  5
334
330
30C
100
AcDbEntity
  8
0
100
AcDbLine
 10
126.45
 20
23.6
 30
0.0
 11
127.3
 21
24.6
 31
0.0
  0
LINE
  5
335
330
30C
100
AcDbEntity
  8
0
100
AcDbLine
 10
129.0
 20
24.6
 30
0.0
 11
129.85
 21
23.6
 31
0.0
  0
LINE
  5
336
330
30C
100
AcDbEntity
  8
0
100
AcDbLine
 10
127.3
 20
72.1
 30
0.0
 11
127.3
 21
73.6
 31
0.0
  0
LINE
  5
337
330
30C
100
AcDbEntity
  8
0
100
AcDbLine
 10
127.3
 20
73.6
 30
0.0
 11
129.0
 21
73.6
 31
0.0
  0
LINE
  5
338
330
30C
100
AcDbEntity
  8
0
100
AcDbLine
 10
129.0
 20
73.6
 30
0.0
 11
129.0
 21
72.1
 31
0.0
  0
LINE
  5
339
330
30C
100
AcDbEntity
  8
0
100
AcDbLine
 10
126.45
 20
72.1
 30
0.0
 11
126.45
 21
74.6
 31
0.0
  0
LINE
  5
33A
330
30C
100
AcDbEntity
  8
0
100
AcDbLine
 10
126.45
 20
74.6
 30
0.0
 11
129.85
 21
74.6
 31
0.0
  0
LINE
  5
33B
330
30C
100
AcDbEntity
  8
0
100
AcDbLine
 10
129.85
 20
74.6
 30
0.0
 11
129.85
 21
72.1
 31
0.0
  0
LINE
  5
33C
330
30C
100
AcDbEntity
  8
0
100
AcDbLine
 10
126.45
 20
74.6
 30
0.0
 11
127.3
 21
73.6
 31
0.0
  0
LINE
  5
33D
330
30C
100
AcDbEntity
  8
0
100
AcDbLine
 10
129.0
 20
73.6
 30
0.0
 11
129.85
 21
74.6
 31
0.0
  0
CIRCLE
  5
33E
330
30C
100
AcDbEntity
  8
0
100
AcDbCircle
 10
129.0
 20
16.85
 30
0.0
 40
3.2
  0
LINE
  5
33F
330
30C
100
AcDbEntity
  8
0
100
AcDbLine
 10
120.0
 20
11.7
 30
0.0
 11
138.0
 21
11.7
 31
0.0
  0
LINE
  5
340
330
30C
100
AcDbEntity
  8
0
100
AcDbLine
 10
120.0
 20
86.5
 30
0.0
 11
138.0
 21
86.5
 31
0.0
  0
LINE
  5
341
330
30C
100
AcDbEntity
  8
0
100
AcDbLine
 10
128.35
 20
18.20710678118655
 30
0.0
 11
128.35
 21
19.98328900677866
 31
0.0
  0
LINE
  5
342
330
30C
100
AcDbEntity
  8
0
100
AcDbLine
 10
128.35
 20
13.71671099322134
 30
0.0
 11
128.35
 21
15.49289321881345
 31
0.0
  0
LINE
  5
343
330
30C
100
AcDbEntity
  8
0
100
AcDbLine
 10
129.65
 20
18.20710678118655
 30
0.0
 11
129.65
 21
19.98328900677866
 31
0.0
  0
LINE
  5
344
330
30C
100
AcDbEntity
  8
0
100
AcDbLine
 10
129.65
 20
13.71671099322134
 30
0.0
 11
129.65
 21
15.49289321881345
 31
0.0
  0
ARC
  5
345
330
30C
100
AcDbEntity
  8
0
100
AcDbCircle
 10
127.6428932188135
 20
18.20710678118655
 30
0.0
 40
0.707106781186548
100
AcDbArc
 50
270.0
 51
0.0
  0
ARC
  5
346
330
30C
100
AcDbEntity
  8
0
100
AcDbCircle
 10
130.3571067811866
 20
18.20710678118655
 30
0.0
 40
0.707106781186548
100
AcDbArc
 50
180.0
 51
270.0
  0
ARC
  5
347
330
30C
100
AcDbEntity
  8
0
100
AcDbCircle
 10
130.3571067811866
 20
15.49289321881345
 30
0.0
 40
0.707106781186548
100
AcDbArc
 50
90.0
 51
180.0
  0
ARC
  5
348
330
30C
100
AcDbEntity
  8
0
100
AcDbCircle
 10
127.6428932188135
 20
15.49289321881345
 30
0.0
 40
0.707106781186548
100
AcDbArc
 50
0.0
 51
90.0
  0
LINE
  5
349
330
30C
100
AcDbEntity
  8
0
100
AcDbLine
 10
126.75
 20
16.2
 30
0.0
 11
126.75
 21
17.5
 31
0.0
  0
LINE
  5
34A
330
30C
100
AcDbEntity
  8
0
100
AcDbLine
 10
131.25
 20
16.2
 30
0.0
 11
131.25
 21
17.5
 31
0.0
  0
LINE
  5
34B
330
30C
100
AcDbEntity
  8
0
100
AcDbLine
 10
130.3571067811866
 20
16.2
 30
0.0
 11
131.2451978939826
 21
16.2
 31
0.0
  0
LINE
  5
34C
330
30C
100
AcDbEntity
  8
0
100
AcDbLine
 10
130.3571067811866
 20
17.5
 30
0.0
 11
131.2451978939826
 21
17.5
 31
0.0
  0
LINE
  5
34D
330
30C
100
AcDbEntity
  8
0
100
AcDbLine
 10
126.7548021060174
 20
17.5
 30
0.0
 11
127.6428932188135
 21
17.5
 31
0.0
  0
LINE
  5
34E
330
30C
100
AcDbEntity
  8
0
100
AcDbLine
 10
129.8571067811866
 20
17.70710678118655
 30
0.0
 11
130.3571067811866
 21
18.20710678118655
 31
0.0
  0
LINE
  5
34F
330
30C
100
AcDbEntity
  8
0
100
AcDbLine
 10
126.7548021060174
 20
16.2
 30
0.0
 11
127.6428932188135
 21
16.2
 31
0.0
  0
LINE
  5
350
330
30C
100
AcDbEntity
  8
0
100
AcDbLine
 10
129.8571067811866
 20
15.99289321881345
 30
0.0
 11
130.3571067811866
 21
15.49289321881345
 31
0.0
  0
LINE
  5
351
330
30C
100
AcDbEntity
  8
0
100
AcDbLine
 10
128.1428932188135
 20
17.70710678118655
 30
0.0
 11
127.6428932188135
 21
18.20710678118655
 31
0.0
  0
LINE
  5
352
330
30C
100
AcDbEntity
  8
0
100
AcDbLine
 10
128.1428932188135
 20
15.99289321881345
 30
0.0
 11
127.6428932188135
 21
15.49289321881345
 31
0.0
  0
CIRCLE
  5
353
330
30C
100
AcDbEntity
  8
0
100
AcDbCircle
 10
129.0
 20
16.85
 30
0.0
 40
0.7
  0
CIRCLE
  5
354
330
30C
100
AcDbEntity
  8
0
100
AcDbCircle
 10
129.0
 20
81.35
 30
0.0
 40
3.2
  0
LINE
  5
355
330
30C
100
AcDbEntity
  8
0
100
AcDbLine
 10
128.35
 20
78.21671099322133
 30
0.0
 11
128.35
 21
79.99289321881345
 31
0.0
  0
LINE
  5
356
330
30C
100
AcDbEntity
  8
0
100
AcDbLine
 10
128.35
 20
82.70710678118654
 30
0.0
 11
128.35
 21
84.48328900677866
 31
0.0
  0
LINE
  5
357
330
30C
100
AcDbEntity
  8
0
100
AcDbLine
 10
129.65
 20
78.21671099322133
 30
0.0
 11
129.65
 21
79.99289321881345
 31
0.0
  0
LINE
  5
358
330
30C
100
AcDbEntity
  8
0
100
AcDbLine
 10
129.65
 20
82.70710678118654
 30
0.0
 11
129.65
 21
84.48328900677865
 31
0.0
  0
ARC
  5
359
330
30C
100
AcDbEntity
  8
0
100
AcDbCircle
 10
127.6428932188135
 20
82.70710678118654
 30
0.0
 40
0.707106781186548
100
AcDbArc
 50
270.0
 51
0.0
  0
ARC
  5
35A
330
30C
100
AcDbEntity
  8
0
100
AcDbCircle
 10
130.3571067811866
 20
82.70710678118654
 30
0.0
 40
0.707106781186548
100
AcDbArc
 50
180.0
 51
270.0
  0
ARC
  5
35B
330
30C
100
AcDbEntity
  8
0
100
AcDbCircle
 10
130.3571067811866
 20
79.99289321881345
 30
0.0
 40
0.707106781186548
100
AcDbArc
 50
90.0
 51
180.0
  0
ARC
  5
35C
330
30C
100
AcDbEntity
  8
0
100
AcDbCircle
 10
127.6428932188135
 20
79.99289321881345
 30
0.0
 40
0.707106781186548
100
AcDbArc
 50
0.0
 51
90.0
  0
LINE
  5
35D
330
30C
100
AcDbEntity
  8
0
100
AcDbLine
 10
126.75
 20
80.69999999999999
 30
0.0
 11
126.75
 21
81.99999999999999
 31
0.0
  0
LINE
  5
35E
330
30C
100
AcDbEntity
  8
0
100
AcDbLine
 10
131.25
 20
80.69999999999999
 30
0.0
 11
131.25
 21
81.99999999999999
 31
0.0
  0
LINE
  5
35F
330
30C
100
AcDbEntity
  8
0
100
AcDbLine
 10
130.3571067811866
 20
80.69999999999999
 30
0.0
 11
131.2451978939826
 21
80.69999999999999
 31
0.0
  0
LINE
  5
360
330
30C
100
AcDbEntity
  8
0
100
AcDbLine
 10
130.3571067811866
 20
81.99999999999999
 30
0.0
 11
131.2451978939826
 21
81.99999999999999
 31
0.0
  0
LINE
  5
361
330
30C
100
AcDbEntity
  8
0
100
AcDbLine
 10
126.7548021060174
 20
81.99999999999999
 30
0.0
 11
127.6428932188135
 21
81.99999999999999
 31
0.0
  0
LINE
  5
362
330
30C
100
AcDbEntity
  8
0
100
AcDbLine
 10
129.8571067811866
 20
82.20710678118654
 30
0.0
 11
130.3571067811866
 21
82.70710678118654
 31
0.0
  0
LINE
  5
363
330
30C
100
AcDbEntity
  8
0
100
AcDbLine
 10
126.7548021060174
 20
80.69999999999999
 30
0.0
 11
127.6428932188135
 21
80.69999999999999
 31
0.0
  0
LINE
  5
364
330
30C
100
AcDbEntity
  8
0
100
AcDbLine
 10
129.8571067811866
 20
80.49289321881345
 30
0.0
 11
130.3571067811866
 21
79.99289321881345
 31
0.0
  0
LINE
  5
365
330
30C
100
AcDbEntity
  8
0
100
AcDbLine
 10
128.1428932188135
 20
82.20710678118654
 30
0.0
 11
127.6428932188135
 21
82.70710678118654
 31
0.0
  0
LINE
  5
366
330
30C
100
AcDbEntity
  8
0
100
AcDbLine
 10
128.1428932188135
 20
80.49289321881345
 30
0.0
 11
127.6428932188135
 21
79.99289321881345
 31
0.0
  0
CIRCLE
  5
367
330
30C
100
AcDbEntity
  8
0
100
AcDbCircle
 10
129.0
 20
81.35
 30
0.0
 40
0.7
  0
LINE
  5
368
330
30C
100
AcDbEntity
  8
0
100
AcDbLine
 10
132.0
 20
26.6
 30
0.0
 11
132.0
 21
45.6069647979778
 31
0.0
  0
LINE
  5
369
330
30C
100
AcDbEntity
  8
0
100
AcDbLine
 10
135.0
 20
71.6
 30
0.0
 11
135.0004309006888
 21
51.59527469691521
 31
0.0
  0
LINE
  5
36A
330
30C
100
AcDbEntity
  8
0
100
AcDbLine
 10
132.6112875855771
 20
47.4150501141028
 30
0.0
 11
134.4004309006888
 21
49.79527469691521
 31
0.0
  0
ARC
  5
36B
330
30C
100
AcDbEntity
  8
0
100
AcDbCircle
 10
135.0096524697065
 20
45.6163229958218
 30
0.0
 40
3.0
100
AcDbArc
 50
143.1301023541561
 51
180.0
  0
ARC
  5
36C
330
30C
100
AcDbEntity
  8
0
100
AcDbCircle
 10
135.0096524697065
 20
45.6163229958218
 30
0.0
 40
3.0
100
AcDbArc
 50
143.1301023541561
 51
180.0
  0
ARC
  5
36D
330
30C
100
AcDbEntity
  8
0
100
AcDbCircle
 10
132.0004309006888
 20
51.59527469691521
 30
0.0
 40
3.0
100
AcDbArc
 50
323.1301023541561
 51
0.0
  0
ENDBLK
  5
30E
330
30C
100
AcDbEntity
  8
0
100
AcDbBlockEnd
  0
BLOCK
  5
56D
330
562
100
AcDbEntity
  8
0
100
AcDbBlockBegin
  2
*D2
 70
     1
 10
0.0
 20
0.0
 30
0.0
  3
*D2
  1
*D26
  0
LINE
  5
563
330
562
100
AcDbEntity
  8
KOTY
 62
     0
100
AcDbLine
 10
48.5
 20
38.68170698643668
 30
0.0
 11
48.5
 21
38.79920698643668
 31
0.0
  0
LINE
  5
564
330
562
100
AcDbEntity
  8
KOTY
 62
     0
100
AcDbLine
 10
66.5
 20
38.68170698643668
 30
0.0
 11
66.5
 21
38.79920698643668
 31
0.0
  0
LINE
  5
565
330
562
100
AcDbEntity
  8
KOTY
 62
     0
100
AcDbLine
 10
52.5
 20
38.61920698643668
 30
0.0
 11
62.5
 21
38.61920698643668
 31
0.0
  0
SOLID
  5
566
330
562
100
AcDbEntity
  8
KOTY
 62
     0
100
AcDbTrace
 10
52.5
 20
39.28587365310334
 30
0.0
 11
52.5
 21
37.95254031977002
 31
0.0
 12
48.5
 22
38.61920698643668
 32
0.0
 13
48.5
 23
38.61920698643668
 33
0.0
  0
SOLID
  5
567
330
562
100
AcDbEntity
  8
KOTY
 62
     0
100
AcDbTrace
 10
62.5
 20
37.95254031977002
 30
0.0
 11
62.5
 21
39.28587365310334
 31
0.0
 12
66.5
 22
38.61920698643668
 32
0.0
 13
66.5
 23
38.61920698643668
 33
0.0
  0
MTEXT
  5
568
330
562
100
AcDbEntity
  8
KOTY
  6
HIDDEN
 62
     0
100
AcDbMText
 10
57.31093343209884
 20
41.66120698643668
 30
0.0
 40
4.0
 41
0.0
 71
     5
 72
     1
  1
\A1;18
  0
POINT
  5
569
330
562
100
AcDbEntity
  8
DEFPOINTS
 62
     0
100
AcDbPoint
 10
48.5
 20
38.61920698643668
 30
0.0
  0
POINT
  5
56A
330
562
100
AcDbEntity
  8
DEFPOINTS
 62
     0
100
AcDbPoint
 10
66.5
 20
38.61920698643668
 30
0.0
  0
POINT
  5
56B
330
562
100
AcDbEntity
  8
DEFPOINTS
 62
     0
100
AcDbPoint
 10
66.5
 20
38.61920698643668
 30
0.0
  0
ENDBLK
  5
56E
330
562
100
AcDbEntity
  8
0
100
AcDbBlockEnd
  0
BLOCK
  5
57D
330
572
100
AcDbEntity
  8
0
100
AcDbBlockBegin
  2
*D3
 70
     1
 10
0.0
 20
0.0
 30
0.0
  3
*D3
  1
*D27
  0
LINE
  5
573
330
572
100
AcDbEntity
  8
KOTY
 62
     0
100
AcDbLine
 10
72.5625
 20
0.0
 30
0.0
 11
82.68
 21
0.0
 31
0.0
  0
LINE
  5
574
330
572
100
AcDbEntity
  8
KOTY
 62
     0
100
AcDbLine
 10
61.7125
 20
92.0
 30
0.0
 11
82.68
 21
92.0
 31
0.0
  0
LINE
  5
575
330
572
100
AcDbEntity
  8
KOTY
 62
     0
100
AcDbLine
 10
82.5
 20
4.0
 30
0.0
 11
82.5
 21
88.0
 31
0.0
  0
SOLID
  5
576
330
572
100
AcDbEntity
  8
KOTY
 62
     0
100
AcDbTrace
 10
81.83333333333333
 20
4.0
 30
0.0
 11
83.16666666666667
 21
4.0
 31
0.0
 12
82.5
 22
0.0
 32
0.0
 13
82.5
 23
0.0
 33
0.0
  0
SOLID
  5
577
330
572
100
AcDbEntity
  8
KOTY
 62
     0
100
AcDbTrace
 10
83.16666666666667
 20
88.0
 30
0.0
 11
81.83333333333333
 21
88.0
 31
0.0
 12
82.5
 22
92.0
 32
0.0
 13
82.5
 23
92.0
 33
0.0
  0
MTEXT
  5
578
330
572
100
AcDbEntity
  8
KOTY
  6
HIDDEN
 62
     0
100
AcDbMText
 10
79.458
 20
46.0
 30
0.0
 40
4.0
 41
0.0
 71
     5
 72
     1
  1
\A1;92
 11
0.0
 21
1.0
 31
0.0
  0
POINT
  5
579
330
572
100
AcDbEntity
  8
DEFPOINTS
 62
     0
100
AcDbPoint
 10
72.5
 20
0.0
 30
0.0
  0
POINT
  5
57A
330
572
100
AcDbEntity
  8
DEFPOINTS
 62
     0
100
AcDbPoint
 10
61.65
 20
92.0
 30
0.0
  0
POINT
  5
57B
330
572
100
AcDbEntity
  8
DEFPOINTS
 62
     0
100
AcDbPoint
 10
82.5
 20
92.0
 30
0.0
  0
ENDBLK
  5
57E
330
572
100
AcDbEntity
  8
0
100
AcDbBlockEnd
  0
BLOCK
  5
58D
330
582
100
AcDbEntity
  8
0
100
AcDbBlockBegin
  2
*D4
 70
     1
 10
0.0
 20
0.0
 30
0.0
  3
*D4
  1
*D28
  0
LINE
  5
583
330
582
100
AcDbEntity
  8
KOTY
 62
     0
100
AcDbLine
 10
0.0
 20
26.5375
 30
0.0
 11
0.0
 21
-28.83628349529303
 31
0.0
  0
LINE
  5
584
330
582
100
AcDbEntity
  8
KOTY
 62
     0
100
AcDbLine
 10
72.5
 20
-0.0625
 30
0.0
 11
72.5
 21
-28.83628349529303
 31
0.0
  0
LINE
  5
585
330
582
100
AcDbEntity
  8
KOTY
 62
     0
100
AcDbLine
 10
4.0
 20
-28.65628349529303
 30
0.0
 11
68.5
 21
-28.65628349529303
 31
0.0
  0
SOLID
  5
586
330
582
100
AcDbEntity
  8
KOTY
 62
     0
100
AcDbTrace
 10
4.0
 20
-27.98961682862636
 30
0.0
 11
4.0
 21
-29.3229501619597
 31
0.0
 12
0.0
 22
-28.65628349529303
 32
0.0
 13
0.0
 23
-28.65628349529303
 33
0.0
  0
SOLID
  5
587
330
582
100
AcDbEntity
  8
KOTY
 62
     0
100
AcDbTrace
 10
68.5
 20
-29.3229501619597
 30
0.0
 11
68.5
 21
-27.98961682862636
 31
0.0
 12
72.5
 22
-28.65628349529303
 32
0.0
 13
72.5
 23
-28.65628349529303
 33
0.0
  0
MTEXT
  5
588
330
582
100
AcDbEntity
  8
KOTY
  6
HIDDEN
 62
     0
100
AcDbMText
 10
35.69797016463227
 20
-25.25428349529303
 30
0.0
 40
4.0
 41
0.0
 71
     5
 72
     1
  1
\A1;72,5
  0
POINT
  5
589
330
582
100
AcDbEntity
  8
DEFPOINTS
 62
     0
100
AcDbPoint
 10
0.0
 20
26.6
 30
0.0
  0
POINT
  5
58A
330
582
100
AcDbEntity
  8
DEFPOINTS
 62
     0
100
AcDbPoint
 10
72.5
 20
0.0
 30
0.0
  0
POINT
  5
58B
330
582
100
AcDbEntity
  8
DEFPOINTS
 62
     0
100
AcDbPoint
 10
72.5
 20
-28.65628349529303
 30
0.0
  0
ENDBLK
  5
58E
330
582
100
AcDbEntity
  8
0
100
AcDbBlockEnd
  0
BLOCK
  5
5BD
330
5B2
100
AcDbEntity
  8
0
100
AcDbBlockBegin
  2
*D5
 70
     1
 10
0.0
 20
0.0
 30
0.0
  3
*D5
  1
*D31
  0
LINE
  5
5B3
330
5B2
100
AcDbEntity
  8
KOTY
 62
     0
100
AcDbLine
 10
-0.0625
 20
26.6
 30
0.0
 11
-10.18
 21
26.6
 31
0.0
  0
LINE
  5
5B4
330
5B2
100
AcDbEntity
  8
KOTY
 62
     0
100
AcDbLine
 10
-0.0625
 20
71.6
 30
0.0
 11
-10.18
 21
71.6
 31
0.0
  0
LINE
  5
5B5
330
5B2
100
AcDbEntity
  8
KOTY
 62
     0
100
AcDbLine
 10
-10.0
 20
30.6
 30
0.0
 11
-9.999999999999998
 21
67.6
 31
0.0
  0
SOLID
  5
5B6
330
5B2
100
AcDbEntity
  8
KOTY
 62
     0
100
AcDbTrace
 10
-10.66666666666667
 20
30.6
 30
0.0
 11
-9.333333333333336
 21
30.6
 31
0.0
 12
-10.0
 22
26.6
 32
0.0
 13
-10.0
 23
26.6
 33
0.0
  0
SOLID
  5
5B7
330
5B2
100
AcDbEntity
  8
KOTY
 62
     0
100
AcDbTrace
 10
-9.333333333333332
 20
67.6
 30
0.0
 11
-10.66666666666666
 21
67.6
 31
0.0
 12
-9.999999999999998
 22
71.6
 32
0.0
 13
-9.999999999999998
 23
71.6
 33
0.0
  0
MTEXT
  5
5B8
330
5B2
100
AcDbEntity
  8
KOTY
  6
HIDDEN
 62
     0
100
AcDbMText
 10
-13.034
 20
46.0
 30
0.0
 40
4.0
 41
0.0
 71
     5
 72
     1
  1
\A1;45
 11
7.894919286223337E-17
 21
1.0
 31
0.0
  0
POINT
  5
5B9
330
5B2
100
AcDbEntity
  8
DEFPOINTS
 62
     0
100
AcDbPoint
 10
0.0
 20
26.6
 30
0.0
  0
POINT
  5
5BA
330
5B2
100
AcDbEntity
  8
DEFPOINTS
 62
     0
100
AcDbPoint
 10
0.0
 20
71.6
 30
0.0
  0
POINT
  5
5BB
330
5B2
100
AcDbEntity
  8
DEFPOINTS
 62
     0
100
AcDbPoint
 10
-9.999999999999998
 20
71.6
 30
0.0
  0
ENDBLK
  5
5BE
330
5B2
100
AcDbEntity
  8
0
100
AcDbBlockEnd
  0
BLOCK
  5
5CD
330
5C2
100
AcDbEntity
  8
0
100
AcDbBlockBegin
  2
*D6
 70
     1
 10
0.0
 20
0.0
 30
0.0
  3
*D6
  1
*D32
  0
LINE
  5
5C3
330
5C2
100
AcDbEntity
  8
KOTY
 62
     0
100
AcDbLine
 10
28.6375
 20
8.1
 30
0.0
 11
-19.19972232291834
 21
8.099999999999994
 31
0.0
  0
LINE
  5
5C4
330
5C2
100
AcDbEntity
  8
KOTY
 62
     0
100
AcDbLine
 10
28.6375
 20
90.1
 30
0.0
 11
-19.19972232291834
 21
90.1
 31
0.0
  0
LINE
  5
5C5
330
5C2
100
AcDbEntity
  8
KOTY
 62
     0
100
AcDbLine
 10
-19.01972232291834
 20
12.09999999999999
 30
0.0
 11
-19.01972232291834
 21
86.1
 31
0.0
  0
SOLID
  5
5C6
330
5C2
100
AcDbEntity
  8
KOTY
 62
     0
100
AcDbTrace
 10
-19.68638898958501
 20
12.09999999999999
 30
0.0
 11
-18.35305565625167
 21
12.09999999999999
 31
0.0
 12
-19.01972232291834
 22
8.099999999999994
 32
0.0
 13
-19.01972232291834
 23
8.099999999999994
 33
0.0
  0
SOLID
  5
5C7
330
5C2
100
AcDbEntity
  8
KOTY
 62
     0
100
AcDbTrace
 10
-18.35305565625167
 20
86.1
 30
0.0
 11
-19.68638898958501
 21
86.1
 31
0.0
 12
-19.01972232291834
 22
90.1
 32
0.0
 13
-19.01972232291834
 23
90.1
 33
0.0
  0
MTEXT
  5
5C8
330
5C2
100
AcDbEntity
  8
KOTY
  6
HIDDEN
 62
     0
100
AcDbMText
 10
-22.06172232291834
 20
46.00000000000001
 30
0.0
 40
4.0
 41
0.0
 71
     5
 72
     1
  1
\A1;82
 11
4.332577657073782E-17
 21
1.0
 31
0.0
  0
POINT
  5
5C9
330
5C2
100
AcDbEntity
  8
DEFPOINTS
 62
     0
100
AcDbPoint
 10
28.7
 20
8.1
 30
0.0
  0
POINT
  5
5CA
330
5C2
100
AcDbEntity
  8
DEFPOINTS
 62
     0
100
AcDbPoint
 10
28.7
 20
90.1
 30
0.0
  0
POINT
  5
5CB
330
5C2
100
AcDbEntity
  8
DEFPOINTS
 62
     0
100
AcDbPoint
 10
-19.01972232291834
 20
90.1
 30
0.0
  0
ENDBLK
  5
5CE
330
5C2
100
AcDbEntity
  8
0
100
AcDbBlockEnd
  0
BLOCK
  5
5E8
330
5DD
100
AcDbEntity
  8
0
100
AcDbBlockBegin
  2
*D7
 70
     1
 10
0.0
 20
0.0
 30
0.0
  3
*D7
  1
*D34
  0
LINE
  5
5DE
330
5DD
100
AcDbEntity
  8
KOTY
 62
     0
100
AcDbLine
 10
66.5
 20
30.4375
 30
0.0
 11
66.5
 21
-10.18
 31
0.0
  0
LINE
  5
5DF
330
5DD
100
AcDbEntity
  8
KOTY
 62
     0
100
AcDbLine
 10
22.5
 20
11.6375
 30
0.0
 11
22.5
 21
-10.18
 31
0.0
  0
LINE
  5
5E0
330
5DD
100
AcDbEntity
  8
KOTY
 62
     0
100
AcDbLine
 10
62.5
 20
-10.0
 30
0.0
 11
26.5
 21
-10.0
 31
0.0
  0
SOLID
  5
5E1
330
5DD
100
AcDbEntity
  8
KOTY
 62
     0
100
AcDbTrace
 10
62.5
 20
-10.66666666666667
 30
0.0
 11
62.5
 21
-9.333333333333334
 31
0.0
 12
66.5
 22
-10.0
 32
0.0
 13
66.5
 23
-10.0
 33
0.0
  0
SOLID
  5
5E2
330
5DD
100
AcDbEntity
  8
KOTY
 62
     0
100
AcDbTrace
 10
26.5
 20
-9.333333333333334
 30
0.0
 11
26.5
 21
-10.66666666666667
 31
0.0
 12
22.5
 22
-10.0
 32
0.0
 13
22.5
 23
-10.0
 33
0.0
  0
MTEXT
  5
5E3
330
5DD
100
AcDbEntity
  8
KOTY
  6
HIDDEN
 62
     0
100
AcDbMText
 10
44.5
 20
-7.0
 30
0.0
 40
4.0
 41
0.0
 71
     5
 72
     1
  1
\A1;44
  0
POINT
  5
5E4
330
5DD
100
AcDbEntity
  8
DEFPOINTS
 62
     0
100
AcDbPoint
 10
66.5
 20
30.5
 30
0.0
  0
POINT
  5
5E5
330
5DD
100
AcDbEntity
  8
DEFPOINTS
 62
     0
100
AcDbPoint
 10
22.5
 20
11.7
 30
0.0
  0
POINT
  5
5E6
330
5DD
100
AcDbEntity
  8
DEFPOINTS
 62
     0
100
AcDbPoint
 10
22.5
 20
-10.0
 30
0.0
  0
ENDBLK
  5
5E9
330
5DD
100
AcDbEntity
  8
0
100
AcDbBlockEnd
  0
BLOCK
  5
5F8
330
5ED
100
AcDbEntity
  8
0
100
AcDbBlockBegin
  2
*D8
 70
     1
 10
0.0
 20
0.0
 30
0.0
  3
*D8
  1
*D35
  0
LINE
  5
5EE
330
5ED
100
AcDbEntity
  8
KOTY
 62
     0
100
AcDbLine
 10
0.0
 20
26.5375
 30
0.0
 11
0.0
 21
-20.40917371962743
 31
0.0
  0
LINE
  5
5EF
330
5ED
100
AcDbEntity
  8
KOTY
 62
     0
100
AcDbLine
 10
66.5
 20
30.375
 30
0.0
 11
66.5
 21
-20.40917371962743
 31
0.0
  0
LINE
  5
5F0
330
5ED
100
AcDbEntity
  8
KOTY
 62
     0
100
AcDbLine
 10
4.0
 20
-20.22917371962743
 30
0.0
 11
62.5
 21
-20.22917371962743
 31
0.0
  0
SOLID
  5
5F1
330
5ED
100
AcDbEntity
  8
KOTY
 62
     0
100
AcDbTrace
 10
4.0
 20
-19.56250705296076
 30
0.0
 11
4.0
 21
-20.8958403862941
 31
0.0
 12
0.0
 22
-20.22917371962743
 32
0.0
 13
0.0
 23
-20.22917371962743
 33
0.0
  0
SOLID
  5
5F2
330
5ED
100
AcDbEntity
  8
KOTY
 62
     0
100
AcDbTrace
 10
62.5
 20
-20.8958403862941
 30
0.0
 11
62.5
 21
-19.56250705296076
 31
0.0
 12
66.5
 22
-20.22917371962743
 32
0.0
 13
66.5
 23
-20.22917371962743
 33
0.0
  0
MTEXT
  5
5F3
330
5ED
100
AcDbEntity
  8
KOTY
  6
HIDDEN
 62
     0
100
AcDbMText
 10
33.25
 20
-16.82717371962743
 30
0.0
 40
4.0
 41
0.0
 71
     5
 72
     1
  1
\A1;66,5
  0
POINT
  5
5F4
330
5ED
100
AcDbEntity
  8
DEFPOINTS
 62
     0
100
AcDbPoint
 10
0.0
 20
26.6
 30
0.0
  0
POINT
  5
5F5
330
5ED
100
AcDbEntity
  8
DEFPOINTS
 62
     0
100
AcDbPoint
 10
66.5
 20
30.4375
 30
0.0
  0
POINT
  5
5F6
330
5ED
100
AcDbEntity
  8
DEFPOINTS
 62
     0
100
AcDbPoint
 10
66.5
 20
-20.22917371962743
 30
0.0
  0
ENDBLK
  5
5F9
330
5ED
100
AcDbEntity
  8
0
100
AcDbBlockEnd
  0
BLOCK
  5
608
330
607
100
AcDbEntity
  8
0
100
AcDbBlockBegin
  2
_CLOSEDBLANK
 70
     0
 10
0.0
 20
0.0
 30
0.0
  3
_CLOSEDBLANK
  1
_ClosedBlank
  0
LINE
  5
60A
330
607
100
AcDbEntity
  8
0
  6
BYBLOCK
 62
     0
100
AcDbLine
 10
-1.0
 20
0.166667
 30
0.0
 11
0.0
 21
0.0
 31
0.0
  0
LINE
  5
60B
330
607
100
AcDbEntity
  8
0
  6
BYBLOCK
 62
     0
100
AcDbLine
 10
0.0
 20
0.0
 30
0.0
 11
-1.0
 21
-0.166667
 31
0.0
  0
LINE
  5
60C
330
607
100
AcDbEntity
  8
0
  6
BYBLOCK
 62
     0
100
AcDbLine
 10
-1.0
 20
0.166667
 30
0.0
 11
-1.0
 21
-0.166667
 31
0.0
  0
ENDBLK
  5
609
330
607
100
AcDbEntity
  8
0
100
AcDbBlockEnd
  0
BLOCK
  5
60E
330
60D
100
AcDbEntity
  8
0
100
AcDbBlockBegin
  2
_CLOSED
 70
     0
 10
0.0
 20
0.0
 30
0.0
  3
_CLOSED
  1
_Closed
  0
LINE
  5
610
330
60D
100
AcDbEntity
  8
0
  6
BYBLOCK
 62
     0
100
AcDbLine
 10
-1.0
 20
0.166667
 30
0.0
 11
0.0
 21
0.0
 31
0.0
  0
LINE
  5
611
330
60D
100
AcDbEntity
  8
0
  6
BYBLOCK
 62
     0
100
AcDbLine
 10
0.0
 20
0.0
 30
0.0
 11
-1.0
 21
-0.166667
 31
0.0
  0
LINE
  5
612
330
60D
100
AcDbEntity
  8
0
  6
BYBLOCK
 62
     0
100
AcDbLine
 10
-1.0
 20
0.166667
 30
0.0
 11
-1.0
 21
-0.166667
 31
0.0
  0
LINE
  5
613
330
60D
100
AcDbEntity
  8
0
  6
BYBLOCK
 62
     0
100
AcDbLine
 10
0.0
 20
0.0
 30
0.0
 11
-1.0
 21
0.0
 31
0.0
  0
ENDBLK
  5
60F
330
60D
100
AcDbEntity
  8
0
100
AcDbBlockEnd
  0
BLOCK
  5
615
330
614
100
AcDbEntity
  8
0
100
AcDbBlockBegin
  2
_DOT
 70
     0
 10
0.0
 20
0.0
 30
0.0
  3
_DOT
  1
_Dot
  0
LWPOLYLINE
  5
617
330
614
100
AcDbEntity
  8
0
  6
BYBLOCK
 62
     0
100
AcDbPolyline
 90
        2
 70
     1
 43
0.5
 10
-0.25
 20
0.0
 42
1.0
 10
0.25
 20
0.0
 42
1.0
  0
LINE
  5
618
330
614
100
AcDbEntity
  8
0
  6
BYBLOCK
 62
     0
100
AcDbLine
 10
-0.5
 20
0.0
 30
0.0
 11
-1.0
 21
0.0
 31
0.0
  0
ENDBLK
  5
616
330
614
100
AcDbEntity
  8
0
100
AcDbBlockEnd
  0
BLOCK
  5
61A
330
619
100
AcDbEntity
  8
0
100
AcDbBlockBegin
  2
_ARCHTICK
 70
     0
 10
0.0
 20
0.0
 30
0.0
  3
_ARCHTICK
  1
_ArchTick
  0
LWPOLYLINE
  5
61C
330
619
100
AcDbEntity
  8
0
  6
BYBLOCK
 62
     0
100
AcDbPolyline
 90
        2
 70
     0
 43
0.15
 10
-0.5
 20
-0.5
 10
0.5
 20
0.5
  0
ENDBLK
  5
61B
330
619
100
AcDbEntity
  8
0
100
AcDbBlockEnd
  0
BLOCK
  5
96A
330
95F
100
AcDbEntity
  8
0
100
AcDbBlockBegin
  2
*D13
 70
     1
 10
0.0
 20
0.0
 30
0.0
  3
*D13
  1
*D44
  0
LINE
  5
960
330
95F
100
AcDbEntity
  8
KOTY
 62
     0
100
AcDbLine
 10
120.0
 20
8.0375
 30
0.0
 11
120.0
 21
-10.18
 31
0.0
  0
LINE
  5
961
330
95F
100
AcDbEntity
  8
KOTY
 62
     0
100
AcDbLine
 10
192.0
 20
8.0375
 30
0.0
 11
192.0
 21
-10.18
 31
0.0
  0
LINE
  5
962
330
95F
100
AcDbEntity
  8
KOTY
 62
     0
100
AcDbLine
 10
124.0
 20
-10.0
 30
0.0
 11
188.0
 21
-10.0
 31
0.0
  0
SOLID
  5
963
330
95F
100
AcDbEntity
  8
KOTY
 62
     0
100
AcDbTrace
 10
124.0
 20
-9.333333333333334
 30
0.0
 11
124.0
 21
-10.66666666666667
 31
0.0
 12
120.0
 22
-10.0
 32
0.0
 13
120.0
 23
-10.0
 33
0.0
  0
SOLID
  5
964
330
95F
100
AcDbEntity
  8
KOTY
 62
     0
100
AcDbTrace
 10
188.0
 20
-10.66666666666667
 30
0.0
 11
188.0
 21
-9.333333333333334
 31
0.0
 12
192.0
 22
-10.0
 32
0.0
 13
192.0
 23
-10.0
 33
0.0
  0
MTEXT
  5
965
330
95F
100
AcDbEntity
  8
KOTY
  6
HIDDEN
 62
     0
100
AcDbMText
 10
156.0
 20
-6.992
 30
0.0
 40
4.0
 41
0.0
 71
     5
 72
     1
  1
\A1;72
  0
POINT
  5
966
330
95F
100
AcDbEntity
  8
DEFPOINTS
 62
     0
100
AcDbPoint
 10
120.0
 20
8.1
 30
0.0
  0
POINT
  5
967
330
95F
100
AcDbEntity
  8
DEFPOINTS
 62
     0
100
AcDbPoint
 10
192.0
 20
8.1
 30
0.0
  0
POINT
  5
968
330
95F
100
AcDbEntity
  8
DEFPOINTS
 62
     0
100
AcDbPoint
 10
192.0
 20
-10.0
 30
0.0
  0
ENDBLK
  5
96B
330
95F
100
AcDbEntity
  8
0
100
AcDbBlockEnd
  0
BLOCK
  5
97A
330
96F
100
AcDbEntity
  8
0
100
AcDbBlockBegin
  2
*D14
 70
     1
 10
0.0
 20
0.0
 30
0.0
  3
*D14
  1
*D45
  0
LINE
  5
970
330
96F
100
AcDbEntity
  8
KOTY
 62
     0
100
AcDbLine
 10
183.0625
 20
81.35
 30
0.0
 11
202.18
 21
81.35
 31
0.0
  0
LINE
  5
971
330
96F
100
AcDbEntity
  8
KOTY
 62
     0
100
AcDbLine
 10
183.0625
 20
16.85
 30
0.0
 11
202.18
 21
16.85
 31
0.0
  0
LINE
  5
972
330
96F
100
AcDbEntity
  8
KOTY
 62
     0
100
AcDbLine
 10
202.0
 20
77.35
 30
0.0
 11
202.0
 21
20.85
 31
0.0
  0
SOLID
  5
973
330
96F
100
AcDbEntity
  8
KOTY
 62
     0
100
AcDbTrace
 10
202.6666666666667
 20
77.35
 30
0.0
 11
201.3333333333333
 21
77.35
 31
0.0
 12
202.0
 22
81.35
 32
0.0
 13
202.0
 23
81.35
 33
0.0
  0
SOLID
  5
974
330
96F
100
AcDbEntity
  8
KOTY
 62
     0
100
AcDbTrace
 10
201.3333333333333
 20
20.85
 30
0.0
 11
202.6666666666667
 21
20.85
 31
0.0
 12
202.0
 22
16.85
 32
0.0
 13
202.0
 23
16.85
 33
0.0
  0
MTEXT
  5
975
330
96F
100
AcDbEntity
  8
KOTY
  6
HIDDEN
 62
     0
100
AcDbMText
 10
198.598
 20
49.09999999999999
 30
0.0
 40
4.0
 41
0.0
 71
     5
 72
     1
  1
\A1;64,5
 11
0.0
 21
1.0
 31
0.0
  0
POINT
  5
976
330
96F
100
AcDbEntity
  8
DEFPOINTS
 62
     0
100
AcDbPoint
 10
183.0
 20
81.35
 30
0.0
  0
POINT
  5
977
330
96F
100
AcDbEntity
  8
DEFPOINTS
 62
     0
100
AcDbPoint
 10
183.0
 20
16.85
 30
0.0
  0
POINT
  5
978
330
96F
100
AcDbEntity
  8
DEFPOINTS
 62
     0
100
AcDbPoint
 10
202.0
 20
16.85
 30
0.0
  0
ENDBLK
  5
97B
330
96F
100
AcDbEntity
  8
0
100
AcDbBlockEnd
  0
BLOCK
  5
9EF
330
9E4
100
AcDbEntity
  8
0
100
AcDbBlockBegin
  2
*D15
 70
     1
 10
0.0
 20
0.0
 30
0.0
  3
*D15
  1
*D46
  0
LINE
  5
9E5
330
9E4
100
AcDbEntity
  8
KOTY
 62
     0
100
AcDbLine
 10
36.0
 20
90.1625
 30
0.0
 11
36.0
 21
102.18
 31
0.0
  0
LINE
  5
9E6
330
9E4
100
AcDbEntity
  8
KOTY
 62
     0
100
AcDbLine
 10
66.5
 20
66.6625
 30
0.0
 11
66.5
 21
102.18
 31
0.0
  0
LINE
  5
9E7
330
9E4
100
AcDbEntity
  8
KOTY
 62
     0
100
AcDbLine
 10
40.0
 20
102.0
 30
0.0
 11
62.5
 21
102.0
 31
0.0
  0
SOLID
  5
9E8
330
9E4
100
AcDbEntity
  8
KOTY
 62
     0
100
AcDbTrace
 10
40.0
 20
102.6666666666667
 30
0.0
 11
40.0
 21
101.3333333333333
 31
0.0
 12
36.0
 22
102.0
 32
0.0
 13
36.0
 23
102.0
 33
0.0
  0
SOLID
  5
9E9
330
9E4
100
AcDbEntity
  8
KOTY
 62
     0
100
AcDbTrace
 10
62.5
 20
101.3333333333333
 30
0.0
 11
62.5
 21
102.6666666666667
 31
0.0
 12
66.5
 22
102.0
 32
0.0
 13
66.5
 23
102.0
 33
0.0
  0
MTEXT
  5
9EA
330
9E4
100
AcDbEntity
  8
KOTY
  6
HIDDEN
 62
     0
100
AcDbMText
 10
51.25
 20
105.402
 30
0.0
 40
4.0
 41
0.0
 71
     5
 72
     1
  1
\A1;30,5
  0
POINT
  5
9EB
330
9E4
100
AcDbEntity
  8
DEFPOINTS
 62
     0
100
AcDbPoint
 10
36.0
 20
90.1
 30
0.0
  0
POINT
  5
9EC
330
9E4
100
AcDbEntity
  8
DEFPOINTS
 62
     0
100
AcDbPoint
 10
66.5
 20
66.6
 30
0.0
  0
POINT
  5
9ED
330
9E4
100
AcDbEntity
  8
DEFPOINTS
 62
     0
100
AcDbPoint
 10
66.5
 20
102.0
 30
0.0
  0
ENDBLK
  5
9F0
330
9E4
100
AcDbEntity
  8
0
100
AcDbBlockEnd
  0
ENDSEC
  0
SECTION
  2
ENTITIES
  0
LINE
  5
E3
330
1F
100
AcDbEntity
  8
OBRYS
 62
     5
100
AcDbLine
 10
72.5
 20
8.1
 30
0.0
 11
72.5
 21
0.0
 31
0.0
  0
LINE
  5
E4
330
1F
100
AcDbEntity
  8
OBRYS
 62
     5
100
AcDbLine
 10
72.5
 20
0.0
 30
0.0
 11
67.9
 21
0.0
 31
0.0
  0
LINE
  5
E5
330
1F
100
AcDbEntity
  8
OBRYS
 62
     5
100
AcDbLine
 10
67.9
 20
0.0
 30
0.0
 11
67.9
 21
8.1
 31
0.0
  0
LINE
  5
E6
330
1F
100
AcDbEntity
  8
OBRYS
 62
     5
100
AcDbLine
 10
67.9
 20
4.5
 30
0.0
 11
66.6
 21
4.5
 31
0.0
  0
LINE
  5
E7
330
1F
100
AcDbEntity
  8
OBRYS
 62
     5
100
AcDbLine
 10
66.6
 20
4.5
 30
0.0
 11
66.6
 21
8.1
 31
0.0
  0
LINE
  5
E8
330
1F
100
AcDbEntity
  8
OBRYS
 62
     5
100
AcDbLine
 10
72.5
 20
8.1
 30
0.0
 11
28.7
 21
8.1
 31
0.0
  0
LINE
  5
EB
330
1F
100
AcDbEntity
  8
OBRYS
 62
     5
100
AcDbLine
 10
65.3
 20
8.1
 30
0.0
 11
65.3
 21
30.5
 31
0.0
  0
LINE
  5
EC
330
1F
100
AcDbEntity
  8
OBRYS
 62
     5
100
AcDbLine
 10
65.3
 20
30.5
 30
0.0
 11
72.5
 21
30.5
 31
0.0
  0
LINE
  5
ED
330
1F
100
AcDbEntity
  8
OBRYS
 62
     5
100
AcDbLine
 10
72.5
 20
30.5
 30
0.0
 11
72.5
 21
8.1
 31
0.0
  0
LINE
  5
EE
330
1F
100
AcDbEntity
  8
OBRYS
 62
     5
100
AcDbLine
 10
61.65
 20
6.2
 30
0.0
 11
49.34999999999999
 21
6.2
 31
0.0
  0
LINE
  5
F0
330
1F
100
AcDbEntity
  8
OBRYS
 62
     5
100
AcDbLine
 10
61.65
 20
6.2
 30
0.0
 11
62.8
 21
8.1
 31
0.0
  0
LINE
  5
F1
330
1F
100
AcDbEntity
  8
OBRYS
 62
     5
100
AcDbLine
 10
49.34999999999999
 20
6.2
 30
0.0
 11
48.2
 21
8.1
 31
0.0
  0
LINE
  5
F2
330
1F
100
AcDbEntity
  8
OBRYS
 62
     5
100
AcDbLine
 10
22.5
 20
11.7
 30
0.0
 11
22.5
 21
26.1
 31
0.0
  0
LINE
  5
F3
330
1F
100
AcDbEntity
  8
OBRYS
 62
     5
100
AcDbLine
 10
22.5
 20
11.7
 30
0.0
 11
23.35474539744931
 21
11.20330606154289
 31
0.0
  0
LINE
  5
F6
330
1F
100
AcDbEntity
  8
OBRYS
 62
     5
100
AcDbLine
 10
66.5
 20
30.5
 30
0.0
 11
66.5
 21
66.6
 31
0.0
  0
LINE
  5
F7
330
1F
100
AcDbEntity
  8
OBRYS
 62
     5
100
AcDbLine
 10
66.5
 20
66.6
 30
0.0
 11
72.5
 21
66.6
 31
0.0
  0
LINE
  5
F8
330
1F
100
AcDbEntity
  8
OBRYS
 62
     5
100
AcDbLine
 10
72.5
 20
66.6
 30
0.0
 11
72.5
 21
83.3
 31
0.0
  0
LINE
  5
F9
330
1F
100
AcDbEntity
  8
OBRYS
 62
     5
100
AcDbLine
 10
72.5
 20
66.6
 30
0.0
 11
72.5
 21
64.7
 31
0.0
  0
LINE
  5
FA
330
1F
100
AcDbEntity
  8
OBRYS
 62
     5
100
AcDbLine
 10
72.5
 20
64.7
 30
0.0
 11
69.5
 21
64.7
 31
0.0
  0
LINE
  5
FB
330
1F
100
AcDbEntity
  8
OBRYS
 62
     5
100
AcDbLine
 10
69.5
 20
64.7
 30
0.0
 11
68.1
 21
66.6
 31
0.0
  0
LINE
  5
FD
330
1F
100
AcDbEntity
  8
OBRYS
 62
     5
100
AcDbLine
 10
25.0
 20
26.4
 30
0.0
 11
48.5
 21
26.4
 31
0.0
  0
LINE
  5
FE
330
1F
100
AcDbEntity
  8
OBRYS
 62
     5
100
AcDbLine
 10
48.5
 20
26.4
 30
0.0
 11
48.5
 21
71.8
 31
0.0
  0
LINE
  5
FF
330
1F
100
AcDbEntity
  8
OBRYS
 62
     5
100
AcDbLine
 10
48.5
 20
71.8
 30
0.0
 11
25.0
 21
71.8
 31
0.0
  0
LINE
  5
100
330
1F
100
AcDbEntity
  8
OBRYS
 62
     5
100
AcDbLine
 10
22.5
 20
72.1
 30
0.0
 11
22.5
 21
86.5
 31
0.0
  0
LINE
  5
112
330
1F
100
AcDbEntity
  8
OBRYS
 62
     5
100
AcDbLine
 10
28.7
 20
90.1
 30
0.0
 11
70.8
 21
90.1
 31
0.0
  0
LINE
  5
115
330
1F
100
AcDbEntity
  8
OBRYS
 62
     5
100
AcDbLine
 10
48.5
 20
26.6
 30
0.0
 11
9.1
 21
26.6
 31
0.0
  0
LINE
  5
116
330
1F
100
AcDbEntity
  8
OBRYS
 62
     5
100
AcDbLine
 10
48.5
 20
71.6
 30
0.0
 11
9.1
 21
71.6
 31
0.0
  0
LINE
  5
117
330
1F
100
AcDbEntity
  8
OBRYS
 62
     5
100
AcDbLine
 10
0.0
 20
26.6
 30
0.0
 11
0.0
 21
71.6
 31
0.0
  0
LINE
  5
128
330
1F
100
AcDbEntity
  8
OBRYS
 62
     5
100
AcDbLine
 10
0.0
 20
26.6
 30
0.0
 11
2.0
 21
26.6
 31
0.0
  0
LINE
  5
129
330
1F
100
AcDbEntity
  8
OBRYS
 62
     5
100
AcDbLine
 10
0.0
 20
71.6
 30
0.0
 11
2.0
 21
71.6
 31
0.0
  0
LINE
  5
14A
330
1F
100
AcDbEntity
  8
OBRYS
 62
     5
100
AcDbLine
 10
2.5
 20
27.1
 30
0.0
 11
8.6
 21
27.1
 31
0.0
  0
LINE
  5
15B
330
1F
100
AcDbEntity
  8
OBRYS
 62
     5
100
AcDbLine
 10
2.0
 20
26.6
 30
0.0
 11
2.5
 21
27.1
 31
0.0
  0
LINE
  5
15C
330
1F
100
AcDbEntity
  8
OBRYS
 62
     5
100
AcDbLine
 10
8.6
 20
27.1
 30
0.0
 11
9.1
 21
26.6
 31
0.0
  0
LINE
  5
15F
330
1F
100
AcDbEntity
  8
OBRYS
 62
     5
100
AcDbLine
 10
2.5
 20
71.1
 30
0.0
 11
8.6
 21
71.1
 31
0.0
  0
LINE
  5
160
330
1F
100
AcDbEntity
  8
OBRYS
 62
     5
100
AcDbLine
 10
2.0
 20
71.6
 30
0.0
 11
2.5
 21
71.1
 31
0.0
  0
LINE
  5
161
330
1F
100
AcDbEntity
  8
OBRYS
 62
     5
100
AcDbLine
 10
8.6
 20
71.1
 30
0.0
 11
9.1
 21
71.6
 31
0.0
  0
ARC
  5
175
330
1F
100
AcDbEntity
  8
OBRYS
 62
     5
100
AcDbCircle
 10
5.45
 20
27.1
 30
0.0
 40
0.25
100
AcDbArc
 50
180.0
 51
0.3652309648402171
  0
ARC
  5
17A
330
1F
100
AcDbEntity
  8
OBRYS
 62
     5
100
AcDbCircle
 10
3.55
 20
27.1
 30
0.0
 40
0.25
100
AcDbArc
 50
180.0
 51
0.1423211833411854
  0
ARC
  5
17B
330
1F
100
AcDbEntity
  8
OBRYS
 62
     5
100
AcDbCircle
 10
7.35
 20
27.1
 30
0.0
 40
0.25
100
AcDbArc
 50
180.0
 51
358.9752080979408
  0
ARC
  5
17F
330
1F
100
AcDbEntity
  8
OBRYS
 62
     5
100
AcDbCircle
 10
3.55
 20
71.1
 30
0.0
 40
0.25
100
AcDbArc
 50
0.0
 51
179.6960893550858
  0
ARC
  5
180
330
1F
100
AcDbEntity
  8
OBRYS
 62
     5
100
AcDbCircle
 10
5.45
 20
71.1
 30
0.0
 40
0.25
100
AcDbArc
 50
0.0
 51
179.6818731305043
  0
ARC
  5
182
330
1F
100
AcDbEntity
  8
OBRYS
 62
     5
100
AcDbCircle
 10
7.35
 20
71.1
 30
0.0
 40
0.25
100
AcDbArc
 50
0.0
 51
180.4641496716499
  0
LINE
  5
184
330
1F
100
AcDbEntity
  8
OBRYS
 62
     5
100
AcDbLine
 10
49.34999999999999
 20
92.0
 30
0.0
 11
61.65
 21
92.0
 31
0.0
  0
LINE
  5
185
330
1F
100
AcDbEntity
  8
OBRYS
 62
     5
100
AcDbLine
 10
70.8
 20
90.1
 30
0.0
 11
72.5
 21
83.3
 31
0.0
  0
LINE
  5
186
330
1F
100
AcDbEntity
  8
OBRYS
 62
     5
100
AcDbLine
 10
49.34999999999999
 20
92.0
 30
0.0
 11
48.2
 21
90.1
 31
0.0
  0
LINE
  5
187
330
1F
100
AcDbEntity
  8
OBRYS
 62
     5
100
AcDbLine
 10
61.65
 20
92.0
 30
0.0
 11
62.8
 21
90.1
 31
0.0
  0
LINE
  5
198
330
1F
100
AcDbEntity
  8
OBRYS
 62
     5
100
AcDbLine
 10
22.5
 20
86.5
 30
0.0
 11
28.7
 21
90.1
 31
0.0
  0
LINE
  5
1A0
330
1F
100
AcDbEntity
  8
OBRYS
 62
     5
100
AcDbLine
 10
22.5
 20
26.1
 30
0.0
 11
25.0
 21
26.4
 31
0.0
  0
LINE
  5
1A1
330
1F
100
AcDbEntity
  8
OBRYS
 62
     5
100
AcDbLine
 10
22.5
 20
72.1
 30
0.0
 11
25.0
 21
71.8
 31
0.0
  0
LINE
  5
1C5
330
1F
100
AcDbEntity
  8
OBRYS
 62
     5
100
AcDbLine
 10
62.9
 20
15.6
 30
0.0
 11
62.9
 21
18.7
 31
0.0
  0
LINE
  5
1C6
330
1F
100
AcDbEntity
  8
OBRYS
 62
     5
100
AcDbLine
 10
62.9
 20
18.7
 30
0.0
 11
59.8
 21
18.7
 31
0.0
  0
LINE
  5
1C7
330
1F
100
AcDbEntity
  8
OBRYS
 62
     5
100
AcDbLine
 10
59.8
 20
18.7
 30
0.0
 11
59.8
 21
15.6
 31
0.0
  0
LINE
  5
1C8
330
1F
100
AcDbEntity
  8
OBRYS
 62
     5
100
AcDbLine
 10
59.8
 20
15.6
 30
0.0
 11
62.9
 21
15.6
 31
0.0
  0
LINE
  5
1CD
330
1F
100
AcDbEntity
  8
OBRYS
 62
     5
100
AcDbLine
 10
62.2
 20
15.6
 30
0.0
 11
62.2
 21
18.7
 31
0.0
  0
LINE
  5
1CE
330
1F
100
AcDbEntity
  8
OBRYS
 62
     5
100
AcDbLine
 10
60.2
 20
15.6
 30
0.0
 11
60.2
 21
18.7
 31
0.0
  0
LINE
  5
1CF
330
1F
100
AcDbEntity
  8
OBRYS
 62
     5
100
AcDbLine
 10
62.9
 20
47.5
 30
0.0
 11
62.9
 21
50.59999999999999
 31
0.0
  0
LINE
  5
1D0
330
1F
100
AcDbEntity
  8
OBRYS
 62
     5
100
AcDbLine
 10
62.9
 20
50.59999999999999
 30
0.0
 11
59.8
 21
50.59999999999999
 31
0.0
  0
LINE
  5
1D1
330
1F
100
AcDbEntity
  8
OBRYS
 62
     5
100
AcDbLine
 10
59.8
 20
50.59999999999999
 30
0.0
 11
59.8
 21
47.5
 31
0.0
  0
LINE
  5
1D2
330
1F
100
AcDbEntity
  8
OBRYS
 62
     5
100
AcDbLine
 10
59.8
 20
47.5
 30
0.0
 11
62.9
 21
47.5
 31
0.0
  0
LINE
  5
1D3
330
1F
100
AcDbEntity
  8
OBRYS
 62
     5
100
AcDbLine
 10
62.2
 20
47.5
 30
0.0
 11
62.2
 21
50.59999999999999
 31
0.0
  0
LINE
  5
1D4
330
1F
100
AcDbEntity
  8
OBRYS
 62
     5
100
AcDbLine
 10
60.2
 20
47.5
 30
0.0
 11
60.2
 21
50.59999999999999
 31
0.0
  0
LINE
  5
2B6
330
1F
100
AcDbEntity
  8
OBRYS
 62
     5
100
AcDbLine
 10
27.83479919941555
 20
8.602374658403873
 30
0.0
 11
28.7
 21
8.1
 31
0.0
  0
LINE
  5
2BB
330
1F
100
AcDbEntity
  8
OBRYS
 62
     5
100
AcDbLine
 10
27.83479919941555
 20
8.602374658403873
 30
0.0
 11
23.35474539744931
 21
11.20330606154289
 31
0.0
  0
LINE
  5
3EF
330
1F
100
AcDbEntity
  8
OBRYS
 62
     5
100
AcDbLine
 10
125.4969719792858
 20
0.0000000000000033
 30
0.0
 11
132.4892480580031
 21
0.0000000000000007
 31
0.0
  0
LINE
  5
3F0
330
1F
100
AcDbEntity
  8
OBRYS
 62
     5
100
AcDbLine
 10
120.0
 20
8.1
 30
0.0
 11
138.0
 21
8.1
 31
0.0
  0
LINE
  5
3F4
330
1F
100
AcDbEntity
  8
OBRYS
 62
     5
100
AcDbLine
 10
125.7071067811866
 20
1.0
 30
0.0
 11
132.2928932188134
 21
1.0
 31
0.0
  0
LINE
  5
3F5
330
1F
100
AcDbEntity
  8
OBRYS
 62
     5
100
AcDbLine
 10
125.0
 20
1.707106781186548
 30
0.0
 11
125.0
 21
6.203129630619872
 31
0.0
  0
LINE
  5
3F6
330
1F
100
AcDbEntity
  8
OBRYS
 62
     5
100
AcDbLine
 10
133.0
 20
1.707106781186548
 30
0.0
 11
133.0
 21
6.203129630619873
 31
0.0
  0
ARC
  5
3F7
330
1F
100
AcDbEntity
  8
OBRYS
 62
     5
100
AcDbCircle
 10
125.7071067811866
 20
1.707106781186548
 30
0.0
 40
0.707106781186548
100
AcDbArc
 50
180.0
 51
270.0
  0
ARC
  5
3F8
330
1F
100
AcDbEntity
  8
OBRYS
 62
     5
100
AcDbCircle
 10
132.2928932188134
 20
1.707106781186548
 30
0.0
 40
0.707106781186548
100
AcDbArc
 50
270.0
 51
359.9999999999998
  0
LINE
  5
3F9
330
1F
100
AcDbEntity
  8
OBRYS
 62
     5
100
AcDbLine
 10
121.7
 20
8.1
 30
0.0
 11
121.7
 21
5.207106781186549
 31
0.0
  0
LINE
  5
3FA
330
1F
100
AcDbEntity
  8
OBRYS
 62
     5
100
AcDbLine
 10
125.0
 20
4.5
 30
0.0
 11
122.4071067811866
 21
4.500000000000001
 31
0.0
  0
ARC
  5
3FB
330
1F
100
AcDbEntity
  8
OBRYS
 62
     5
100
AcDbCircle
 10
122.4071067811866
 20
5.207106781186549
 30
0.0
 40
0.707106781186548
100
AcDbArc
 50
180.0
 51
270.0
  0
LINE
  5
3FC
330
1F
100
AcDbEntity
  8
OBRYS
 62
     5
100
AcDbLine
 10
136.3
 20
8.100000000000001
 30
0.0
 11
136.3
 21
5.207106781186541
 31
0.0
  0
LINE
  5
3FD
330
1F
100
AcDbEntity
  8
OBRYS
 62
     5
100
AcDbLine
 10
133.0170014197672
 20
4.5
 30
0.0
 11
135.5928932188135
 21
4.5
 31
0.0
  0
ARC
  5
3FE
330
1F
100
AcDbEntity
  8
OBRYS
 62
     5
100
AcDbCircle
 10
135.5928932188135
 20
5.207106781186548
 30
0.0
 40
0.7071067811865475
100
AcDbArc
 50
270.0
 51
359.9999999999993
  0
LINE
  5
3FF
330
1F
100
AcDbEntity
  8
OBRYS
 62
     5
100
AcDbLine
 10
124.0
 20
4.5
 30
0.0
 11
123.9999990265624
 21
1.503194007024523
 31
0.0
  0
LINE
  5
400
330
1F
100
AcDbEntity
  8
OBRYS
 62
     5
100
AcDbLine
 10
134.0
 20
4.5
 30
0.0
 11
134.0
 21
1.49604698548332
 31
0.0
  0
ARC
  5
401
330
1F
100
AcDbEntity
  8
OBRYS
 62
     5
100
AcDbCircle
 10
132.4601391923747
 20
1.540219193746501
 30
0.0
 40
1.540494235900705
100
AcDbArc
 50
271.0827138285986
 51
358.356872755389
  0
ARC
  5
402
330
1F
100
AcDbEntity
  8
OBRYS
 62
     5
100
AcDbCircle
 10
125.5032078059073
 20
1.503195845114476
 30
0.0
 40
1.503208779346059
100
AcDbArc
 50
179.9347947880687
 51
269.7623167341429
  0
LINE
  5
403
330
1F
100
AcDbEntity
  8
OBRYS
 62
     5
100
AcDbLine
 10
120.0
 20
8.1
 30
0.0
 11
120.0
 21
90.1
 31
0.0
  0
LINE
  5
404
330
1F
100
AcDbEntity
  8
OBRYS
 62
     5
100
AcDbLine
 10
120.0
 20
90.1
 30
0.0
 11
138.0
 21
90.1
 31
0.0
  0
LINE
  5
406
330
1F
100
AcDbEntity
  8
OBRYS
 62
     5
100
AcDbLine
 10
123.15
 20
91.99999999999999
 30
0.0
 11
121.95
 21
90.1
 31
0.0
  0
LINE
  5
407
330
1F
100
AcDbEntity
  8
OBRYS
 62
     5
100
AcDbLine
 10
123.15
 20
91.99999999999999
 30
0.0
 11
134.85
 21
91.99999999999999
 31
0.0
  0
LINE
  5
408
330
1F
100
AcDbEntity
  8
OBRYS
 62
     5
100
AcDbLine
 10
134.85
 20
91.99999999999999
 30
0.0
 11
136.05
 21
90.1
 31
0.0
  0
LINE
  5
409
330
1F
100
AcDbEntity
  8
OBRYS
 62
     5
100
AcDbLine
 10
120.0
 20
26.1
 30
0.0
 11
138.0
 21
26.1
 31
0.0
  0
LINE
  5
40A
330
1F
100
AcDbEntity
  8
OBRYS
 62
     5
100
AcDbLine
 10
120.3
 20
26.6
 30
0.0
 11
137.7
 21
26.6
 31
0.0
  0
LINE
  5
40B
330
1F
100
AcDbEntity
  8
OBRYS
 62
     5
100
AcDbLine
 10
120.3
 20
71.6
 30
0.0
 11
137.7
 21
71.6
 31
0.0
  0
LINE
  5
40C
330
1F
100
AcDbEntity
  8
OBRYS
 62
     5
100
AcDbLine
 10
120.0
 20
72.1
 30
0.0
 11
138.0
 21
72.1
 31
0.0
  0
LINE
  5
40E
330
1F
100
AcDbEntity
  8
OBRYS
 62
     5
100
AcDbLine
 10
127.3
 20
26.1
 30
0.0
 11
127.3
 21
24.6
 31
0.0
  0
LINE
  5
40F
330
1F
100
AcDbEntity
  8
OBRYS
 62
     5
100
AcDbLine
 10
127.3
 20
24.6
 30
0.0
 11
129.0
 21
24.6
 31
0.0
  0
LINE
  5
410
330
1F
100
AcDbEntity
  8
OBRYS
 62
     5
100
AcDbLine
 10
129.0
 20
24.6
 30
0.0
 11
129.0
 21
26.1
 31
0.0
  0
LINE
  5
411
330
1F
100
AcDbEntity
  8
OBRYS
 62
     5
100
AcDbLine
 10
126.45
 20
26.1
 30
0.0
 11
126.45
 21
23.6
 31
0.0
  0
LINE
  5
412
330
1F
100
AcDbEntity
  8
OBRYS
 62
     5
100
AcDbLine
 10
126.45
 20
23.6
 30
0.0
 11
129.85
 21
23.6
 31
0.0
  0
LINE
  5
413
330
1F
100
AcDbEntity
  8
OBRYS
 62
     5
100
AcDbLine
 10
129.85
 20
23.6
 30
0.0
 11
129.85
 21
26.1
 31
0.0
  0
LINE
  5
414
330
1F
100
AcDbEntity
  8
OBRYS
 62
     5
100
AcDbLine
 10
126.45
 20
23.6
 30
0.0
 11
127.3
 21
24.6
 31
0.0
  0
LINE
  5
415
330
1F
100
AcDbEntity
  8
OBRYS
 62
     5
100
AcDbLine
 10
129.0
 20
24.6
 30
0.0
 11
129.85
 21
23.6
 31
0.0
  0
LINE
  5
416
330
1F
100
AcDbEntity
  8
OBRYS
 62
     5
100
AcDbLine
 10
127.3
 20
72.1
 30
0.0
 11
127.3
 21
73.6
 31
0.0
  0
LINE
  5
417
330
1F
100
AcDbEntity
  8
OBRYS
 62
     5
100
AcDbLine
 10
127.3
 20
73.6
 30
0.0
 11
129.0
 21
73.6
 31
0.0
  0
LINE
  5
418
330
1F
100
AcDbEntity
  8
OBRYS
 62
     5
100
AcDbLine
 10
129.0
 20
73.6
 30
0.0
 11
129.0
 21
72.1
 31
0.0
  0
LINE
  5
419
330
1F
100
AcDbEntity
  8
OBRYS
 62
     5
100
AcDbLine
 10
126.45
 20
72.1
 30
0.0
 11
126.45
 21
74.6
 31
0.0
  0
LINE
  5
41A
330
1F
100
AcDbEntity
  8
OBRYS
 62
     5
100
AcDbLine
 10
126.45
 20
74.6
 30
0.0
 11
129.85
 21
74.6
 31
0.0
  0
LINE
  5
41B
330
1F
100
AcDbEntity
  8
OBRYS
 62
     5
100
AcDbLine
 10
129.85
 20
74.6
 30
0.0
 11
129.85
 21
72.1
 31
0.0
  0
LINE
  5
41C
330
1F
100
AcDbEntity
  8
OBRYS
 62
     5
100
AcDbLine
 10
126.45
 20
74.6
 30
0.0
 11
127.3
 21
73.6
 31
0.0
  0
LINE
  5
41D
330
1F
100
AcDbEntity
  8
OBRYS
 62
     5
100
AcDbLine
 10
129.0
 20
73.6
 30
0.0
 11
129.85
 21
74.6
 31
0.0
  0
LINE
  5
41F
330
1F
100
AcDbEntity
  8
OBRYS
 62
     5
100
AcDbLine
 10
120.0
 20
11.7
 30
0.0
 11
138.0
 21
11.7
 31
0.0
  0
LINE
  5
420
330
1F
100
AcDbEntity
  8
OBRYS
 62
     5
100
AcDbLine
 10
120.0
 20
86.5
 30
0.0
 11
138.0
 21
86.5
 31
0.0
  0
CIRCLE
  5
434
330
1F
100
AcDbEntity
  8
OBRYS
 62
     5
100
AcDbCircle
 10
129.0
 20
81.35
 30
0.0
 40
3.2
  0
LINE
  5
435
330
1F
100
AcDbEntity
  8
OBRYS
 62
     5
100
AcDbLine
 10
128.35
 20
78.21671099322133
 30
0.0
 11
128.35
 21
79.99289321881345
 31
0.0
  0
LINE
  5
436
330
1F
100
AcDbEntity
  8
OBRYS
 62
     5
100
AcDbLine
 10
128.35
 20
82.70710678118654
 30
0.0
 11
128.35
 21
84.48328900677866
 31
0.0
  0
LINE
  5
437
330
1F
100
AcDbEntity
  8
OBRYS
 62
     5
100
AcDbLine
 10
129.65
 20
78.21671099322133
 30
0.0
 11
129.65
 21
79.99289321881345
 31
0.0
  0
LINE
  5
438
330
1F
100
AcDbEntity
  8
OBRYS
 62
     5
100
AcDbLine
 10
129.65
 20
82.70710678118654
 30
0.0
 11
129.65
 21
84.48328900677865
 31
0.0
  0
ARC
  5
439
330
1F
100
AcDbEntity
  8
OBRYS
 62
     5
100
AcDbCircle
 10
127.6428932188135
 20
82.70710678118654
 30
0.0
 40
0.707106781186548
100
AcDbArc
 50
270.0
 51
0.0
  0
ARC
  5
43A
330
1F
100
AcDbEntity
  8
OBRYS
 62
     5
100
AcDbCircle
 10
130.3571067811866
 20
82.70710678118654
 30
0.0
 40
0.707106781186548
100
AcDbArc
 50
180.0
 51
270.0
  0
ARC
  5
43B
330
1F
100
AcDbEntity
  8
OBRYS
 62
     5
100
AcDbCircle
 10
130.3571067811866
 20
79.99289321881345
 30
0.0
 40
0.707106781186548
100
AcDbArc
 50
90.0
 51
180.0
  0
ARC
  5
43C
330
1F
100
AcDbEntity
  8
OBRYS
 62
     5
100
AcDbCircle
 10
127.6428932188135
 20
79.99289321881345
 30
0.0
 40
0.707106781186548
100
AcDbArc
 50
0.0
 51
90.0
  0
LINE
  5
43D
330
1F
100
AcDbEntity
  8
OBRYS
 62
     5
100
AcDbLine
 10
126.75
 20
80.69999999999999
 30
0.0
 11
126.75
 21
81.99999999999999
 31
0.0
  0
LINE
  5
43E
330
1F
100
AcDbEntity
  8
OBRYS
 62
     5
100
AcDbLine
 10
131.25
 20
80.69999999999999
 30
0.0
 11
131.25
 21
81.99999999999999
 31
0.0
  0
LINE
  5
43F
330
1F
100
AcDbEntity
  8
OBRYS
 62
     5
100
AcDbLine
 10
130.3571067811866
 20
80.69999999999999
 30
0.0
 11
131.2451978939826
 21
80.69999999999999
 31
0.0
  0
LINE
  5
440
330
1F
100
AcDbEntity
  8
OBRYS
 62
     5
100
AcDbLine
 10
130.3571067811866
 20
81.99999999999999
 30
0.0
 11
131.2451978939826
 21
81.99999999999999
 31
0.0
  0
LINE
  5
441
330
1F
100
AcDbEntity
  8
OBRYS
 62
     5
100
AcDbLine
 10
126.7548021060174
 20
81.99999999999999
 30
0.0
 11
127.6428932188135
 21
81.99999999999999
 31
0.0
  0
LINE
  5
442
330
1F
100
AcDbEntity
  8
OBRYS
 62
     5
100
AcDbLine
 10
129.8571067811866
 20
82.20710678118654
 30
0.0
 11
130.3571067811866
 21
82.70710678118654
 31
0.0
  0
LINE
  5
443
330
1F
100
AcDbEntity
  8
OBRYS
 62
     5
100
AcDbLine
 10
126.7548021060174
 20
80.69999999999999
 30
0.0
 11
127.6428932188135
 21
80.69999999999999
 31
0.0
  0
LINE
  5
444
330
1F
100
AcDbEntity
  8
OBRYS
 62
     5
100
AcDbLine
 10
129.8571067811866
 20
80.49289321881345
 30
0.0
 11
130.3571067811866
 21
79.99289321881345
 31
0.0
  0
LINE
  5
445
330
1F
100
AcDbEntity
  8
OBRYS
 62
     5
100
AcDbLine
 10
128.1428932188135
 20
82.20710678118654
 30
0.0
 11
127.6428932188135
 21
82.70710678118654
 31
0.0
  0
LINE
  5
446
330
1F
100
AcDbEntity
  8
OBRYS
 62
     5
100
AcDbLine
 10
128.1428932188135
 20
80.49289321881345
 30
0.0
 11
127.6428932188135
 21
79.99289321881345
 31
0.0
  0
CIRCLE
  5
447
330
1F
100
AcDbEntity
  8
OBRYS
 62
     5
100
AcDbCircle
 10
129.0
 20
81.35
 30
0.0
 40
0.7
  0
LINE
  5
44F
330
1F
100
AcDbEntity
  8
OBRYS
 62
     5
100
AcDbLine
 10
120.0
 20
89.6
 30
0.0
 11
138.0
 21
89.6
 31
0.0
  0
LINE
  5
4E0
330
1F
100
AcDbEntity
  8
OBRYS
 62
     5
100
AcDbLine
 10
23.17858802006699
 20
11.88396178886323
 30
0.0
 11
23.60596071879165
 21
11.63561481963468
 31
0.0
  0
LINE
  5
4E1
330
1F
100
AcDbEntity
  8
OBRYS
 62
     5
100
AcDbLine
 10
28.08586695810881
 20
9.034769131708918
 30
0.0
 11
28.51846735840103
 21
8.783581802506982
 31
0.0
  0
LINE
  5
4E2
330
1F
100
AcDbEntity
  8
OBRYS
 62
     5
100
AcDbLine
 10
23.17858802006699
 20
11.88396178886323
 30
0.0
 11
23.73102181544385
 21
12.83537554756782
 31
0.0
  0
LINE
  5
4E3
330
1F
100
AcDbEntity
  8
OBRYS
 62
     5
100
AcDbLine
 10
28.51846735840103
 20
8.783581802506982
 30
0.0
 11
29.07081642752618
 21
9.73484964377808
 31
0.0
  0
LINE
  5
4E4
330
1F
100
AcDbEntity
  8
OBRYS
 62
     5
100
AcDbLine
 10
27.83479919941555
 20
8.602374658403873
 30
0.0
 11
28.08586695810881
 21
9.034769131708918
 31
0.0
  0
LINE
  5
4E5
330
1F
100
AcDbEntity
  8
OBRYS
 62
     5
100
AcDbLine
 10
23.35474539744931
 20
11.20330606154289
 30
0.0
 11
23.60581314151945
 21
11.63570050966369
 31
0.0
  0
LINE
  5
4E6
330
1F
100
AcDbEntity
  8
OBRYS
 62
     5
100
AcDbLine
 10
23.73102181544385
 20
12.83537554756782
 30
0.0
 11
29.07081642752618
 21
9.73484964377808
 31
0.0
  0
ELLIPSE
  5
4E7
330
1F
100
AcDbEntity
  8
OBRYS
 62
     5
100
AcDbEllipse
 10
26.40091912148502
 20
11.28511259567295
 30
0.0
 11
-1.039943320270123
 21
0.6038380569310341
 31
0.0
210
0.0
220
0.0
230
1.0
 40
0.6385440653482459
 41
6.283185307179586
 42
9.42477796076938
  0
LINE
  5
4E8
330
1F
100
AcDbEntity
  8
OBRYS
 62
     5
100
AcDbLine
 10
24.60098340460934
 20
12.33023656031044
 30
0.0
 11
24.09875154992429
 21
11.46515194972255
 31
0.0
  0
LINE
  5
4E9
330
1F
100
AcDbEntity
  8
OBRYS
 62
     5
100
AcDbLine
 10
28.20211116541818
 20
10.23925915080853
 30
0.0
 11
27.70001548530882
 21
9.374409098281191
 31
0.0
  0
LINE
  5
4EA
330
1F
100
AcDbEntity
  8
OBRYS
 62
     5
100
AcDbLine
 10
27.70001548530882
 20
9.374409098281191
 30
0.0
 11
24.09875154992429
 21
11.46515194972255
 31
0.0
  0
LINE
  5
4EB
330
1F
100
AcDbEntity
  8
OBRYS
 62
     5
100
AcDbLine
 10
23.17858802006699
 20
86.31603821113676
 30
0.0
 11
23.60596071879165
 21
86.5643851803653
 31
0.0
  0
LINE
  5
4EC
330
1F
100
AcDbEntity
  8
OBRYS
 62
     5
100
AcDbLine
 10
28.08586695810881
 20
89.16523086829106
 30
0.0
 11
28.51846735840103
 21
89.416418197493
 31
0.0
  0
LINE
  5
4ED
330
1F
100
AcDbEntity
  8
OBRYS
 62
     5
100
AcDbLine
 10
23.17858802006699
 20
86.31603821113676
 30
0.0
 11
23.73102181544385
 21
85.36462445243217
 31
0.0
  0
LINE
  5
4EE
330
1F
100
AcDbEntity
  8
OBRYS
 62
     5
100
AcDbLine
 10
28.51846735840103
 20
89.416418197493
 30
0.0
 11
29.07081642752618
 21
88.4651503562219
 31
0.0
  0
LINE
  5
4EF
330
1F
100
AcDbEntity
  8
OBRYS
 62
     5
100
AcDbLine
 10
27.83479919941555
 20
89.59762534159611
 30
0.0
 11
28.08586695810881
 21
89.16523086829106
 31
0.0
  0
LINE
  5
4F0
330
1F
100
AcDbEntity
  8
OBRYS
 62
     5
100
AcDbLine
 10
23.35474539744931
 20
86.9966939384571
 30
0.0
 11
23.60581314151945
 21
86.5642994903363
 31
0.0
  0
LINE
  5
4F1
330
1F
100
AcDbEntity
  8
OBRYS
 62
     5
100
AcDbLine
 10
23.73102181544385
 20
85.36462445243217
 30
0.0
 11
29.07081642752618
 21
88.4651503562219
 31
0.0
  0
ELLIPSE
  5
4F2
330
1F
100
AcDbEntity
  8
OBRYS
 62
     5
100
AcDbEllipse
 10
26.40091912148502
 20
86.91488740432703
 30
0.0
 11
-1.039943320270123
 21
-0.603838056931034
 31
0.0
210
0.0
220
0.0
230
-1.0
 40
0.6385440653482459
 41
6.283185307179586
 42
9.42477796076938
  0
LINE
  5
4F3
330
1F
100
AcDbEntity
  8
OBRYS
 62
     5
100
AcDbLine
 10
24.60098340460934
 20
85.86976343968955
 30
0.0
 11
24.09875154992429
 21
86.73484805027744
 31
0.0
  0
LINE
  5
4F4
330
1F
100
AcDbEntity
  8
OBRYS
 62
     5
100
AcDbLine
 10
28.20211116541818
 20
87.96074084919145
 30
0.0
 11
27.70001548530882
 21
88.8255909017188
 31
0.0
  0
LINE
  5
4F5
330
1F
100
AcDbEntity
  8
OBRYS
 62
     5
100
AcDbLine
 10
27.70001548530882
 20
88.8255909017188
 30
0.0
 11
24.09875154992429
 21
86.73484805027744
 31
0.0
  0
LINE
  5
4F6
330
1F
100
AcDbEntity
  8
OBRYS
 62
     5
100
AcDbLine
 10
123.0
 20
54.2
 30
0.0
 11
123.0
 21
59.89999999999999
 31
0.0
  0
LINE
  5
4F7
330
1F
100
AcDbEntity
  8
OBRYS
 62
     5
100
AcDbLine
 10
123.0
 20
59.89999999999999
 30
0.0
 11
135.0
 21
59.89999999999999
 31
0.0
  0
LINE
  5
4F8
330
1F
100
AcDbEntity
  8
OBRYS
 62
     5
100
AcDbLine
 10
135.0
 20
59.89999999999999
 30
0.0
 11
135.0
 21
54.2
 31
0.0
  0
LINE
  5
4F9
330
1F
100
AcDbEntity
  8
OBRYS
 62
     5
100
AcDbLine
 10
135.0
 20
54.2
 30
0.0
 11
123.0
 21
54.2
 31
0.0
  0
LINE
  5
516
330
1F
100
AcDbEntity
  8
OBRYS
 62
     5
100
AcDbLine
 10
66.5
 20
43.0145913078578
 30
0.0
 11
66.5
 21
43.47198337547407
 31
0.0
  0
LINE
  5
517
330
1F
100
AcDbEntity
  8
OBRYS
 62
     5
100
AcDbLine
 10
48.5
 20
43.0145913078578
 30
0.0
 11
48.5
 21
43.47198337547407
 31
0.0
  0
DIMENSION
  5
55F
330
1F
100
AcDbEntity
  8
KOTY
 62
     1
100
AcDbDimension
  2
*D2
 10
66.5
 20
38.61920698643668
 30
0.0
 11
57.31093343209884
 21
38.61920698643668
 31
0.0
 70
   160
  3
STANDARD
100
AcDbAlignedDimension
 13
48.5
 23
38.61920698643668
 33
0.0
 14
66.5
 24
38.61920698643668
 34
0.0
100
AcDbRotatedDimension
1001
ACAD
1000
DSTYLE
1002
{
1070
     7
1000

1070
     6
1000

1070
     5
1000

1070
   278
1070
    44
1070
   147
1040
1.0
1070
   173
1070
     1
1070
    77
1070
     1
1070
   271
1070
     0
1070
    41
1040
4.0
1070
   140
1040
4.0
1002
}
  0
DIMENSION
  5
56F
330
1F
100
AcDbEntity
  8
KOTY
 62
     1
100
AcDbDimension
  2
*D3
 10
82.5
 20
92.0
 30
0.0
 11
82.5
 21
46.0
 31
0.0
 70
   160
  3
STANDARD
100
AcDbAlignedDimension
 13
72.5
 23
0.0
 33
0.0
 14
61.65
 24
92.0
 34
0.0
 50
90.0
100
AcDbRotatedDimension
1001
ACAD
1000
DSTYLE
1002
{
1070
     7
1000

1070
     6
1000

1070
     5
1000

1070
    73
1070
     0
1070
   278
1070
    44
1070
   147
1040
1.0
1070
   173
1070
     1
1070
    77
1070
     1
1070
   271
1070
     0
1070
    41
1040
4.0
1070
   140
1040
4.0
1002
}
  0
DIMENSION
  5
57F
330
1F
100
AcDbEntity
  8
KOTY
 62
     1
100
AcDbDimension
  2
*D4
 10
72.5
 20
-28.65628349529303
 30
0.0
 11
35.69797016463227
 21
-28.65628349529303
 31
0.0
 70
   160
  3
STANDARD
100
AcDbAlignedDimension
 13
0.0
 23
26.6
 33
0.0
 14
72.5
 24
0.0
 34
0.0
100
AcDbRotatedDimension
1001
ACAD
1000
DSTYLE
1002
{
1070
     7
1000

1070
     6
1000

1070
     5
1000

1070
   278
1070
    44
1070
   147
1040
1.0
1070
   173
1070
     1
1070
    77
1070
     1
1070
   271
1070
     1
1070
    41
1040
4.0
1070
   140
1040
4.0
1002
}
  0
DIMENSION
  5
5AF
330
1F
100
AcDbEntity
  8
KOTY
 62
     1
100
AcDbDimension
  2
*D5
 10
-9.999999999999998
 20
71.6
 30
0.0
 11
-10.0
 21
46.0
 31
0.0
 70
   160
  3
STANDARD
100
AcDbAlignedDimension
 13
0.0
 23
26.6
 33
0.0
 14
0.0
 24
71.6
 34
0.0
 50
90.0
100
AcDbRotatedDimension
1001
ACAD
1000
DSTYLE
1002
{
1070
     7
1000

1070
     6
1000

1070
     5
1000

1070
    73
1070
     0
1070
   278
1070
    44
1070
   147
1040
1.0
1070
   173
1070
     1
1070
    77
1070
     2
1070
   271
1070
     0
1070
    41
1040
4.0
1070
   140
1040
4.0
1002
}
  0
DIMENSION
  5
5BF
330
1F
100
AcDbEntity
  8
KOTY
 62
     1
100
AcDbDimension
  2
*D6
 10
-19.01972232291834
 20
90.1
 30
0.0
 11
-19.01972232291834
 21
46.00000000000001
 31
0.0
 70
   160
  3
STANDARD
100
AcDbAlignedDimension
 13
28.7
 23
8.1
 33
0.0
 14
28.7
 24
90.1
 34
0.0
 50
90.0
100
AcDbRotatedDimension
1001
ACAD
1000
DSTYLE
1002
{
1070
     7
1000

1070
     6
1000

1070
     5
1000

1070
    73
1070
     0
1070
   278
1070
    44
1070
   147
1040
1.0
1070
   173
1070
     1
1070
   280
1070
     0
1070
    77
1070
     2
1070
   271
1070
     0
1070
    41
1040
4.0
1070
   140
1040
4.0
1002
}
  0
DIMENSION
  5
5DA
330
1F
100
AcDbEntity
  8
KOTY
 62
     1
100
AcDbDimension
  2
*D7
 10
22.5
 20
-10.0
 30
0.0
 11
44.5
 21
-10.0
 31
0.0
 70
   160
  3
STANDARD
100
AcDbAlignedDimension
 13
66.5
 23
30.5
 33
0.0
 14
22.5
 24
11.7
 34
0.0
100
AcDbRotatedDimension
1001
ACAD
1000
DSTYLE
1002
{
1070
     7
1000

1070
     6
1000

1070
     5
1000

1070
   278
1070
    44
1070
   147
1040
1.0
1070
    77
1070
     1
1070
   173
1070
     1
1070
   271
1070
     0
1070
   140
1040
4.0
1070
    41
1040
4.0
1002
}
  0
DIMENSION
  5
5EA
330
1F
100
AcDbEntity
  8
KOTY
 62
     1
100
AcDbDimension
  2
*D8
 10
66.5
 20
-20.22917371962743
 30
0.0
 11
33.25
 21
-20.22917371962743
 31
0.0
 70
   160
  3
STANDARD
100
AcDbAlignedDimension
 13
0.0
 23
26.6
 33
0.0
 14
66.5
 24
30.4375
 34
0.0
100
AcDbRotatedDimension
1001
ACAD
1000
DSTYLE
1002
{
1070
     7
1000

1070
     6
1000

1070
     5
1000

1070
   278
1070
    44
1070
   147
1040
1.0
1070
    77
1070
     1
1070
   173
1070
     1
1070
   271
1070
     1
1070
   140
1040
4.0
1070
    41
1040
4.0
1002
}
  0
LINE
  5
63F
330
1F
100
AcDbEntity
  8
OBRYS
 62
     5
100
AcDbLine
 10
128.35
 20
79.1048
 30
0.0
 11
129.65
 21
79.1048
 31
0.0
  0
LINE
  5
640
330
1F
100
AcDbEntity
  8
OBRYS
 62
     5
100
AcDbLine
 10
128.35
 20
83.5952
 30
0.0
 11
129.65
 21
83.5952
 31
0.0
  0
LINE
  5
642
330
1F
100
AcDbEntity
  8
OBRYS
 62
     5
100
AcDbLine
 10
120.0
 20
87.0
 30
0.0
 11
138.0
 21
87.0
 31
0.0
  0
LINE
  5
805
330
1F
100
AcDbEntity
  8
OBRYS
 62
     5
100
AcDbLine
 10
138.0
 20
8.1
 30
0.0
 11
156.0
 21
8.1
 31
0.0
  0
LINE
  5
818
330
1F
100
AcDbEntity
  8
OBRYS
 62
     5
100
AcDbLine
 10
138.0
 20
90.1
 30
0.0
 11
156.0
 21
90.1
 31
0.0
  0
LINE
  5
81A
330
1F
100
AcDbEntity
  8
OBRYS
 62
     5
100
AcDbLine
 10
141.15
 20
91.99999999999999
 30
0.0
 11
139.95
 21
90.1
 31
0.0
  0
LINE
  5
81B
330
1F
100
AcDbEntity
  8
OBRYS
 62
     5
100
AcDbLine
 10
141.15
 20
91.99999999999999
 30
0.0
 11
152.85
 21
91.99999999999999
 31
0.0
  0
LINE
  5
81C
330
1F
100
AcDbEntity
  8
OBRYS
 62
     5
100
AcDbLine
 10
152.85
 20
91.99999999999999
 30
0.0
 11
154.05
 21
90.1
 31
0.0
  0
LINE
  5
81D
330
1F
100
AcDbEntity
  8
OBRYS
 62
     5
100
AcDbLine
 10
138.0
 20
26.1
 30
0.0
 11
156.0
 21
26.1
 31
0.0
  0
LINE
  5
81E
330
1F
100
AcDbEntity
  8
OBRYS
 62
     5
100
AcDbLine
 10
138.3
 20
26.6
 30
0.0
 11
155.7
 21
26.6
 31
0.0
  0
LINE
  5
81F
330
1F
100
AcDbEntity
  8
OBRYS
 62
     5
100
AcDbLine
 10
138.3
 20
71.6
 30
0.0
 11
155.7
 21
71.6
 31
0.0
  0
LINE
  5
820
330
1F
100
AcDbEntity
  8
OBRYS
 62
     5
100
AcDbLine
 10
138.0
 20
72.1
 30
0.0
 11
156.0
 21
72.1
 31
0.0
  0
LINE
  5
821
330
1F
100
AcDbEntity
  8
OBRYS
 62
     5
100
AcDbLine
 10
145.3
 20
26.1
 30
0.0
 11
145.3
 21
24.6
 31
0.0
  0
LINE
  5
822
330
1F
100
AcDbEntity
  8
OBRYS
 62
     5
100
AcDbLine
 10
145.3
 20
24.6
 30
0.0
 11
147.0
 21
24.6
 31
0.0
  0
LINE
  5
823
330
1F
100
AcDbEntity
  8
OBRYS
 62
     5
100
AcDbLine
 10
147.0
 20
24.6
 30
0.0
 11
147.0
 21
26.1
 31
0.0
  0
LINE
  5
824
330
1F
100
AcDbEntity
  8
OBRYS
 62
     5
100
AcDbLine
 10
144.45
 20
26.1
 30
0.0
 11
144.45
 21
23.6
 31
0.0
  0
LINE
  5
825
330
1F
100
AcDbEntity
  8
OBRYS
 62
     5
100
AcDbLine
 10
144.45
 20
23.6
 30
0.0
 11
147.85
 21
23.6
 31
0.0
  0
LINE
  5
826
330
1F
100
AcDbEntity
  8
OBRYS
 62
     5
100
AcDbLine
 10
147.85
 20
23.6
 30
0.0
 11
147.85
 21
26.1
 31
0.0
  0
LINE
  5
827
330
1F
100
AcDbEntity
  8
OBRYS
 62
     5
100
AcDbLine
 10
144.45
 20
23.6
 30
0.0
 11
145.3
 21
24.6
 31
0.0
  0
LINE
  5
828
330
1F
100
AcDbEntity
  8
OBRYS
 62
     5
100
AcDbLine
 10
147.0
 20
24.6
 30
0.0
 11
147.85
 21
23.6
 31
0.0
  0
LINE
  5
829
330
1F
100
AcDbEntity
  8
OBRYS
 62
     5
100
AcDbLine
 10
145.3
 20
72.1
 30
0.0
 11
145.3
 21
73.6
 31
0.0
  0
LINE
  5
82A
330
1F
100
AcDbEntity
  8
OBRYS
 62
     5
100
AcDbLine
 10
145.3
 20
73.6
 30
0.0
 11
147.0
 21
73.6
 31
0.0
  0
LINE
  5
82B
330
1F
100
AcDbEntity
  8
OBRYS
 62
     5
100
AcDbLine
 10
147.0
 20
73.6
 30
0.0
 11
147.0
 21
72.1
 31
0.0
  0
LINE
  5
82C
330
1F
100
AcDbEntity
  8
OBRYS
 62
     5
100
AcDbLine
 10
144.45
 20
72.1
 30
0.0
 11
144.45
 21
74.6
 31
0.0
  0
LINE
  5
82D
330
1F
100
AcDbEntity
  8
OBRYS
 62
     5
100
AcDbLine
 10
144.45
 20
74.6
 30
0.0
 11
147.85
 21
74.6
 31
0.0
  0
LINE
  5
82E
330
1F
100
AcDbEntity
  8
OBRYS
 62
     5
100
AcDbLine
 10
147.85
 20
74.6
 30
0.0
 11
147.85
 21
72.1
 31
0.0
  0
LINE
  5
82F
330
1F
100
AcDbEntity
  8
OBRYS
 62
     5
100
AcDbLine
 10
144.45
 20
74.6
 30
0.0
 11
145.3
 21
73.6
 31
0.0
  0
LINE
  5
830
330
1F
100
AcDbEntity
  8
OBRYS
 62
     5
100
AcDbLine
 10
147.0
 20
73.6
 30
0.0
 11
147.85
 21
74.6
 31
0.0
  0
LINE
  5
832
330
1F
100
AcDbEntity
  8
OBRYS
 62
     5
100
AcDbLine
 10
138.0
 20
11.7
 30
0.0
 11
156.0
 21
11.7
 31
0.0
  0
LINE
  5
833
330
1F
100
AcDbEntity
  8
OBRYS
 62
     5
100
AcDbLine
 10
138.0
 20
86.5
 30
0.0
 11
156.0
 21
86.5
 31
0.0
  0
CIRCLE
  5
847
330
1F
100
AcDbEntity
  8
OBRYS
 62
     5
100
AcDbCircle
 10
147.0
 20
81.35
 30
0.0
 40
3.2
  0
LINE
  5
848
330
1F
100
AcDbEntity
  8
OBRYS
 62
     5
100
AcDbLine
 10
146.35
 20
78.21671099322133
 30
0.0
 11
146.35
 21
79.99289321881345
 31
0.0
  0
LINE
  5
849
330
1F
100
AcDbEntity
  8
OBRYS
 62
     5
100
AcDbLine
 10
146.35
 20
82.70710678118654
 30
0.0
 11
146.35
 21
84.48328900677866
 31
0.0
  0
LINE
  5
84A
330
1F
100
AcDbEntity
  8
OBRYS
 62
     5
100
AcDbLine
 10
147.65
 20
78.21671099322133
 30
0.0
 11
147.65
 21
79.99289321881345
 31
0.0
  0
LINE
  5
84B
330
1F
100
AcDbEntity
  8
OBRYS
 62
     5
100
AcDbLine
 10
147.65
 20
82.70710678118654
 30
0.0
 11
147.65
 21
84.48328900677865
 31
0.0
  0
ARC
  5
84C
330
1F
100
AcDbEntity
  8
OBRYS
 62
     5
100
AcDbCircle
 10
145.6428932188135
 20
82.70710678118654
 30
0.0
 40
0.707106781186548
100
AcDbArc
 50
270.0
 51
0.0
  0
ARC
  5
84D
330
1F
100
AcDbEntity
  8
OBRYS
 62
     5
100
AcDbCircle
 10
148.3571067811866
 20
82.70710678118654
 30
0.0
 40
0.707106781186548
100
AcDbArc
 50
180.0
 51
270.0
  0
ARC
  5
84E
330
1F
100
AcDbEntity
  8
OBRYS
 62
     5
100
AcDbCircle
 10
148.3571067811866
 20
79.99289321881345
 30
0.0
 40
0.707106781186548
100
AcDbArc
 50
90.0
 51
180.0
  0
ARC
  5
84F
330
1F
100
AcDbEntity
  8
OBRYS
 62
     5
100
AcDbCircle
 10
145.6428932188135
 20
79.99289321881345
 30
0.0
 40
0.707106781186548
100
AcDbArc
 50
0.0
 51
90.0
  0
LINE
  5
850
330
1F
100
AcDbEntity
  8
OBRYS
 62
     5
100
AcDbLine
 10
144.75
 20
80.69999999999999
 30
0.0
 11
144.75
 21
81.99999999999999
 31
0.0
  0
LINE
  5
851
330
1F
100
AcDbEntity
  8
OBRYS
 62
     5
100
AcDbLine
 10
149.25
 20
80.69999999999999
 30
0.0
 11
149.25
 21
81.99999999999999
 31
0.0
  0
LINE
  5
852
330
1F
100
AcDbEntity
  8
OBRYS
 62
     5
100
AcDbLine
 10
148.3571067811866
 20
80.69999999999999
 30
0.0
 11
149.2451978939826
 21
80.69999999999999
 31
0.0
  0
LINE
  5
853
330
1F
100
AcDbEntity
  8
OBRYS
 62
     5
100
AcDbLine
 10
148.3571067811866
 20
81.99999999999999
 30
0.0
 11
149.2451978939826
 21
81.99999999999999
 31
0.0
  0
LINE
  5
854
330
1F
100
AcDbEntity
  8
OBRYS
 62
     5
100
AcDbLine
 10
144.7548021060174
 20
81.99999999999999
 30
0.0
 11
145.6428932188135
 21
81.99999999999999
 31
0.0
  0
LINE
  5
855
330
1F
100
AcDbEntity
  8
OBRYS
 62
     5
100
AcDbLine
 10
147.8571067811866
 20
82.20710678118654
 30
0.0
 11
148.3571067811866
 21
82.70710678118654
 31
0.0
  0
LINE
  5
856
330
1F
100
AcDbEntity
  8
OBRYS
 62
     5
100
AcDbLine
 10
144.7548021060174
 20
80.69999999999999
 30
0.0
 11
145.6428932188135
 21
80.69999999999999
 31
0.0
  0
LINE
  5
857
330
1F
100
AcDbEntity
  8
OBRYS
 62
     5
100
AcDbLine
 10
147.8571067811866
 20
80.49289321881345
 30
0.0
 11
148.3571067811866
 21
79.99289321881345
 31
0.0
  0
LINE
  5
858
330
1F
100
AcDbEntity
  8
OBRYS
 62
     5
100
AcDbLine
 10
146.1428932188135
 20
82.20710678118654
 30
0.0
 11
145.6428932188135
 21
82.70710678118654
 31
0.0
  0
LINE
  5
859
330
1F
100
AcDbEntity
  8
OBRYS
 62
     5
100
AcDbLine
 10
146.1428932188135
 20
80.49289321881345
 30
0.0
 11
145.6428932188135
 21
79.99289321881345
 31
0.0
  0
CIRCLE
  5
85A
330
1F
100
AcDbEntity
  8
OBRYS
 62
     5
100
AcDbCircle
 10
147.0
 20
81.35
 30
0.0
 40
0.7
  0
LINE
  5
85C
330
1F
100
AcDbEntity
  8
OBRYS
 62
     5
100
AcDbLine
 10
138.0
 20
89.6
 30
0.0
 11
156.0
 21
89.6
 31
0.0
  0
LINE
  5
85D
330
1F
100
AcDbEntity
  8
OBRYS
 62
     5
100
AcDbLine
 10
141.0
 20
54.2
 30
0.0
 11
141.0
 21
59.89999999999999
 31
0.0
  0
LINE
  5
85E
330
1F
100
AcDbEntity
  8
OBRYS
 62
     5
100
AcDbLine
 10
141.0
 20
59.89999999999999
 30
0.0
 11
153.0
 21
59.89999999999999
 31
0.0
  0
LINE
  5
85F
330
1F
100
AcDbEntity
  8
OBRYS
 62
     5
100
AcDbLine
 10
153.0
 20
59.89999999999999
 30
0.0
 11
153.0
 21
54.2
 31
0.0
  0
LINE
  5
860
330
1F
100
AcDbEntity
  8
OBRYS
 62
     5
100
AcDbLine
 10
153.0
 20
54.2
 30
0.0
 11
141.0
 21
54.2
 31
0.0
  0
LINE
  5
863
330
1F
100
AcDbEntity
  8
OBRYS
 62
     5
100
AcDbLine
 10
146.35
 20
79.1048
 30
0.0
 11
147.65
 21
79.1048
 31
0.0
  0
LINE
  5
864
330
1F
100
AcDbEntity
  8
OBRYS
 62
     5
100
AcDbLine
 10
146.35
 20
83.5952
 30
0.0
 11
147.65
 21
83.5952
 31
0.0
  0
LINE
  5
866
330
1F
100
AcDbEntity
  8
OBRYS
 62
     5
100
AcDbLine
 10
138.0
 20
87.0
 30
0.0
 11
156.0
 21
87.0
 31
0.0
  0
LINE
  5
868
330
1F
100
AcDbEntity
  8
OBRYS
 62
     5
100
AcDbLine
 10
156.0
 20
8.1
 30
0.0
 11
174.0
 21
8.1
 31
0.0
  0
LINE
  5
869
330
1F
100
AcDbEntity
  8
OBRYS
 62
     5
100
AcDbLine
 10
159.15
 20
6.2
 30
0.0
 11
170.85
 21
6.2
 31
0.0
  0
LINE
  5
86A
330
1F
100
AcDbEntity
  8
OBRYS
 62
     5
100
AcDbLine
 10
159.15
 20
6.2
 30
0.0
 11
157.95
 21
8.1
 31
0.0
  0
LINE
  5
86B
330
1F
100
AcDbEntity
  8
OBRYS
 62
     5
100
AcDbLine
 10
170.85
 20
6.2
 30
0.0
 11
172.05
 21
8.1
 31
0.0
  0
LINE
  5
87B
330
1F
100
AcDbEntity
  8
OBRYS
 62
     5
100
AcDbLine
 10
156.0
 20
90.1
 30
0.0
 11
174.0
 21
90.1
 31
0.0
  0
LINE
  5
87D
330
1F
100
AcDbEntity
  8
OBRYS
 62
     5
100
AcDbLine
 10
159.15
 20
91.99999999999999
 30
0.0
 11
157.95
 21
90.1
 31
0.0
  0
LINE
  5
87E
330
1F
100
AcDbEntity
  8
OBRYS
 62
     5
100
AcDbLine
 10
159.15
 20
91.99999999999999
 30
0.0
 11
170.85
 21
91.99999999999999
 31
0.0
  0
LINE
  5
87F
330
1F
100
AcDbEntity
  8
OBRYS
 62
     5
100
AcDbLine
 10
170.85
 20
91.99999999999999
 30
0.0
 11
172.05
 21
90.1
 31
0.0
  0
LINE
  5
880
330
1F
100
AcDbEntity
  8
OBRYS
 62
     5
100
AcDbLine
 10
156.0
 20
26.1
 30
0.0
 11
174.0
 21
26.1
 31
0.0
  0
LINE
  5
881
330
1F
100
AcDbEntity
  8
OBRYS
 62
     5
100
AcDbLine
 10
156.3
 20
26.6
 30
0.0
 11
173.7
 21
26.6
 31
0.0
  0
LINE
  5
882
330
1F
100
AcDbEntity
  8
OBRYS
 62
     5
100
AcDbLine
 10
156.3
 20
71.6
 30
0.0
 11
173.7
 21
71.6
 31
0.0
  0
LINE
  5
883
330
1F
100
AcDbEntity
  8
OBRYS
 62
     5
100
AcDbLine
 10
156.0
 20
72.1
 30
0.0
 11
174.0
 21
72.1
 31
0.0
  0
LINE
  5
884
330
1F
100
AcDbEntity
  8
OBRYS
 62
     5
100
AcDbLine
 10
163.3
 20
26.1
 30
0.0
 11
163.3
 21
24.6
 31
0.0
  0
LINE
  5
885
330
1F
100
AcDbEntity
  8
OBRYS
 62
     5
100
AcDbLine
 10
163.3
 20
24.6
 30
0.0
 11
165.0
 21
24.6
 31
0.0
  0
LINE
  5
886
330
1F
100
AcDbEntity
  8
OBRYS
 62
     5
100
AcDbLine
 10
165.0
 20
24.6
 30
0.0
 11
165.0
 21
26.1
 31
0.0
  0
LINE
  5
887
330
1F
100
AcDbEntity
  8
OBRYS
 62
     5
100
AcDbLine
 10
162.45
 20
26.1
 30
0.0
 11
162.45
 21
23.6
 31
0.0
  0
LINE
  5
888
330
1F
100
AcDbEntity
  8
OBRYS
 62
     5
100
AcDbLine
 10
162.45
 20
23.6
 30
0.0
 11
165.85
 21
23.6
 31
0.0
  0
LINE
  5
889
330
1F
100
AcDbEntity
  8
OBRYS
 62
     5
100
AcDbLine
 10
165.85
 20
23.6
 30
0.0
 11
165.85
 21
26.1
 31
0.0
  0
LINE
  5
88A
330
1F
100
AcDbEntity
  8
OBRYS
 62
     5
100
AcDbLine
 10
162.45
 20
23.6
 30
0.0
 11
163.3
 21
24.6
 31
0.0
  0
LINE
  5
88B
330
1F
100
AcDbEntity
  8
OBRYS
 62
     5
100
AcDbLine
 10
165.0
 20
24.6
 30
0.0
 11
165.85
 21
23.6
 31
0.0
  0
LINE
  5
88C
330
1F
100
AcDbEntity
  8
OBRYS
 62
     5
100
AcDbLine
 10
163.3
 20
72.1
 30
0.0
 11
163.3
 21
73.6
 31
0.0
  0
LINE
  5
88D
330
1F
100
AcDbEntity
  8
OBRYS
 62
     5
100
AcDbLine
 10
163.3
 20
73.6
 30
0.0
 11
165.0
 21
73.6
 31
0.0
  0
LINE
  5
88E
330
1F
100
AcDbEntity
  8
OBRYS
 62
     5
100
AcDbLine
 10
165.0
 20
73.6
 30
0.0
 11
165.0
 21
72.1
 31
0.0
  0
LINE
  5
88F
330
1F
100
AcDbEntity
  8
OBRYS
 62
     5
100
AcDbLine
 10
162.45
 20
72.1
 30
0.0
 11
162.45
 21
74.6
 31
0.0
  0
LINE
  5
890
330
1F
100
AcDbEntity
  8
OBRYS
 62
     5
100
AcDbLine
 10
162.45
 20
74.6
 30
0.0
 11
165.85
 21
74.6
 31
0.0
  0
LINE
  5
891
330
1F
100
AcDbEntity
  8
OBRYS
 62
     5
100
AcDbLine
 10
165.85
 20
74.6
 30
0.0
 11
165.85
 21
72.1
 31
0.0
  0
LINE
  5
892
330
1F
100
AcDbEntity
  8
OBRYS
 62
     5
100
AcDbLine
 10
162.45
 20
74.6
 30
0.0
 11
163.3
 21
73.6
 31
0.0
  0
LINE
  5
893
330
1F
100
AcDbEntity
  8
OBRYS
 62
     5
100
AcDbLine
 10
165.0
 20
73.6
 30
0.0
 11
165.85
 21
74.6
 31
0.0
  0
CIRCLE
  5
894
330
1F
100
AcDbEntity
  8
OBRYS
 62
     5
100
AcDbCircle
 10
165.0
 20
16.85
 30
0.0
 40
3.2
  0
LINE
  5
895
330
1F
100
AcDbEntity
  8
OBRYS
 62
     5
100
AcDbLine
 10
156.0
 20
11.7
 30
0.0
 11
174.0
 21
11.7
 31
0.0
  0
LINE
  5
896
330
1F
100
AcDbEntity
  8
OBRYS
 62
     5
100
AcDbLine
 10
156.0
 20
86.5
 30
0.0
 11
174.0
 21
86.5
 31
0.0
  0
LINE
  5
897
330
1F
100
AcDbEntity
  8
OBRYS
 62
     5
100
AcDbLine
 10
164.35
 20
18.20710678118655
 30
0.0
 11
164.35
 21
19.98328900677866
 31
0.0
  0
LINE
  5
898
330
1F
100
AcDbEntity
  8
OBRYS
 62
     5
100
AcDbLine
 10
164.35
 20
13.71671099322134
 30
0.0
 11
164.35
 21
15.49289321881345
 31
0.0
  0
LINE
  5
899
330
1F
100
AcDbEntity
  8
OBRYS
 62
     5
100
AcDbLine
 10
165.65
 20
18.20710678118655
 30
0.0
 11
165.65
 21
19.98328900677866
 31
0.0
  0
LINE
  5
89A
330
1F
100
AcDbEntity
  8
OBRYS
 62
     5
100
AcDbLine
 10
165.65
 20
13.71671099322134
 30
0.0
 11
165.65
 21
15.49289321881345
 31
0.0
  0
ARC
  5
89B
330
1F
100
AcDbEntity
  8
OBRYS
 62
     5
100
AcDbCircle
 10
163.6428932188135
 20
18.20710678118655
 30
0.0
 40
0.707106781186548
100
AcDbArc
 50
270.0
 51
0.0
  0
ARC
  5
89C
330
1F
100
AcDbEntity
  8
OBRYS
 62
     5
100
AcDbCircle
 10
166.3571067811866
 20
18.20710678118655
 30
0.0
 40
0.707106781186548
100
AcDbArc
 50
180.0
 51
270.0
  0
ARC
  5
89D
330
1F
100
AcDbEntity
  8
OBRYS
 62
     5
100
AcDbCircle
 10
166.3571067811866
 20
15.49289321881345
 30
0.0
 40
0.707106781186548
100
AcDbArc
 50
90.0
 51
180.0
  0
ARC
  5
89E
330
1F
100
AcDbEntity
  8
OBRYS
 62
     5
100
AcDbCircle
 10
163.6428932188135
 20
15.49289321881345
 30
0.0
 40
0.707106781186548
100
AcDbArc
 50
0.0
 51
90.0
  0
LINE
  5
89F
330
1F
100
AcDbEntity
  8
OBRYS
 62
     5
100
AcDbLine
 10
162.75
 20
16.2
 30
0.0
 11
162.75
 21
17.5
 31
0.0
  0
LINE
  5
8A0
330
1F
100
AcDbEntity
  8
OBRYS
 62
     5
100
AcDbLine
 10
167.25
 20
16.2
 30
0.0
 11
167.25
 21
17.5
 31
0.0
  0
LINE
  5
8A1
330
1F
100
AcDbEntity
  8
OBRYS
 62
     5
100
AcDbLine
 10
166.3571067811866
 20
16.2
 30
0.0
 11
167.2451978939826
 21
16.2
 31
0.0
  0
LINE
  5
8A2
330
1F
100
AcDbEntity
  8
OBRYS
 62
     5
100
AcDbLine
 10
166.3571067811866
 20
17.5
 30
0.0
 11
167.2451978939826
 21
17.5
 31
0.0
  0
LINE
  5
8A3
330
1F
100
AcDbEntity
  8
OBRYS
 62
     5
100
AcDbLine
 10
162.7548021060174
 20
17.5
 30
0.0
 11
163.6428932188135
 21
17.5
 31
0.0
  0
LINE
  5
8A4
330
1F
100
AcDbEntity
  8
OBRYS
 62
     5
100
AcDbLine
 10
165.8571067811866
 20
17.70710678118655
 30
0.0
 11
166.3571067811866
 21
18.20710678118655
 31
0.0
  0
LINE
  5
8A5
330
1F
100
AcDbEntity
  8
OBRYS
 62
     5
100
AcDbLine
 10
162.7548021060174
 20
16.2
 30
0.0
 11
163.6428932188135
 21
16.2
 31
0.0
  0
LINE
  5
8A6
330
1F
100
AcDbEntity
  8
OBRYS
 62
     5
100
AcDbLine
 10
165.8571067811866
 20
15.99289321881345
 30
0.0
 11
166.3571067811866
 21
15.49289321881345
 31
0.0
  0
LINE
  5
8A7
330
1F
100
AcDbEntity
  8
OBRYS
 62
     5
100
AcDbLine
 10
164.1428932188135
 20
17.70710678118655
 30
0.0
 11
163.6428932188135
 21
18.20710678118655
 31
0.0
  0
LINE
  5
8A8
330
1F
100
AcDbEntity
  8
OBRYS
 62
     5
100
AcDbLine
 10
164.1428932188135
 20
15.99289321881345
 30
0.0
 11
163.6428932188135
 21
15.49289321881345
 31
0.0
  0
CIRCLE
  5
8A9
330
1F
100
AcDbEntity
  8
OBRYS
 62
     5
100
AcDbCircle
 10
165.0
 20
16.85
 30
0.0
 40
0.7
  0
CIRCLE
  5
8AA
330
1F
100
AcDbEntity
  8
OBRYS
 62
     5
100
AcDbCircle
 10
165.0
 20
81.35
 30
0.0
 40
3.2
  0
LINE
  5
8AB
330
1F
100
AcDbEntity
  8
OBRYS
 62
     5
100
AcDbLine
 10
164.35
 20
78.21671099322133
 30
0.0
 11
164.35
 21
79.99289321881345
 31
0.0
  0
LINE
  5
8AC
330
1F
100
AcDbEntity
  8
OBRYS
 62
     5
100
AcDbLine
 10
164.35
 20
82.70710678118654
 30
0.0
 11
164.35
 21
84.48328900677866
 31
0.0
  0
LINE
  5
8AD
330
1F
100
AcDbEntity
  8
OBRYS
 62
     5
100
AcDbLine
 10
165.65
 20
78.21671099322133
 30
0.0
 11
165.65
 21
79.99289321881345
 31
0.0
  0
LINE
  5
8AE
330
1F
100
AcDbEntity
  8
OBRYS
 62
     5
100
AcDbLine
 10
165.65
 20
82.70710678118654
 30
0.0
 11
165.65
 21
84.48328900677865
 31
0.0
  0
ARC
  5
8AF
330
1F
100
AcDbEntity
  8
OBRYS
 62
     5
100
AcDbCircle
 10
163.6428932188135
 20
82.70710678118654
 30
0.0
 40
0.707106781186548
100
AcDbArc
 50
270.0
 51
0.0
  0
ARC
  5
8B0
330
1F
100
AcDbEntity
  8
OBRYS
 62
     5
100
AcDbCircle
 10
166.3571067811866
 20
82.70710678118654
 30
0.0
 40
0.707106781186548
100
AcDbArc
 50
180.0
 51
270.0
  0
ARC
  5
8B1
330
1F
100
AcDbEntity
  8
OBRYS
 62
     5
100
AcDbCircle
 10
166.3571067811866
 20
79.99289321881345
 30
0.0
 40
0.707106781186548
100
AcDbArc
 50
90.0
 51
180.0
  0
ARC
  5
8B2
330
1F
100
AcDbEntity
  8
OBRYS
 62
     5
100
AcDbCircle
 10
163.6428932188135
 20
79.99289321881345
 30
0.0
 40
0.707106781186548
100
AcDbArc
 50
0.0
 51
90.0
  0
LINE
  5
8B3
330
1F
100
AcDbEntity
  8
OBRYS
 62
     5
100
AcDbLine
 10
162.75
 20
80.69999999999999
 30
0.0
 11
162.75
 21
81.99999999999999
 31
0.0
  0
LINE
  5
8B4
330
1F
100
AcDbEntity
  8
OBRYS
 62
     5
100
AcDbLine
 10
167.25
 20
80.69999999999999
 30
0.0
 11
167.25
 21
81.99999999999999
 31
0.0
  0
LINE
  5
8B5
330
1F
100
AcDbEntity
  8
OBRYS
 62
     5
100
AcDbLine
 10
166.3571067811866
 20
80.69999999999999
 30
0.0
 11
167.2451978939826
 21
80.69999999999999
 31
0.0
  0
LINE
  5
8B6
330
1F
100
AcDbEntity
  8
OBRYS
 62
     5
100
AcDbLine
 10
166.3571067811866
 20
81.99999999999999
 30
0.0
 11
167.2451978939826
 21
81.99999999999999
 31
0.0
  0
LINE
  5
8B7
330
1F
100
AcDbEntity
  8
OBRYS
 62
     5
100
AcDbLine
 10
162.7548021060174
 20
81.99999999999999
 30
0.0
 11
163.6428932188135
 21
81.99999999999999
 31
0.0
  0
LINE
  5
8B8
330
1F
100
AcDbEntity
  8
OBRYS
 62
     5
100
AcDbLine
 10
165.8571067811866
 20
82.20710678118654
 30
0.0
 11
166.3571067811866
 21
82.70710678118654
 31
0.0
  0
LINE
  5
8B9
330
1F
100
AcDbEntity
  8
OBRYS
 62
     5
100
AcDbLine
 10
162.7548021060174
 20
80.69999999999999
 30
0.0
 11
163.6428932188135
 21
80.69999999999999
 31
0.0
  0
LINE
  5
8BA
330
1F
100
AcDbEntity
  8
OBRYS
 62
     5
100
AcDbLine
 10
165.8571067811866
 20
80.49289321881345
 30
0.0
 11
166.3571067811866
 21
79.99289321881345
 31
0.0
  0
LINE
  5
8BB
330
1F
100
AcDbEntity
  8
OBRYS
 62
     5
100
AcDbLine
 10
164.1428932188135
 20
82.20710678118654
 30
0.0
 11
163.6428932188135
 21
82.70710678118654
 31
0.0
  0
LINE
  5
8BC
330
1F
100
AcDbEntity
  8
OBRYS
 62
     5
100
AcDbLine
 10
164.1428932188135
 20
80.49289321881345
 30
0.0
 11
163.6428932188135
 21
79.99289321881345
 31
0.0
  0
CIRCLE
  5
8BD
330
1F
100
AcDbEntity
  8
OBRYS
 62
     5
100
AcDbCircle
 10
165.0
 20
81.35
 30
0.0
 40
0.7
  0
LINE
  5
8BE
330
1F
100
AcDbEntity
  8
OBRYS
 62
     5
100
AcDbLine
 10
156.0
 20
8.6
 30
0.0
 11
174.0
 21
8.599999999999994
 31
0.0
  0
LINE
  5
8BF
330
1F
100
AcDbEntity
  8
OBRYS
 62
     5
100
AcDbLine
 10
156.0
 20
89.6
 30
0.0
 11
174.0
 21
89.6
 31
0.0
  0
LINE
  5
8C0
330
1F
100
AcDbEntity
  8
OBRYS
 62
     5
100
AcDbLine
 10
159.0
 20
54.2
 30
0.0
 11
159.0
 21
59.89999999999999
 31
0.0
  0
LINE
  5
8C1
330
1F
100
AcDbEntity
  8
OBRYS
 62
     5
100
AcDbLine
 10
159.0
 20
59.89999999999999
 30
0.0
 11
171.0
 21
59.89999999999999
 31
0.0
  0
LINE
  5
8C2
330
1F
100
AcDbEntity
  8
OBRYS
 62
     5
100
AcDbLine
 10
171.0
 20
59.89999999999999
 30
0.0
 11
171.0
 21
54.2
 31
0.0
  0
LINE
  5
8C3
330
1F
100
AcDbEntity
  8
OBRYS
 62
     5
100
AcDbLine
 10
171.0
 20
54.2
 30
0.0
 11
159.0
 21
54.2
 31
0.0
  0
LINE
  5
8C4
330
1F
100
AcDbEntity
  8
OBRYS
 62
     5
100
AcDbLine
 10
164.35
 20
19.0952
 30
0.0
 11
165.65
 21
19.0951978939826
 31
0.0
  0
LINE
  5
8C5
330
1F
100
AcDbEntity
  8
OBRYS
 62
     5
100
AcDbLine
 10
164.35
 20
14.6048021060174
 30
0.0
 11
165.65
 21
14.6048021060174
 31
0.0
  0
LINE
  5
8C6
330
1F
100
AcDbEntity
  8
OBRYS
 62
     5
100
AcDbLine
 10
164.35
 20
79.1048
 30
0.0
 11
165.65
 21
79.1048
 31
0.0
  0
LINE
  5
8C7
330
1F
100
AcDbEntity
  8
OBRYS
 62
     5
100
AcDbLine
 10
164.35
 20
83.5952
 30
0.0
 11
165.65
 21
83.5952
 31
0.0
  0
LINE
  5
8C8
330
1F
100
AcDbEntity
  8
OBRYS
 62
     5
100
AcDbLine
 10
156.0
 20
11.2
 30
0.0
 11
174.0
 21
11.2
 31
0.0
  0
LINE
  5
8C9
330
1F
100
AcDbEntity
  8
OBRYS
 62
     5
100
AcDbLine
 10
156.0
 20
87.0
 30
0.0
 11
174.0
 21
87.0
 31
0.0
  0
LINE
  5
8CA
330
1F
100
AcDbEntity
  8
OBRYS
 62
     5
100
AcDbLine
 10
179.4969719792858
 20
0.0000000000000033
 30
0.0
 11
186.4892480580031
 21
0.0000000000000007
 31
0.0
  0
LINE
  5
8CB
330
1F
100
AcDbEntity
  8
OBRYS
 62
     5
100
AcDbLine
 10
174.0
 20
8.1
 30
0.0
 11
192.0
 21
8.1
 31
0.0
  0
LINE
  5
8CC
330
1F
100
AcDbEntity
  8
OBRYS
 62
     5
100
AcDbLine
 10
177.15
 20
6.2
 30
0.0
 11
188.85
 21
6.2
 31
0.0
  0
LINE
  5
8CD
330
1F
100
AcDbEntity
  8
OBRYS
 62
     5
100
AcDbLine
 10
177.15
 20
6.2
 30
0.0
 11
175.95
 21
8.1
 31
0.0
  0
LINE
  5
8CE
330
1F
100
AcDbEntity
  8
OBRYS
 62
     5
100
AcDbLine
 10
188.85
 20
6.2
 30
0.0
 11
190.05
 21
8.1
 31
0.0
  0
LINE
  5
8CF
330
1F
100
AcDbEntity
  8
OBRYS
 62
     5
100
AcDbLine
 10
179.7071067811866
 20
1.0
 30
0.0
 11
186.2928932188134
 21
1.0
 31
0.0
  0
LINE
  5
8D0
330
1F
100
AcDbEntity
  8
OBRYS
 62
     5
100
AcDbLine
 10
179.0
 20
1.707106781186548
 30
0.0
 11
179.0
 21
6.2
 31
0.0
  0
LINE
  5
8D1
330
1F
100
AcDbEntity
  8
OBRYS
 62
     5
100
AcDbLine
 10
187.0
 20
1.707106781186548
 30
0.0
 11
187.0
 21
6.2
 31
0.0
  0
ARC
  5
8D2
330
1F
100
AcDbEntity
  8
OBRYS
 62
     5
100
AcDbCircle
 10
179.7071067811866
 20
1.707106781186548
 30
0.0
 40
0.707106781186548
100
AcDbArc
 50
180.0
 51
270.0
  0
ARC
  5
8D3
330
1F
100
AcDbEntity
  8
OBRYS
 62
     5
100
AcDbCircle
 10
186.2928932188134
 20
1.707106781186548
 30
0.0
 40
0.707106781186548
100
AcDbArc
 50
270.0
 51
359.9999999999998
  0
LINE
  5
8D4
330
1F
100
AcDbEntity
  8
OBRYS
 62
     5
100
AcDbLine
 10
175.7
 20
8.1
 30
0.0
 11
175.7
 21
5.207106781186549
 31
0.0
  0
LINE
  5
8D5
330
1F
100
AcDbEntity
  8
OBRYS
 62
     5
100
AcDbLine
 10
179.0
 20
4.5
 30
0.0
 11
176.4071067811865
 21
4.500000000000001
 31
0.0
  0
ARC
  5
8D6
330
1F
100
AcDbEntity
  8
OBRYS
 62
     5
100
AcDbCircle
 10
176.4071067811865
 20
5.207106781186549
 30
0.0
 40
0.707106781186548
100
AcDbArc
 50
180.0
 51
270.0
  0
LINE
  5
8D7
330
1F
100
AcDbEntity
  8
OBRYS
 62
     5
100
AcDbLine
 10
190.3
 20
8.100000000000001
 30
0.0
 11
190.3
 21
5.207106781186541
 31
0.0
  0
LINE
  5
8D8
330
1F
100
AcDbEntity
  8
OBRYS
 62
     5
100
AcDbLine
 10
187.0170014197672
 20
4.5
 30
0.0
 11
189.5928932188135
 21
4.5
 31
0.0
  0
ARC
  5
8D9
330
1F
100
AcDbEntity
  8
OBRYS
 62
     5
100
AcDbCircle
 10
189.5928932188135
 20
5.207106781186548
 30
0.0
 40
0.7071067811865475
100
AcDbArc
 50
270.0
 51
359.9999999999993
  0
LINE
  5
8DA
330
1F
100
AcDbEntity
  8
OBRYS
 62
     5
100
AcDbLine
 10
178.0
 20
4.5
 30
0.0
 11
177.9999990265624
 21
1.503194007024523
 31
0.0
  0
LINE
  5
8DB
330
1F
100
AcDbEntity
  8
OBRYS
 62
     5
100
AcDbLine
 10
188.0
 20
4.5
 30
0.0
 11
188.0
 21
1.49604698548332
 31
0.0
  0
ARC
  5
8DC
330
1F
100
AcDbEntity
  8
OBRYS
 62
     5
100
AcDbCircle
 10
186.4601391923747
 20
1.540219193746501
 30
0.0
 40
1.540494235900705
100
AcDbArc
 50
271.0827138285986
 51
358.356872755389
  0
ARC
  5
8DD
330
1F
100
AcDbEntity
  8
OBRYS
 62
     5
100
AcDbCircle
 10
179.5032078059073
 20
1.503195845114476
 30
0.0
 40
1.503208779346059
100
AcDbArc
 50
179.9347947880687
 51
269.7623167341435
  0
LINE
  5
8DE
330
1F
100
AcDbEntity
  8
OBRYS
 62
     5
100
AcDbLine
 10
174.0
 20
90.1
 30
0.0
 11
192.0
 21
90.1
 31
0.0
  0
LINE
  5
8DF
330
1F
100
AcDbEntity
  8
OBRYS
 62
     5
100
AcDbLine
 10
192.0
 20
90.1
 30
0.0
 11
192.0
 21
8.1
 31
0.0
  0
LINE
  5
8E0
330
1F
100
AcDbEntity
  8
OBRYS
 62
     5
100
AcDbLine
 10
177.15
 20
91.99999999999999
 30
0.0
 11
175.95
 21
90.1
 31
0.0
  0
LINE
  5
8E1
330
1F
100
AcDbEntity
  8
OBRYS
 62
     5
100
AcDbLine
 10
177.15
 20
91.99999999999999
 30
0.0
 11
188.85
 21
91.99999999999999
 31
0.0
  0
LINE
  5
8E2
330
1F
100
AcDbEntity
  8
OBRYS
 62
     5
100
AcDbLine
 10
188.85
 20
91.99999999999999
 30
0.0
 11
190.05
 21
90.1
 31
0.0
  0
LINE
  5
8E3
330
1F
100
AcDbEntity
  8
OBRYS
 62
     5
100
AcDbLine
 10
174.0
 20
26.1
 30
0.0
 11
192.0
 21
26.1
 31
0.0
  0
LINE
  5
8E4
330
1F
100
AcDbEntity
  8
OBRYS
 62
     5
100
AcDbLine
 10
174.3
 20
26.6
 30
0.0
 11
191.7
 21
26.6
 31
0.0
  0
LINE
  5
8E5
330
1F
100
AcDbEntity
  8
OBRYS
 62
     5
100
AcDbLine
 10
174.3
 20
71.6
 30
0.0
 11
191.7
 21
71.6
 31
0.0
  0
LINE
  5
8E6
330
1F
100
AcDbEntity
  8
OBRYS
 62
     5
100
AcDbLine
 10
174.0
 20
72.1
 30
0.0
 11
192.0
 21
72.1
 31
0.0
  0
LINE
  5
8E7
330
1F
100
AcDbEntity
  8
OBRYS
 62
     5
100
AcDbLine
 10
181.3
 20
26.1
 30
0.0
 11
181.3
 21
24.6
 31
0.0
  0
LINE
  5
8E8
330
1F
100
AcDbEntity
  8
OBRYS
 62
     5
100
AcDbLine
 10
181.3
 20
24.6
 30
0.0
 11
183.0
 21
24.6
 31
0.0
  0
LINE
  5
8E9
330
1F
100
AcDbEntity
  8
OBRYS
 62
     5
100
AcDbLine
 10
183.0
 20
24.6
 30
0.0
 11
183.0
 21
26.1
 31
0.0
  0
LINE
  5
8EA
330
1F
100
AcDbEntity
  8
OBRYS
 62
     5
100
AcDbLine
 10
180.45
 20
26.1
 30
0.0
 11
180.45
 21
23.6
 31
0.0
  0
LINE
  5
8EB
330
1F
100
AcDbEntity
  8
OBRYS
 62
     5
100
AcDbLine
 10
180.45
 20
23.6
 30
0.0
 11
183.85
 21
23.6
 31
0.0
  0
LINE
  5
8EC
330
1F
100
AcDbEntity
  8
OBRYS
 62
     5
100
AcDbLine
 10
183.85
 20
23.6
 30
0.0
 11
183.85
 21
26.1
 31
0.0
  0
LINE
  5
8ED
330
1F
100
AcDbEntity
  8
OBRYS
 62
     5
100
AcDbLine
 10
180.45
 20
23.6
 30
0.0
 11
181.3
 21
24.6
 31
0.0
  0
LINE
  5
8EE
330
1F
100
AcDbEntity
  8
OBRYS
 62
     5
100
AcDbLine
 10
183.0
 20
24.6
 30
0.0
 11
183.85
 21
23.6
 31
0.0
  0
LINE
  5
8EF
330
1F
100
AcDbEntity
  8
OBRYS
 62
     5
100
AcDbLine
 10
181.3
 20
72.1
 30
0.0
 11
181.3
 21
73.6
 31
0.0
  0
LINE
  5
8F0
330
1F
100
AcDbEntity
  8
OBRYS
 62
     5
100
AcDbLine
 10
181.3
 20
73.6
 30
0.0
 11
183.0
 21
73.6
 31
0.0
  0
LINE
  5
8F1
330
1F
100
AcDbEntity
  8
OBRYS
 62
     5
100
AcDbLine
 10
183.0
 20
73.6
 30
0.0
 11
183.0
 21
72.1
 31
0.0
  0
LINE
  5
8F2
330
1F
100
AcDbEntity
  8
OBRYS
 62
     5
100
AcDbLine
 10
180.45
 20
72.1
 30
0.0
 11
180.45
 21
74.6
 31
0.0
  0
LINE
  5
8F3
330
1F
100
AcDbEntity
  8
OBRYS
 62
     5
100
AcDbLine
 10
180.45
 20
74.6
 30
0.0
 11
183.85
 21
74.6
 31
0.0
  0
LINE
  5
8F4
330
1F
100
AcDbEntity
  8
OBRYS
 62
     5
100
AcDbLine
 10
183.85
 20
74.6
 30
0.0
 11
183.85
 21
72.1
 31
0.0
  0
LINE
  5
8F5
330
1F
100
AcDbEntity
  8
OBRYS
 62
     5
100
AcDbLine
 10
180.45
 20
74.6
 30
0.0
 11
181.3
 21
73.6
 31
0.0
  0
LINE
  5
8F6
330
1F
100
AcDbEntity
  8
OBRYS
 62
     5
100
AcDbLine
 10
183.0
 20
73.6
 30
0.0
 11
183.85
 21
74.6
 31
0.0
  0
CIRCLE
  5
8F7
330
1F
100
AcDbEntity
  8
OBRYS
 62
     5
100
AcDbCircle
 10
183.0
 20
16.85
 30
0.0
 40
3.2
  0
LINE
  5
8F8
330
1F
100
AcDbEntity
  8
OBRYS
 62
     5
100
AcDbLine
 10
174.0
 20
11.7
 30
0.0
 11
192.0
 21
11.7
 31
0.0
  0
LINE
  5
8F9
330
1F
100
AcDbEntity
  8
OBRYS
 62
     5
100
AcDbLine
 10
174.0
 20
86.5
 30
0.0
 11
192.0
 21
86.5
 31
0.0
  0
LINE
  5
8FA
330
1F
100
AcDbEntity
  8
OBRYS
 62
     5
100
AcDbLine
 10
182.35
 20
18.20710678118655
 30
0.0
 11
182.35
 21
19.98328900677866
 31
0.0
  0
LINE
  5
8FB
330
1F
100
AcDbEntity
  8
OBRYS
 62
     5
100
AcDbLine
 10
182.35
 20
13.71671099322134
 30
0.0
 11
182.35
 21
15.49289321881345
 31
0.0
  0
LINE
  5
8FC
330
1F
100
AcDbEntity
  8
OBRYS
 62
     5
100
AcDbLine
 10
183.65
 20
18.20710678118655
 30
0.0
 11
183.65
 21
19.98328900677866
 31
0.0
  0
LINE
  5
8FD
330
1F
100
AcDbEntity
  8
OBRYS
 62
     5
100
AcDbLine
 10
183.65
 20
13.71671099322134
 30
0.0
 11
183.65
 21
15.49289321881345
 31
0.0
  0
ARC
  5
8FE
330
1F
100
AcDbEntity
  8
OBRYS
 62
     5
100
AcDbCircle
 10
181.6428932188135
 20
18.20710678118655
 30
0.0
 40
0.707106781186548
100
AcDbArc
 50
270.0
 51
0.0
  0
ARC
  5
8FF
330
1F
100
AcDbEntity
  8
OBRYS
 62
     5
100
AcDbCircle
 10
184.3571067811866
 20
18.20710678118655
 30
0.0
 40
0.707106781186548
100
AcDbArc
 50
180.0
 51
270.0
  0
ARC
  5
900
330
1F
100
AcDbEntity
  8
OBRYS
 62
     5
100
AcDbCircle
 10
184.3571067811866
 20
15.49289321881345
 30
0.0
 40
0.707106781186548
100
AcDbArc
 50
90.0
 51
180.0
  0
ARC
  5
901
330
1F
100
AcDbEntity
  8
OBRYS
 62
     5
100
AcDbCircle
 10
181.6428932188135
 20
15.49289321881345
 30
0.0
 40
0.707106781186548
100
AcDbArc
 50
0.0
 51
90.0
  0
LINE
  5
902
330
1F
100
AcDbEntity
  8
OBRYS
 62
     5
100
AcDbLine
 10
180.75
 20
16.2
 30
0.0
 11
180.75
 21
17.5
 31
0.0
  0
LINE
  5
903
330
1F
100
AcDbEntity
  8
OBRYS
 62
     5
100
AcDbLine
 10
185.25
 20
16.2
 30
0.0
 11
185.25
 21
17.5
 31
0.0
  0
LINE
  5
904
330
1F
100
AcDbEntity
  8
OBRYS
 62
     5
100
AcDbLine
 10
184.3571067811866
 20
16.2
 30
0.0
 11
185.2451978939826
 21
16.2
 31
0.0
  0
LINE
  5
905
330
1F
100
AcDbEntity
  8
OBRYS
 62
     5
100
AcDbLine
 10
184.3571067811866
 20
17.5
 30
0.0
 11
185.2451978939826
 21
17.5
 31
0.0
  0
LINE
  5
906
330
1F
100
AcDbEntity
  8
OBRYS
 62
     5
100
AcDbLine
 10
180.7548021060174
 20
17.5
 30
0.0
 11
181.6428932188135
 21
17.5
 31
0.0
  0
LINE
  5
907
330
1F
100
AcDbEntity
  8
OBRYS
 62
     5
100
AcDbLine
 10
183.8571067811866
 20
17.70710678118655
 30
0.0
 11
184.3571067811866
 21
18.20710678118655
 31
0.0
  0
LINE
  5
908
330
1F
100
AcDbEntity
  8
OBRYS
 62
     5
100
AcDbLine
 10
180.7548021060174
 20
16.2
 30
0.0
 11
181.6428932188135
 21
16.2
 31
0.0
  0
LINE
  5
909
330
1F
100
AcDbEntity
  8
OBRYS
 62
     5
100
AcDbLine
 10
183.8571067811866
 20
15.99289321881345
 30
0.0
 11
184.3571067811866
 21
15.49289321881345
 31
0.0
  0
LINE
  5
90A
330
1F
100
AcDbEntity
  8
OBRYS
 62
     5
100
AcDbLine
 10
182.1428932188135
 20
17.70710678118655
 30
0.0
 11
181.6428932188135
 21
18.20710678118655
 31
0.0
  0
LINE
  5
90B
330
1F
100
AcDbEntity
  8
OBRYS
 62
     5
100
AcDbLine
 10
182.1428932188135
 20
15.99289321881345
 30
0.0
 11
181.6428932188135
 21
15.49289321881345
 31
0.0
  0
CIRCLE
  5
90C
330
1F
100
AcDbEntity
  8
OBRYS
 62
     5
100
AcDbCircle
 10
183.0
 20
16.85
 30
0.0
 40
0.7
  0
CIRCLE
  5
90D
330
1F
100
AcDbEntity
  8
OBRYS
 62
     5
100
AcDbCircle
 10
183.0
 20
81.35
 30
0.0
 40
3.2
  0
LINE
  5
90E
330
1F
100
AcDbEntity
  8
OBRYS
 62
     5
100
AcDbLine
 10
182.35
 20
78.21671099322133
 30
0.0
 11
182.35
 21
79.99289321881345
 31
0.0
  0
LINE
  5
90F
330
1F
100
AcDbEntity
  8
OBRYS
 62
     5
100
AcDbLine
 10
182.35
 20
82.70710678118654
 30
0.0
 11
182.35
 21
84.48328900677866
 31
0.0
  0
LINE
  5
910
330
1F
100
AcDbEntity
  8
OBRYS
 62
     5
100
AcDbLine
 10
183.65
 20
78.21671099322133
 30
0.0
 11
183.65
 21
79.99289321881345
 31
0.0
  0
LINE
  5
911
330
1F
100
AcDbEntity
  8
OBRYS
 62
     5
100
AcDbLine
 10
183.65
 20
82.70710678118654
 30
0.0
 11
183.65
 21
84.48328900677865
 31
0.0
  0
ARC
  5
912
330
1F
100
AcDbEntity
  8
OBRYS
 62
     5
100
AcDbCircle
 10
181.6428932188135
 20
82.70710678118654
 30
0.0
 40
0.707106781186548
100
AcDbArc
 50
270.0
 51
0.0
  0
ARC
  5
913
330
1F
100
AcDbEntity
  8
OBRYS
 62
     5
100
AcDbCircle
 10
184.3571067811866
 20
82.70710678118654
 30
0.0
 40
0.707106781186548
100
AcDbArc
 50
180.0
 51
270.0
  0
ARC
  5
914
330
1F
100
AcDbEntity
  8
OBRYS
 62
     5
100
AcDbCircle
 10
184.3571067811866
 20
79.99289321881345
 30
0.0
 40
0.707106781186548
100
AcDbArc
 50
90.0
 51
180.0
  0
ARC
  5
915
330
1F
100
AcDbEntity
  8
OBRYS
 62
     5
100
AcDbCircle
 10
181.6428932188135
 20
79.99289321881345
 30
0.0
 40
0.707106781186548
100
AcDbArc
 50
0.0
 51
90.0
  0
LINE
  5
916
330
1F
100
AcDbEntity
  8
OBRYS
 62
     5
100
AcDbLine
 10
180.75
 20
80.69999999999999
 30
0.0
 11
180.75
 21
81.99999999999999
 31
0.0
  0
LINE
  5
917
330
1F
100
AcDbEntity
  8
OBRYS
 62
     5
100
AcDbLine
 10
185.25
 20
80.69999999999999
 30
0.0
 11
185.25
 21
81.99999999999999
 31
0.0
  0
LINE
  5
918
330
1F
100
AcDbEntity
  8
OBRYS
 62
     5
100
AcDbLine
 10
184.3571067811866
 20
80.69999999999999
 30
0.0
 11
185.2451978939826
 21
80.69999999999999
 31
0.0
  0
LINE
  5
919
330
1F
100
AcDbEntity
  8
OBRYS
 62
     5
100
AcDbLine
 10
184.3571067811866
 20
81.99999999999999
 30
0.0
 11
185.2451978939826
 21
81.99999999999999
 31
0.0
  0
LINE
  5
91A
330
1F
100
AcDbEntity
  8
OBRYS
 62
     5
100
AcDbLine
 10
180.7548021060174
 20
81.99999999999999
 30
0.0
 11
181.6428932188135
 21
81.99999999999999
 31
0.0
  0
LINE
  5
91B
330
1F
100
AcDbEntity
  8
OBRYS
 62
     5
100
AcDbLine
 10
183.8571067811866
 20
82.20710678118654
 30
0.0
 11
184.3571067811866
 21
82.70710678118654
 31
0.0
  0
LINE
  5
91C
330
1F
100
AcDbEntity
  8
OBRYS
 62
     5
100
AcDbLine
 10
180.7548021060174
 20
80.69999999999999
 30
0.0
 11
181.6428932188135
 21
80.69999999999999
 31
0.0
  0
LINE
  5
91D
330
1F
100
AcDbEntity
  8
OBRYS
 62
     5
100
AcDbLine
 10
183.8571067811866
 20
80.49289321881345
 30
0.0
 11
184.3571067811866
 21
79.99289321881345
 31
0.0
  0
LINE
  5
91E
330
1F
100
AcDbEntity
  8
OBRYS
 62
     5
100
AcDbLine
 10
182.1428932188135
 20
82.20710678118654
 30
0.0
 11
181.6428932188135
 21
82.70710678118654
 31
0.0
  0
LINE
  5
91F
330
1F
100
AcDbEntity
  8
OBRYS
 62
     5
100
AcDbLine
 10
182.1428932188135
 20
80.49289321881345
 30
0.0
 11
181.6428932188135
 21
79.99289321881345
 31
0.0
  0
CIRCLE
  5
920
330
1F
100
AcDbEntity
  8
OBRYS
 62
     5
100
AcDbCircle
 10
183.0
 20
81.35
 30
0.0
 40
0.7
  0
LINE
  5
921
330
1F
100
AcDbEntity
  8
OBRYS
 62
     5
100
AcDbLine
 10
174.0
 20
8.6
 30
0.0
 11
192.0
 21
8.599999999999994
 31
0.0
  0
LINE
  5
922
330
1F
100
AcDbEntity
  8
OBRYS
 62
     5
100
AcDbLine
 10
174.0
 20
89.6
 30
0.0
 11
192.0
 21
89.6
 31
0.0
  0
LINE
  5
923
102
{ACAD_REACTORS
330
A52
102
}
330
1F
100
AcDbEntity
  8
OBRYS
 62
     5
100
AcDbLine
 10
177.0
 20
54.2
 30
0.0
 11
177.0
 21
59.89999999999999
 31
0.0
  0
LINE
  5
924
102
{ACAD_REACTORS
330
A52
102
}
330
1F
100
AcDbEntity
  8
OBRYS
 62
     5
100
AcDbLine
 10
177.0
 20
59.89999999999999
 30
0.0
 11
189.0
 21
59.89999999999999
 31
0.0
  0
LINE
  5
925
102
{ACAD_REACTORS
330
A52
102
}
330
1F
100
AcDbEntity
  8
OBRYS
 62
     5
100
AcDbLine
 10
189.0
 20
59.89999999999999
 30
0.0
 11
189.0
 21
54.2
 31
0.0
  0
LINE
  5
926
102
{ACAD_REACTORS
330
A52
102
}
330
1F
100
AcDbEntity
  8
OBRYS
 62
     5
100
AcDbLine
 10
189.0
 20
54.2
 30
0.0
 11
177.0
 21
54.2
 31
0.0
  0
LINE
  5
927
330
1F
100
AcDbEntity
  8
OBRYS
 62
     5
100
AcDbLine
 10
182.35
 20
19.0952
 30
0.0
 11
183.65
 21
19.0951978939826
 31
0.0
  0
LINE
  5
928
330
1F
100
AcDbEntity
  8
OBRYS
 62
     5
100
AcDbLine
 10
182.35
 20
14.6048021060174
 30
0.0
 11
183.65
 21
14.6048021060174
 31
0.0
  0
LINE
  5
929
330
1F
100
AcDbEntity
  8
OBRYS
 62
     5
100
AcDbLine
 10
182.35
 20
79.1048
 30
0.0
 11
183.65
 21
79.1048
 31
0.0
  0
LINE
  5
92A
330
1F
100
AcDbEntity
  8
OBRYS
 62
     5
100
AcDbLine
 10
182.35
 20
83.5952
 30
0.0
 11
183.65
 21
83.5952
 31
0.0
  0
LINE
  5
92B
330
1F
100
AcDbEntity
  8
OBRYS
 62
     5
100
AcDbLine
 10
174.0
 20
11.2
 30
0.0
 11
192.0
 21
11.2
 31
0.0
  0
LINE
  5
92C
330
1F
100
AcDbEntity
  8
OBRYS
 62
     5
100
AcDbLine
 10
174.0
 20
87.0
 30
0.0
 11
192.0
 21
87.0
 31
0.0
  0
LINE
  5
943
330
1F
100
AcDbEntity
  8
OBRYS
 62
     5
100
AcDbLine
 10
125.6968703693801
 20
6.899999999999999
 30
0.0
 11
132.3031296306199
 21
6.9
 31
0.0
  0
ARC
  5
944
330
1F
100
AcDbEntity
  8
OBRYS
 62
     5
100
AcDbCircle
 10
125.6968703693801
 20
6.203129630619872
 30
0.0
 40
0.6968703693801268
100
AcDbArc
 50
89.99999999999999
 51
180.0
  0
ARC
  5
945
330
1F
100
AcDbEntity
  8
OBRYS
 62
     5
100
AcDbCircle
 10
132.3031296306199
 20
6.203129630619873
 30
0.0
 40
0.6968703693801266
100
AcDbArc
 50
0.0
 51
90.0
  0
DIMENSION
  5
95C
330
1F
100
AcDbEntity
  8
KOTY
 62
     1
100
AcDbDimension
  2
*D13
 10
192.0
 20
-10.0
 30
0.0
 11
156.0
 21
-10.0
 31
0.0
 70
   160
  3
STANDARD
100
AcDbAlignedDimension
 13
120.0
 23
8.1
 33
0.0
 14
192.0
 24
8.1
 34
0.0
100
AcDbRotatedDimension
1001
ACAD
1000
DSTYLE
1002
{
1070
   278
1070
    44
1070
   147
1040
1.0
1070
    77
1070
     1
1070
    41
1040
4.0
1070
   271
1070
     0
1070
   140
1040
4.0
1002
}
  0
DIMENSION
  5
96C
330
1F
100
AcDbEntity
  8
KOTY
 62
     1
100
AcDbDimension
  2
*D14
 10
202.0
 20
16.85
 30
0.0
 11
202.0
 21
49.09999999999999
 31
0.0
 70
   160
  3
STANDARD
100
AcDbAlignedDimension
 13
183.0
 23
81.35
 33
0.0
 14
183.0
 24
16.85
 34
0.0
 50
90.0
100
AcDbRotatedDimension
1001
ACAD
1000
DSTYLE
1002
{
1070
   278
1070
    44
1070
    77
1070
     3
1070
    73
1070
     0
1070
   271
1070
     1
1070
    41
1040
4.0
1070
   140
1040
4.0
1070
   147
1040
1.0
1002
}
  0
LINE
  5
9D2
330
1F
100
AcDbEntity
  8
OBRYS
 62
     5
100
AcDbLine
 10
68.80002106171477
 20
69.80000823709875
 30
0.0
 11
68.80002106171477
 21
72.90000823709875
 31
0.0
  0
LINE
  5
9D3
330
1F
100
AcDbEntity
  8
OBRYS
 62
     5
100
AcDbLine
 10
68.80002106171477
 20
72.90000823709875
 30
0.0
 11
65.70002106171478
 21
72.90000823709875
 31
0.0
  0
LINE
  5
9D4
330
1F
100
AcDbEntity
  8
OBRYS
 62
     5
100
AcDbLine
 10
65.70002106171478
 20
72.90000823709875
 30
0.0
 11
65.70002106171478
 21
69.80000823709875
 31
0.0
  0
LINE
  5
9D5
330
1F
100
AcDbEntity
  8
OBRYS
 62
     5
100
AcDbLine
 10
65.70002106171478
 20
69.80000823709875
 30
0.0
 11
68.80002106171477
 21
69.80000823709875
 31
0.0
  0
LINE
  5
9D6
330
1F
100
AcDbEntity
  8
OBRYS
 62
     5
100
AcDbLine
 10
68.10002106171478
 20
69.80000823709875
 30
0.0
 11
68.10002106171478
 21
72.90000823709875
 31
0.0
  0
LINE
  5
9D7
330
1F
100
AcDbEntity
  8
OBRYS
 62
     5
100
AcDbLine
 10
66.10002106171478
 20
69.80000823709875
 30
0.0
 11
66.10002106171478
 21
72.90000823709875
 31
0.0
  0
LINE
  5
9D8
330
1F
100
AcDbEntity
  8
OBRYS
 62
     5
100
AcDbLine
 10
68.80002106171477
 20
84.10000823709875
 30
0.0
 11
68.80002106171477
 21
87.20000823709874
 31
0.0
  0
LINE
  5
9D9
330
1F
100
AcDbEntity
  8
OBRYS
 62
     5
100
AcDbLine
 10
68.80002106171477
 20
87.20000823709874
 30
0.0
 11
65.70002106171478
 21
87.20000823709874
 31
0.0
  0
LINE
  5
9DA
330
1F
100
AcDbEntity
  8
OBRYS
 62
     5
100
AcDbLine
 10
65.70002106171478
 20
87.20000823709874
 30
0.0
 11
65.70002106171478
 21
84.10000823709875
 31
0.0
  0
LINE
  5
9DB
330
1F
100
AcDbEntity
  8
OBRYS
 62
     5
100
AcDbLine
 10
65.70002106171478
 20
84.10000823709875
 30
0.0
 11
68.80002106171477
 21
84.10000823709875
 31
0.0
  0
LINE
  5
9DC
330
1F
100
AcDbEntity
  8
OBRYS
 62
     5
100
AcDbLine
 10
68.10002106171478
 20
84.10000823709875
 30
0.0
 11
68.10002106171478
 21
87.20000823709874
 31
0.0
  0
LINE
  5
9DD
330
1F
100
AcDbEntity
  8
OBRYS
 62
     5
100
AcDbLine
 10
66.10002106171478
 20
84.10000823709875
 30
0.0
 11
66.10002106171478
 21
87.20000823709874
 31
0.0
  0
LINE
  5
9DE
330
1F
100
AcDbEntity
  8
OBRYS
  6
HIDDEN
 62
     5
 48
8.0
100
AcDbLine
 10
32.5
 20
90.1
 30
0.0
 11
32.5
 21
87.1
 31
0.0
  0
LINE
  5
9DF
330
1F
100
AcDbEntity
  8
OBRYS
  6
HIDDEN
 62
     5
 48
8.0
100
AcDbLine
 10
32.5
 20
87.1
 30
0.0
 11
36.0
 21
87.1
 31
0.0
  0
LINE
  5
9E0
330
1F
100
AcDbEntity
  8
OBRYS
  6
HIDDEN
 62
     5
 48
8.0
100
AcDbLine
 10
36.0
 20
87.1
 30
0.0
 11
36.0
 21
90.1
 31
0.0
  0
DIMENSION
  5
9E1
330
1F
100
AcDbEntity
  8
KOTY
 62
     1
100
AcDbDimension
  2
*D15
 10
66.5
 20
102.0
 30
0.0
 11
51.25
 21
102.0
 31
0.0
 70
   160
  3
STANDARD
100
AcDbAlignedDimension
 13
36.0
 23
90.1
 33
0.0
 14
66.5
 24
66.6
 34
0.0
100
AcDbRotatedDimension
1001
ACAD
1000
DSTYLE
1002
{
1070
   278
1070
    44
1070
   147
1040
1.0
1070
    77
1070
     1
1070
   271
1070
     1
1070
   140
1040
4.0
1070
    41
1040
4.0
1002
}
  0
LINE
  5
9F9
330
1F
100
AcDbEntity
  8
OBRYS
 62
     5
100
AcDbLine
 10
120.3
 20
71.6
 30
0.0
 11
120.3
 21
26.6
 31
0.0
  0
LINE
  5
9FA
330
1F
100
AcDbEntity
  8
OBRYS
 62
     5
100
AcDbLine
 10
137.7
 20
26.6
 30
0.0
 11
137.7
 21
71.6
 31
0.0
  0
LINE
  5
9FB
330
1F
100
AcDbEntity
  8
OBRYS
 62
     5
100
AcDbLine
 10
138.3
 20
71.6
 30
0.0
 11
138.3
 21
26.6
 31
0.0
  0
LINE
  5
9FC
330
1F
100
AcDbEntity
  8
OBRYS
 62
     5
100
AcDbLine
 10
155.7
 20
26.6
 30
0.0
 11
155.7
 21
71.6
 31
0.0
  0
LINE
  5
9FD
330
1F
100
AcDbEntity
  8
OBRYS
 62
     5
100
AcDbLine
 10
156.3
 20
71.6
 30
0.0
 11
156.3
 21
26.6
 31
0.0
  0
LINE
  5
9FE
330
1F
100
AcDbEntity
  8
OBRYS
 62
     5
100
AcDbLine
 10
173.7
 20
26.6
 30
0.0
 11
173.7
 21
71.6
 31
0.0
  0
LINE
  5
9FF
330
1F
100
AcDbEntity
  8
OBRYS
 62
     5
100
AcDbLine
 10
174.3
 20
71.6
 30
0.0
 11
174.3
 21
26.6
 31
0.0
  0
LINE
  5
A00
330
1F
100
AcDbEntity
  8
OBRYS
 62
     5
100
AcDbLine
 10
191.7
 20
26.6
 30
0.0
 11
191.7
 21
71.6
 31
0.0
  0
LINE
  5
A01
330
1F
100
AcDbEntity
  8
OBRYS
 62
     5
100
AcDbLine
 10
156.0
 20
11.2
 30
0.0
 11
156.0
 21
8.6
 31
0.0
  0
HATCH
  5
A52
330
1F
100
AcDbEntity
  8
OKENKO
  6
HIDDEN
100
AcDbHatch
 10
0.0
 20
0.0
 30
0.0
210
0.0
220
0.0
230
1.0
  2
ANSI31
 70
     0
 71
     1
 91
        1
 92
        7
 72
     0
 73
     1
 93
        4
 10
189.0
 20
54.2
 10
189.0
 20
59.89999999999999
 10
177.0
 20
59.89999999999999
 10
177.0
 20
54.2
 97
        4
330
925
330
924
330
923
330
926
 75
     0
 76
     1
 52
0.0
 41
0.000001
 77
     0
 78
     1
 53
45.0
 43
0.0
 44
0.0
 45
-0.0000000883883476
 46
0.0000000883883476
 79
     0
 47
0.0
 98
        1
 10
180.5107901399021
 20
57.9620290313186
1001
ACAD
1010
0.0
1020
0.0
1030
0.0
  0
VIEWPORT
  5
B2F
330
B2B
100
AcDbEntity
 67
     1
  8
0
100
AcDbViewport
 10
5.25
 20
4.0
 30
0.0
 40
12.6
 41
9.6
 68
     1
 69
     1
1001
ACAD
1000
MVIEW
1002
{
1070
    16
1010
0.0
1020
0.0
1030
0.0
1010
0.0
1020
0.0
1030
1.0
1040
0.0
1040
9.6
1040
5.25
1040
4.0
1040
50.0
1040
0.0
1040
0.0
1070
     0
1070
   100
1070
     0
1070
     3
1070
     0
1070
     0
1070
     0
1070
     0
1040
0.0
1040
0.0
1040
0.0
1040
0.5
1040
0.5
1040
0.0
1040
0.0
1070
     0
1002
{
1002
}
1002
}
  0
VIEWPORT
  5
B30
330
B2B
100
AcDbEntity
 67
     1
  8
0
100
AcDbViewport
 10
5.25
 20
4.0
 30
0.0
 40
8.4
 41
6.4
 68
     2
 69
     2
1001
ACAD
1000
MVIEW
1002
{
1070
    16
1010
0.0
1020
0.0
1030
0.0
1010
0.0
1020
0.0
1030
1.0
1040
0.0
1040
176.2392051576203
1040
89.27747217187417
1040
39.24452491902015
1040
50.0
1040
0.0
1040
0.0
1070
     0
1070
   100
1070
     0
1070
     3
1070
     0
1070
     0
1070
     0
1070
     0
1040
0.0
1040
0.0
1040
0.0
1040
0.5
1040
0.5
1040
0.0
1040
0.0
1070
     0
1002
{
1002
}
1002
}
  0
ENDSEC
  0
SECTION
  2
OBJECTS
  0
DICTIONARY
  5
C
330
0
100
AcDbDictionary
  3
ACAD_DETAILVIEWSTYLE
350
A2F
  3
ACAD_GROUP
350
D
  3
ACAD_IMAGE_VARS
350
DC
  3
ACAD_MLINESTYLE
350
17
  3
ACAD_SCALELIST
350
AE5
  3
ACAD_SECTIONVIEWSTYLE
350
A30
  3
ACDBVARIABLEDICTIONARY
350
66
  3
APPDATA
350
E1
  3
DWGPROPS
350
B32
  0
DICTIONARY
  5
A32
330
2
100
AcDbDictionary
280
     1
  3
ACAD_LAYERSTATES
360
A33
  3
ACLYDICTIONARY
360
AE3
  0
DICTIONARY
  5
A2F
102
{ACAD_REACTORS
330
C
102
}
330
C
100
AcDbDictionary
  0
DICTIONARY
  5
D
102
{ACAD_REACTORS
330
C
102
}
330
C
100
AcDbDictionary
  0
RASTERVARIABLES
  5
DC
102
{ACAD_REACTORS
330
C
102
}
330
C
100
AcDbRasterVariables
 90
        0
 70
     1
 71
     1
 72
     5
  0
DICTIONARY
  5
17
102
{ACAD_REACTORS
330
C
102
}
330
C
100
AcDbDictionary
  3
STANDARD
350
18
  0
DICTIONARY
  5
AE5
102
{ACAD_REACTORS
330
C
102
}
330
C
100
AcDbDictionary
  0
DICTIONARY
  5
A30
102
{ACAD_REACTORS
330
C
102
}
330
C
100
AcDbDictionary
  0
DICTIONARY
  5
66
102
{ACAD_REACTORS
330
C
102
}
330
C
100
AcDbDictionary
  3
DIMASSOC
350
67
  3
HIDETEXT
350
6B
  0
DICTIONARY
  5
E1
102
{ACAD_REACTORS
330
C
102
}
330
C
100
AcDbDictionary
  0
XRECORD
  5
B32
102
{ACAD_REACTORS
330
C
102
}
330
C
100
AcDbXrecord
  1
DWGPROPS COOKIE
  2

  3

  4

  6

  7

  8
jaromir.podrabsky
  9

300
=
301
=
302
=
303
=
304
=
305
=
306
=
307
=
308
=
309
=
 40
0.0
 41
2452643.021717593
 42
2456765.265728391
  1

 90
        0
  0
DICTIONARY
  5
A33
102
{ACAD_REACTORS
330
A32
102
}
330
A32
100
AcDbDictionary
  0
DICTIONARY
  5
AE3
102
{ACAD_REACTORS
330
A32
102
}
330
A32
100
AcDbDictionary
1001
ACAD
1000
<All
  0
MLINESTYLE
  5
18
102
{ACAD_REACTORS
330
17
102
}
330
17
100
AcDbMlineStyle
  2
STANDARD
 70
     0
  3

 62
   256
 51
90.0
 52
90.0
 71
     2
 49
0.5
 62
   256
  6
BYLAYER
 49
-0.5
 62
   256
  6
BYLAYER
  0
DICTIONARYVAR
  5
67
102
{ACAD_REACTORS
330
66
102
}
330
66
100
DictionaryVariables
280
     0
  1
2
  0
DICTIONARYVAR
  5
6B
102
{ACAD_REACTORS
330
66
102
}
330
66
100
DictionaryVariables
280
     0
  1
1
  0
ENDSEC
  0
EOF
