  0
SECTION
  2
HEADER
  9
$ACADVER
  1
AC1009
  9
$DWGCODEPAGE
  3
ansi_1250
  9
$INSBASE
 10
0.0
 20
0.0
 30
0.0
  9
$EXTMIN
 10
-23.66261144267097
 20
-29.30604931718375
 30
0.0
  9
$EXTMAX
 10
166.6666666666667
 20
139.0919537402668
 30
0.0
  9
$LIMMIN
 10
0.0
 20
0.0
  9
$LIMMAX
 10
12.0
 20
9.0
  9
$ORTHOMODE
 70
     0
  9
$REGENMODE
 70
     1
  9
$FILLMODE
 70
     1
  9
$QTEXTMODE
 70
     0
  9
$MIRRTEXT
 70
     0
  9
$DRAGMODE
 70
     2
  9
$LTSCALE
 40
1.0
  9
$OSMODE
 70
 15359
  9
$ATTMODE
 70
     1
  9
$TEXTSIZE
 40
0.2
  9
$TRACEWID
 40
0.05
  9
$TEXTSTYLE
  7
STANDARD
  9
$CLAYER
  8
0
  9
$CELTYPE
  6
BYLAYER
  9
$CECOLOR
 62
     1
  9
$DIMSCALE
 40
1.0
  9
$DIMASZ
 40
0.18
  9
$DIMEXO
 40
0.0625
  9
$DIMDLI
 40
0.38
  9
$DIMRND
 40
0.0
  9
$DIMDLE
 40
0.0
  9
$DIMEXE
 40
0.18
  9
$DIMTP
 40
0.0
  9
$DIMTM
 40
0.0
  9
$DIMTXT
 40
0.18
  9
$DIMCEN
 40
0.09
  9
$DIMTSZ
 40
0.0
  9
$DIMTOL
 70
     0
  9
$DIMLIM
 70
     0
  9
$DIMTIH
 70
     1
  9
$DIMTOH
 70
     1
  9
$DIMSE1
 70
     0
  9
$DIMSE2
 70
     0
  9
$DIMTAD
 70
     0
  9
$DIMZIN
 70
     0
  9
$DIMBLK
  1

  9
$DIMASO
 70
     1
  9
$DIMSHO
 70
     1
  9
$DIMPOST
  1

  9
$DIMAPOST
  1

  9
$DIMALT
 70
     0
  9
$DIMALTD
 70
     2
  9
$DIMALTF
 40
25.4
  9
$DIMLFAC
 40
1.0
  9
$DIMTOFL
 70
     0
  9
$DIMTVP
 40
0.0
  9
$DIMTIX
 70
     0
  9
$DIMSOXD
 70
     0
  9
$DIMSAH
 70
     0
  9
$DIMBLK1
  1

  9
$DIMBLK2
  1

  9
$DIMSTYLE
  2
STANDARD
  9
$DIMCLRD
 70
     0
  9
$DIMCLRE
 70
     0
  9
$DIMCLRT
 70
     0
  9
$DIMTFAC
 40
1.0
  9
$DIMGAP
 40
0.09
  9
$LUNITS
 70
     2
  9
$LUPREC
 70
     4
  9
$SKETCHINC
 40
0.1
  9
$FILLETRAD
 40
0.6968703693801268
  9
$AUNITS
 70
     0
  9
$AUPREC
 70
     0
  9
$MENU
  1
.
  9
$ELEVATION
 40
0.0
  9
$PELEVATION
 40
0.0
  9
$THICKNESS
 40
0.0
  9
$LIMCHECK
 70
     0
  9
$CHAMFERA
 40
0.0
  9
$CHAMFERB
 40
0.0
  9
$SKPOLY
 70
     0
  9
$TDCREATE
 40
2452643.105050926
  9
$TDUPDATE
 40
2456765.571811921
  9
$TDINDWG
 40
0.5759825579
  9
$TDUSRTIMER
 40
2456765.486587083
  9
$USRTIMER
 70
     1
  9
$ANGBASE
 50
0.0
  9
$ANGDIR
 70
     0
  9
$PDMODE
 70
     0
  9
$PDSIZE
 40
0.0
  9
$PLINEWID
 40
0.0
  9
$COORDS
 70
     2
  9
$SPLFRAME
 70
     0
  9
$SPLINETYPE
 70
     6
  9
$SPLINESEGS
 70
     8
  9
$ATTDIA
 70
     0
  9
$ATTREQ
 70
     1
  9
$HANDLING
 70
     1
  9
$HANDSEED
  5
975
  9
$SURFTAB1
 70
     6
  9
$SURFTAB2
 70
     6
  9
$SURFTYPE
 70
     6
  9
$SURFU
 70
     6
  9
$SURFV
 70
     6
  9
$UCSNAME
  2

  9
$UCSORG
 10
0.0
 20
0.0
 30
0.0
  9
$UCSXDIR
 10
1.0
 20
0.0
 30
0.0
  9
$UCSYDIR
 10
0.0
 20
1.0
 30
0.0
  9
$PUCSNAME
  2

  9
$PUCSORG
 10
0.0
 20
0.0
 30
0.0
  9
$PUCSXDIR
 10
1.0
 20
0.0
 30
0.0
  9
$PUCSYDIR
 10
0.0
 20
1.0
 30
0.0
  9
$USERI1
 70
     0
  9
$USERI2
 70
     0
  9
$USERI3
 70
     0
  9
$USERI4
 70
     0
  9
$USERI5
 70
     0
  9
$USERR1
 40
0.0
  9
$USERR2
 40
0.0
  9
$USERR3
 40
0.0
  9
$USERR4
 40
0.0
  9
$USERR5
 40
0.0
  9
$WORLDVIEW
 70
     1
  9
$SHADEDGE
 70
     3
  9
$SHADEDIF
 70
    70
  9
$TILEMODE
 70
     0
  9
$MAXACTVP
 70
    64
  9
$PLIMCHECK
 70
     0
  9
$PEXTMIN
 10
0.0
 20
0.0
 30
0.0
  9
$PEXTMAX
 10
0.0
 20
0.0
 30
0.0
  9
$PLIMMIN
 10
-0.25
 20
-0.25
  9
$PLIMMAX
 10
10.75
 20
8.25
  9
$UNITMODE
 70
     0
  9
$VISRETAIN
 70
     1
  9
$PLINEGEN
 70
     0
  9
$PSLTSCALE
 70
     1
  0
ENDSEC
  0
SECTION
  2
TABLES
  0
TABLE
  2
VPORT
 70
     1
  0
VPORT
  2
*ACTIVE
 70
     0
 10
0.0
 20
0.0
 11
1.0
 21
1.0
 12
105.3293376186113
 22
70.1481487573513
 13
0.0
 23
0.0
 14
0.5
 24
0.5
 15
0.5
 25
0.5
 16
0.0
 26
0.0
 36
1.0
 17
-27.66959356598068
 27
-19.53870295786174
 37
0.0
 40
207.5795422682355
 41
1.260923845193508
 42
50.0
 43
0.0
 44
0.0
 50
0.0
 51
0.0
 71
    16
 72
  1000
 73
     1
 74
     3
 75
     0
 76
     0
 77
     0
 78
     0
  0
ENDTAB
  0
TABLE
  2
LTYPE
 70
     2
  0
LTYPE
  2
CONTINUOUS
 70
     0
  3
Solid line
 72
    65
 73
     0
 40
0.0
  0
LTYPE
  2
HIDDEN
 70
     0
  3
 Hidden _ _ _ _ _ _ _ _ _ _ _ _ _ _ _ _ _ _ _ _
 72
    65
 73
     2
 40
0.375
 49
0.25
 49
-0.125
  0
ENDTAB
  0
TABLE
  2
LAYER
 70
     5
  0
LAYER
  2
0
 70
     0
 62
     7
  6
CONTINUOUS
  0
LAYER
  2
DEFPOINTS
 70
     0
 62
     7
  6
CONTINUOUS
  0
LAYER
  2
OBRYS
 70
     0
 62
     5
  6
CONTINUOUS
  0
LAYER
  2
KOTY
 70
     0
 62
     1
  6
CONTINUOUS
  0
LAYER
  2
OKENKO
 70
     0
 62
     5
  6
CONTINUOUS
  0
ENDTAB
  0
TABLE
  2
STYLE
 70
     1
  0
STYLE
  2
STANDARD
 70
     0
 40
0.0
 41
1.0
 50
0.0
 71
     0
 42
0.2
  3
arial.ttf
  4

  0
ENDTAB
  0
TABLE
  2
VIEW
 70
     0
  0
ENDTAB
  0
TABLE
  2
UCS
 70
     0
  0
ENDTAB
  0
TABLE
  2
APPID
 70
     2
  0
APPID
  2
ACAD
 70
     0
  0
APPID
  2
ACAECLAYERSTANDARD
 70
     0
  0
ENDTAB
  0
TABLE
  2
DIMSTYLE
 70
     1
  0
DIMSTYLE
  2
STANDARD
 70
     0
  3

  4

  5

  6

  7

 40
1.0
 41
0.18
 42
0.0625
 43
0.38
 44
0.18
 45
0.0
 46
0.0
 47
0.0
 48
0.0
140
0.18
141
0.09
142
0.0
143
25.4
144
1.0
145
0.0
146
1.0
147
0.09
 71
     0
 72
     0
 73
     1
 74
     1
 75
     0
 76
     0
 77
     0
 78
     0
170
     0
171
     2
172
     0
173
     0
174
     0
175
     0
176
     0
177
     0
178
     0
  0
ENDTAB
  0
ENDSEC
  0
SECTION
  2
BLOCKS
  0
BLOCK
  8
0
  2
$MODEL_SPACE
 70
     0
 10
0.0
 20
0.0
 30
0.0
  3
$MODEL_SPACE
  1

  0
ENDBLK
  5
21
  8
0
  0
BLOCK
 67
     1
  8
0
  2
$PAPER_SPACE
 70
     0
 10
0.0
 20
0.0
 30
0.0
  3
$PAPER_SPACE
  1

  0
ENDBLK
  5
92D
 67
     1
  8
0
  0
BLOCK
  8
0
  2
KRAJ
 70
     0
 10
0.0
 20
0.0
 30
0.0
  3
KRAJ
  1
KRAJ
  0
LINE
  5
2F4
  8
0
 10
23.17858802006699
 20
11.88396178886323
 30
0.0
 11
23.60596071879165
 21
11.63561481963468
 31
0.0
  0
LINE
  5
2F5
  8
0
 10
28.08586695810881
 20
9.034769131708918
 30
0.0
 11
28.51846735840103
 21
8.783581802506982
 31
0.0
  0
LINE
  5
2F6
  8
0
 10
23.17858802006699
 20
11.88396178886323
 30
0.0
 11
23.73102181544385
 21
12.83537554756782
 31
0.0
  0
LINE
  5
2F7
  8
0
 10
28.51846735840103
 20
8.783581802506982
 30
0.0
 11
29.07081642752618
 21
9.73484964377808
 31
0.0
  0
LINE
  5
2F8
  8
0
 10
27.83479919941555
 20
8.602374658403873
 30
0.0
 11
28.08586695810881
 21
9.034769131708918
 31
0.0
  0
LINE
  5
2F9
  8
0
 10
23.35474539744931
 20
11.20330606154289
 30
0.0
 11
23.60581314151945
 21
11.63570050966369
 31
0.0
  0
LINE
  5
2FA
  8
0
 10
23.73102181544385
 20
12.83537554756782
 30
0.0
 11
29.07081642752618
 21
9.73484964377808
 31
0.0
  0
POLYLINE
  5
2FB
  8
0
 66
     1
 10
0.0
 20
0.0
 30
0.0
  0
VERTEX
  5
954
  8
0
 10
25.3609758012149
 20
11.88895065260398
 30
0.0
  0
VERTEX
  5
955
  8
0
 10
25.30573563890113
 20
11.74779841644219
 30
0.0
  0
VERTEX
  5
956
  8
0
 10
25.29258276363709
 20
11.58886542366543
 30
0.0
  0
VERTEX
  5
957
  8
0
 10
25.32202263304295
 20
11.41825938005547
 30
0.0
  0
VERTEX
  5
958
  8
0
 10
25.39292388944752
 20
11.24253658019127
 30
0.0
  0
VERTEX
  5
959
  8
0
 10
25.50256183732905
 20
11.06844995272512
 30
0.0
  0
VERTEX
  5
95A
  8
0
 10
25.64672315183613
 20
10.90268954912165
 30
0.0
  0
VERTEX
  5
95B
  8
0
 10
25.81986779449884
 20
10.75162544873183
 30
0.0
  0
VERTEX
  5
95C
  8
0
 10
26.01534191380029
 20
10.62106296021591
 30
0.0
  0
VERTEX
  5
95D
  8
0
 10
26.22563354895888
 20
10.51601952678729
 30
0.0
  0
VERTEX
  5
95E
  8
0
 10
26.44266131036836
 20
10.44053190868358
 30
0.0
  0
VERTEX
  5
95F
  8
0
 10
26.65808494286835
 20
10.39750105273456
 30
0.0
  0
VERTEX
  5
960
  8
0
 10
26.86362583707283
 20
10.38858061060238
 30
0.0
  0
VERTEX
  5
961
  8
0
 10
27.05138517168619
 20
10.41411338987553
 30
0.0
  0
VERTEX
  5
962
  8
0
 10
27.21414746077588
 20
10.4731181801655
 30
0.0
  0
VERTEX
  5
963
  8
0
 10
27.34565784085033
 20
10.5633274604717
 30
0.0
  0
VERTEX
  5
964
  8
0
 10
27.44086244175514
 20
10.68127453874192
 30
0.0
  0
SEQEND
  5
971
  8
0
  0
LINE
  5
2FC
  8
0
 10
24.60098340460934
 20
12.33023656031044
 30
0.0
 11
24.09875154992429
 21
11.46515194972255
 31
0.0
  0
LINE
  5
2FD
  8
0
 10
28.20211116541818
 20
10.23925915080853
 30
0.0
 11
27.70001548530882
 21
9.374409098281191
 31
0.0
  0
LINE
  5
2FE
  8
0
 10
27.70001548530882
 20
9.374409098281191
 30
0.0
 11
24.09875154992429
 21
11.46515194972255
 31
0.0
  0
ENDBLK
  5
2F3
  8
0
  0
BLOCK
  8
0
  2
FRONT
 70
     0
 10
0.0
 20
0.0
 30
0.0
  3
FRONT
  1
FRONT
  0
LINE
  5
30F
  8
0
 10
124.7071067811866
 20
0.0
 30
0.0
 11
133.2928932188134
 21
0.0
 31
0.0
  0
LINE
  5
310
  8
0
 10
120.0
 20
8.1
 30
0.0
 11
138.0
 21
8.1
 31
0.0
  0
LINE
  5
311
  8
0
 10
123.15
 20
6.2
 30
0.0
 11
134.85
 21
6.2
 31
0.0
  0
LINE
  5
312
  8
0
 10
123.15
 20
6.2
 30
0.0
 11
121.95
 21
8.1
 31
0.0
  0
LINE
  5
313
  8
0
 10
134.85
 20
6.2
 30
0.0
 11
136.05
 21
8.1
 31
0.0
  0
LINE
  5
314
  8
0
 10
125.7071067811866
 20
1.0
 30
0.0
 11
132.2928932188134
 21
1.0
 31
0.0
  0
LINE
  5
315
  8
0
 10
125.0
 20
1.707106781186548
 30
0.0
 11
125.0
 21
6.2
 31
0.0
  0
LINE
  5
316
  8
0
 10
133.0
 20
1.707106781186548
 30
0.0
 11
133.0
 21
6.2
 31
0.0
  0
ARC
  5
317
  8
0
 10
125.7071067811866
 20
1.707106781186548
 30
0.0
 40
0.707106781186548
 50
180.0
 51
270.0
  0
ARC
  5
318
  8
0
 10
132.2928932188134
 20
1.707106781186548
 30
0.0
 40
0.707106781186548
 50
270.0
 51
359.9999999999998
  0
LINE
  5
319
  8
0
 10
121.7
 20
8.1
 30
0.0
 11
121.7
 21
5.207106781186549
 31
0.0
  0
LINE
  5
31A
  8
0
 10
125.0
 20
4.5
 30
0.0
 11
122.4071067811866
 21
4.500000000000001
 31
0.0
  0
ARC
  5
31B
  8
0
 10
122.4071067811866
 20
5.207106781186549
 30
0.0
 40
0.707106781186548
 50
180.0
 51
270.0
  0
LINE
  5
31C
  8
0
 10
136.3
 20
8.100000000000001
 30
0.0
 11
136.3
 21
5.207106781186541
 31
0.0
  0
LINE
  5
31D
  8
0
 10
133.0170014197672
 20
4.5
 30
0.0
 11
135.5928932188135
 21
4.5
 31
0.0
  0
ARC
  5
31E
  8
0
 10
135.5928932188135
 20
5.207106781186548
 30
0.0
 40
0.7071067811865475
 50
270.0
 51
359.9999999999993
  0
LINE
  5
31F
  8
0
 10
124.0
 20
4.5
 30
0.0
 11
124.0
 21
0.7071067811865479
 31
0.0
  0
LINE
  5
320
  8
0
 10
134.0
 20
4.5
 30
0.0
 11
134.0
 21
0.7071067811865479
 31
0.0
  0
ARC
  5
321
  8
0
 10
133.2928932188134
 20
0.707106781186548
 30
0.0
 40
0.707106781186548
 50
270.0
 51
359.9999999999998
  0
ARC
  5
322
  8
0
 10
124.7071067811866
 20
0.7071067811865479
 30
0.0
 40
0.707106781186548
 50
180.0
 51
270.0
  0
LINE
  5
323
  8
0
 10
120.0
 20
8.1
 30
0.0
 11
120.0
 21
90.1
 31
0.0
  0
LINE
  5
324
  8
0
 10
120.0
 20
90.1
 30
0.0
 11
138.0
 21
90.1
 31
0.0
  0
LINE
  5
325
  8
0
 10
138.0
 20
90.1
 30
0.0
 11
138.0
 21
8.1
 31
0.0
  0
LINE
  5
326
  8
0
 10
123.15
 20
91.99999999999999
 30
0.0
 11
121.95
 21
90.1
 31
0.0
  0
LINE
  5
327
  8
0
 10
123.15
 20
91.99999999999999
 30
0.0
 11
134.85
 21
91.99999999999999
 31
0.0
  0
LINE
  5
328
  8
0
 10
134.85
 20
91.99999999999999
 30
0.0
 11
136.05
 21
90.1
 31
0.0
  0
LINE
  5
329
  8
0
 10
120.0
 20
26.1
 30
0.0
 11
138.0
 21
26.1
 31
0.0
  0
LINE
  5
32A
  8
0
 10
120.0
 20
26.6
 30
0.0
 11
138.0
 21
26.6
 31
0.0
  0
LINE
  5
32B
  8
0
 10
120.0
 20
71.6
 30
0.0
 11
138.0
 21
71.6
 31
0.0
  0
LINE
  5
32C
  8
0
 10
120.0
 20
72.1
 30
0.0
 11
138.0
 21
72.1
 31
0.0
  0
POLYLINE
  5
32D
  8
0
 66
     1
 10
0.0
 20
0.0
 30
0.0
 70
     1
  0
VERTEX
  5
965
  8
0
 10
123.0
 20
54.2
 30
0.0
  0
VERTEX
  5
966
  8
0
 10
123.0
 20
59.89999999999999
 30
0.0
  0
VERTEX
  5
967
  8
0
 10
135.0
 20
59.89999999999999
 30
0.0
  0
VERTEX
  5
968
  8
0
 10
135.0
 20
54.2
 30
0.0
  0
SEQEND
  5
972
  8
0
  0
LINE
  5
32E
  8
0
 10
127.3
 20
26.1
 30
0.0
 11
127.3
 21
24.6
 31
0.0
  0
LINE
  5
32F
  8
0
 10
127.3
 20
24.6
 30
0.0
 11
129.0
 21
24.6
 31
0.0
  0
LINE
  5
330
  8
0
 10
129.0
 20
24.6
 30
0.0
 11
129.0
 21
26.1
 31
0.0
  0
LINE
  5
331
  8
0
 10
126.45
 20
26.1
 30
0.0
 11
126.45
 21
23.6
 31
0.0
  0
LINE
  5
332
  8
0
 10
126.45
 20
23.6
 30
0.0
 11
129.85
 21
23.6
 31
0.0
  0
LINE
  5
333
  8
0
 10
129.85
 20
23.6
 30
0.0
 11
129.85
 21
26.1
 31
0.0
  0
LINE
  5
334
  8
0
 10
126.45
 20
23.6
 30
0.0
 11
127.3
 21
24.6
 31
0.0
  0
LINE
  5
335
  8
0
 10
129.0
 20
24.6
 30
0.0
 11
129.85
 21
23.6
 31
0.0
  0
LINE
  5
336
  8
0
 10
127.3
 20
72.1
 30
0.0
 11
127.3
 21
73.6
 31
0.0
  0
LINE
  5
337
  8
0
 10
127.3
 20
73.6
 30
0.0
 11
129.0
 21
73.6
 31
0.0
  0
LINE
  5
338
  8
0
 10
129.0
 20
73.6
 30
0.0
 11
129.0
 21
72.1
 31
0.0
  0
LINE
  5
339
  8
0
 10
126.45
 20
72.1
 30
0.0
 11
126.45
 21
74.6
 31
0.0
  0
LINE
  5
33A
  8
0
 10
126.45
 20
74.6
 30
0.0
 11
129.85
 21
74.6
 31
0.0
  0
LINE
  5
33B
  8
0
 10
129.85
 20
74.6
 30
0.0
 11
129.85
 21
72.1
 31
0.0
  0
LINE
  5
33C
  8
0
 10
126.45
 20
74.6
 30
0.0
 11
127.3
 21
73.6
 31
0.0
  0
LINE
  5
33D
  8
0
 10
129.0
 20
73.6
 30
0.0
 11
129.85
 21
74.6
 31
0.0
  0
CIRCLE
  5
33E
  8
0
 10
129.0
 20
16.85
 30
0.0
 40
3.2
  0
LINE
  5
33F
  8
0
 10
120.0
 20
11.7
 30
0.0
 11
138.0
 21
11.7
 31
0.0
  0
LINE
  5
340
  8
0
 10
120.0
 20
86.5
 30
0.0
 11
138.0
 21
86.5
 31
0.0
  0
LINE
  5
341
  8
0
 10
128.35
 20
18.20710678118655
 30
0.0
 11
128.35
 21
19.98328900677866
 31
0.0
  0
LINE
  5
342
  8
0
 10
128.35
 20
13.71671099322134
 30
0.0
 11
128.35
 21
15.49289321881345
 31
0.0
  0
LINE
  5
343
  8
0
 10
129.65
 20
18.20710678118655
 30
0.0
 11
129.65
 21
19.98328900677866
 31
0.0
  0
LINE
  5
344
  8
0
 10
129.65
 20
13.71671099322134
 30
0.0
 11
129.65
 21
15.49289321881345
 31
0.0
  0
ARC
  5
345
  8
0
 10
127.6428932188135
 20
18.20710678118655
 30
0.0
 40
0.707106781186548
 50
270.0
 51
0.0
  0
ARC
  5
346
  8
0
 10
130.3571067811866
 20
18.20710678118655
 30
0.0
 40
0.707106781186548
 50
180.0
 51
270.0
  0
ARC
  5
347
  8
0
 10
130.3571067811866
 20
15.49289321881345
 30
0.0
 40
0.707106781186548
 50
90.0
 51
180.0
  0
ARC
  5
348
  8
0
 10
127.6428932188135
 20
15.49289321881345
 30
0.0
 40
0.707106781186548
 50
0.0
 51
90.0
  0
LINE
  5
349
  8
0
 10
126.75
 20
16.2
 30
0.0
 11
126.75
 21
17.5
 31
0.0
  0
LINE
  5
34A
  8
0
 10
131.25
 20
16.2
 30
0.0
 11
131.25
 21
17.5
 31
0.0
  0
LINE
  5
34B
  8
0
 10
130.3571067811866
 20
16.2
 30
0.0
 11
131.2451978939826
 21
16.2
 31
0.0
  0
LINE
  5
34C
  8
0
 10
130.3571067811866
 20
17.5
 30
0.0
 11
131.2451978939826
 21
17.5
 31
0.0
  0
LINE
  5
34D
  8
0
 10
126.7548021060174
 20
17.5
 30
0.0
 11
127.6428932188135
 21
17.5
 31
0.0
  0
LINE
  5
34E
  8
0
 10
129.8571067811866
 20
17.70710678118655
 30
0.0
 11
130.3571067811866
 21
18.20710678118655
 31
0.0
  0
LINE
  5
34F
  8
0
 10
126.7548021060174
 20
16.2
 30
0.0
 11
127.6428932188135
 21
16.2
 31
0.0
  0
LINE
  5
350
  8
0
 10
129.8571067811866
 20
15.99289321881345
 30
0.0
 11
130.3571067811866
 21
15.49289321881345
 31
0.0
  0
LINE
  5
351
  8
0
 10
128.1428932188135
 20
17.70710678118655
 30
0.0
 11
127.6428932188135
 21
18.20710678118655
 31
0.0
  0
LINE
  5
352
  8
0
 10
128.1428932188135
 20
15.99289321881345
 30
0.0
 11
127.6428932188135
 21
15.49289321881345
 31
0.0
  0
CIRCLE
  5
353
  8
0
 10
129.0
 20
16.85
 30
0.0
 40
0.7
  0
CIRCLE
  5
354
  8
0
 10
129.0
 20
81.35
 30
0.0
 40
3.2
  0
LINE
  5
355
  8
0
 10
128.35
 20
78.21671099322133
 30
0.0
 11
128.35
 21
79.99289321881345
 31
0.0
  0
LINE
  5
356
  8
0
 10
128.35
 20
82.70710678118654
 30
0.0
 11
128.35
 21
84.48328900677866
 31
0.0
  0
LINE
  5
357
  8
0
 10
129.65
 20
78.21671099322133
 30
0.0
 11
129.65
 21
79.99289321881345
 31
0.0
  0
LINE
  5
358
  8
0
 10
129.65
 20
82.70710678118654
 30
0.0
 11
129.65
 21
84.48328900677865
 31
0.0
  0
ARC
  5
359
  8
0
 10
127.6428932188135
 20
82.70710678118654
 30
0.0
 40
0.707106781186548
 50
270.0
 51
0.0
  0
ARC
  5
35A
  8
0
 10
130.3571067811866
 20
82.70710678118654
 30
0.0
 40
0.707106781186548
 50
180.0
 51
270.0
  0
ARC
  5
35B
  8
0
 10
130.3571067811866
 20
79.99289321881345
 30
0.0
 40
0.707106781186548
 50
90.0
 51
180.0
  0
ARC
  5
35C
  8
0
 10
127.6428932188135
 20
79.99289321881345
 30
0.0
 40
0.707106781186548
 50
0.0
 51
90.0
  0
LINE
  5
35D
  8
0
 10
126.75
 20
80.69999999999999
 30
0.0
 11
126.75
 21
81.99999999999999
 31
0.0
  0
LINE
  5
35E
  8
0
 10
131.25
 20
80.69999999999999
 30
0.0
 11
131.25
 21
81.99999999999999
 31
0.0
  0
LINE
  5
35F
  8
0
 10
130.3571067811866
 20
80.69999999999999
 30
0.0
 11
131.2451978939826
 21
80.69999999999999
 31
0.0
  0
LINE
  5
360
  8
0
 10
130.3571067811866
 20
81.99999999999999
 30
0.0
 11
131.2451978939826
 21
81.99999999999999
 31
0.0
  0
LINE
  5
361
  8
0
 10
126.7548021060174
 20
81.99999999999999
 30
0.0
 11
127.6428932188135
 21
81.99999999999999
 31
0.0
  0
LINE
  5
362
  8
0
 10
129.8571067811866
 20
82.20710678118654
 30
0.0
 11
130.3571067811866
 21
82.70710678118654
 31
0.0
  0
LINE
  5
363
  8
0
 10
126.7548021060174
 20
80.69999999999999
 30
0.0
 11
127.6428932188135
 21
80.69999999999999
 31
0.0
  0
LINE
  5
364
  8
0
 10
129.8571067811866
 20
80.49289321881345
 30
0.0
 11
130.3571067811866
 21
79.99289321881345
 31
0.0
  0
LINE
  5
365
  8
0
 10
128.1428932188135
 20
82.20710678118654
 30
0.0
 11
127.6428932188135
 21
82.70710678118654
 31
0.0
  0
LINE
  5
366
  8
0
 10
128.1428932188135
 20
80.49289321881345
 30
0.0
 11
127.6428932188135
 21
79.99289321881345
 31
0.0
  0
CIRCLE
  5
367
  8
0
 10
129.0
 20
81.35
 30
0.0
 40
0.7
  0
LINE
  5
368
  8
0
 10
132.0
 20
26.6
 30
0.0
 11
132.0
 21
45.6069647979778
 31
0.0
  0
LINE
  5
369
  8
0
 10
135.0
 20
71.6
 30
0.0
 11
135.0004309006888
 21
51.59527469691521
 31
0.0
  0
LINE
  5
36A
  8
0
 10
132.6112875855771
 20
47.4150501141028
 30
0.0
 11
134.4004309006888
 21
49.79527469691521
 31
0.0
  0
ARC
  5
36B
  8
0
 10
135.0096524697065
 20
45.6163229958218
 30
0.0
 40
3.0
 50
143.1301023541561
 51
180.0
  0
ARC
  5
36C
  8
0
 10
135.0096524697065
 20
45.6163229958218
 30
0.0
 40
3.0
 50
143.1301023541561
 51
180.0
  0
ARC
  5
36D
  8
0
 10
132.0004309006888
 20
51.59527469691521
 30
0.0
 40
3.0
 50
323.1301023541561
 51
0.0
  0
ENDBLK
  5
30E
  8
0
  0
BLOCK
  8
0
  2
*D2
 70
     1
 10
0.0
 20
0.0
 30
0.0
  3
*D2
  1
*D26
  0
LINE
  5
563
  8
KOTY
 62
     0
 10
48.5
 20
38.68170698643668
 30
0.0
 11
48.5
 21
38.79920698643668
 31
0.0
  0
LINE
  5
564
  8
KOTY
 62
     0
 10
66.5
 20
38.68170698643668
 30
0.0
 11
66.5
 21
38.79920698643668
 31
0.0
  0
LINE
  5
565
  8
KOTY
 62
     0
 10
52.5
 20
38.61920698643668
 30
0.0
 11
62.5
 21
38.61920698643668
 31
0.0
  0
SOLID
  5
566
  8
KOTY
 62
     0
 10
52.5
 20
39.28587365310334
 30
0.0
 11
52.5
 21
37.95254031977002
 31
0.0
 12
48.5
 22
38.61920698643668
 32
0.0
 13
48.5
 23
38.61920698643668
 33
0.0
  0
SOLID
  5
567
  8
KOTY
 62
     0
 10
62.5
 20
37.95254031977002
 30
0.0
 11
62.5
 21
39.28587365310334
 31
0.0
 12
66.5
 22
38.61920698643668
 32
0.0
 13
66.5
 23
38.61920698643668
 33
0.0
  0
TEXT
  5
568
  8
KOTY
  6
CONTINUOUS
 62
     0
 10
54.02493343209885
 20
39.69520698643669
 30
0.0
 40
4.0
  1
18
  0
POINT
  5
569
  8
DEFPOINTS
 62
     0
 10
48.5
 20
38.61920698643668
 30
0.0
  0
POINT
  5
56A
  8
DEFPOINTS
 62
     0
 10
66.5
 20
38.61920698643668
 30
0.0
  0
POINT
  5
56B
  8
DEFPOINTS
 62
     0
 10
66.5
 20
38.61920698643668
 30
0.0
  0
ENDBLK
  5
56E
  8
0
  0
BLOCK
  8
0
  2
*D3
 70
     1
 10
0.0
 20
0.0
 30
0.0
  3
*D3
  1
*D27
  0
LINE
  5
573
  8
KOTY
 62
     0
 10
72.5625
 20
0.0
 30
0.0
 11
82.68
 21
0.0
 31
0.0
  0
LINE
  5
574
  8
KOTY
 62
     0
 10
61.7125
 20
92.0
 30
0.0
 11
82.68
 21
92.0
 31
0.0
  0
LINE
  5
575
  8
KOTY
 62
     0
 10
82.5
 20
4.0
 30
0.0
 11
82.5
 21
88.0
 31
0.0
  0
SOLID
  5
576
  8
KOTY
 62
     0
 10
81.83333333333333
 20
4.0
 30
0.0
 11
83.16666666666667
 21
4.0
 31
0.0
 12
82.5
 22
0.0
 32
0.0
 13
82.5
 23
0.0
 33
0.0
  0
SOLID
  5
577
  8
KOTY
 62
     0
 10
83.16666666666667
 20
88.0
 30
0.0
 11
81.83333333333333
 21
88.0
 31
0.0
 12
82.5
 22
92.0
 32
0.0
 13
82.5
 23
92.0
 33
0.0
  0
TEXT
  5
578
  8
KOTY
  6
CONTINUOUS
 62
     0
 10
81.42399999999999
 20
42.928
 30
0.0
 40
4.0
  1
92
 50
90.0
  0
POINT
  5
579
  8
DEFPOINTS
 62
     0
 10
72.5
 20
0.0
 30
0.0
  0
POINT
  5
57A
  8
DEFPOINTS
 62
     0
 10
61.65
 20
92.0
 30
0.0
  0
POINT
  5
57B
  8
DEFPOINTS
 62
     0
 10
82.5
 20
92.0
 30
0.0
  0
ENDBLK
  5
57E
  8
0
  0
BLOCK
  8
0
  2
*D4
 70
     1
 10
0.0
 20
0.0
 30
0.0
  3
*D4
  1
*D28
  0
LINE
  5
583
  8
KOTY
 62
     0
 10
0.0
 20
26.5375
 30
0.0
 11
0.0
 21
-28.81938265051708
 31
0.0
  0
LINE
  5
584
  8
KOTY
 62
     0
 10
72.5
 20
-0.0625
 30
0.0
 11
72.5
 21
-28.81938265051708
 31
0.0
  0
LINE
  5
585
  8
KOTY
 62
     0
 10
4.0
 20
-28.63938265051708
 30
0.0
 11
68.5
 21
-28.63938265051708
 31
0.0
  0
SOLID
  5
586
  8
KOTY
 62
     0
 10
4.0
 20
-27.97271598385041
 30
0.0
 11
4.0
 21
-29.30604931718375
 31
0.0
 12
0.0
 22
-28.63938265051708
 32
0.0
 13
0.0
 23
-28.63938265051708
 33
0.0
  0
SOLID
  5
587
  8
KOTY
 62
     0
 10
68.5
 20
-29.30604931718375
 30
0.0
 11
68.5
 21
-27.97271598385041
 31
0.0
 12
72.5
 22
-28.63938265051708
 32
0.0
 13
72.5
 23
-28.63938265051708
 33
0.0
  0
TEXT
  5
588
  8
KOTY
  6
CONTINUOUS
 62
     0
 10
30.24597016463226
 20
-26.84338265051707
 30
0.0
 40
4.0
  1
72,5
  0
POINT
  5
589
  8
DEFPOINTS
 62
     0
 10
0.0
 20
26.6
 30
0.0
  0
POINT
  5
58A
  8
DEFPOINTS
 62
     0
 10
72.5
 20
0.0
 30
0.0
  0
POINT
  5
58B
  8
DEFPOINTS
 62
     0
 10
72.5
 20
-28.63938265051708
 30
0.0
  0
ENDBLK
  5
58E
  8
0
  0
BLOCK
  8
0
  2
*D5
 70
     1
 10
0.0
 20
0.0
 30
0.0
  3
*D5
  1
*D31
  0
LINE
  5
5B3
  8
KOTY
 62
     0
 10
-0.0625
 20
26.6
 30
0.0
 11
-10.18
 21
26.6
 31
0.0
  0
LINE
  5
5B4
  8
KOTY
 62
     0
 10
-0.0625
 20
71.6
 30
0.0
 11
-10.18
 21
71.6
 31
0.0
  0
LINE
  5
5B5
  8
KOTY
 62
     0
 10
-10.0
 20
30.6
 30
0.0
 11
-9.999999999999998
 21
67.6
 31
0.0
  0
SOLID
  5
5B6
  8
KOTY
 62
     0
 10
-10.66666666666667
 20
30.6
 30
0.0
 11
-9.333333333333336
 21
30.6
 31
0.0
 12
-10.0
 22
26.6
 32
0.0
 13
-10.0
 23
26.6
 33
0.0
  0
SOLID
  5
5B7
  8
KOTY
 62
     0
 10
-9.333333333333332
 20
67.6
 30
0.0
 11
-10.66666666666666
 21
67.6
 31
0.0
 12
-9.999999999999998
 22
71.6
 32
0.0
 13
-9.999999999999998
 23
71.6
 33
0.0
  0
TEXT
  5
5B8
  8
KOTY
  6
CONTINUOUS
 62
     0
 10
-11.068
 20
42.97199999999999
 30
0.0
 40
4.0
  1
45
 50
90.0
  0
POINT
  5
5B9
  8
DEFPOINTS
 62
     0
 10
0.0
 20
26.6
 30
0.0
  0
POINT
  5
5BA
  8
DEFPOINTS
 62
     0
 10
0.0
 20
71.6
 30
0.0
  0
POINT
  5
5BB
  8
DEFPOINTS
 62
     0
 10
-9.999999999999998
 20
71.6
 30
0.0
  0
ENDBLK
  5
5BE
  8
0
  0
BLOCK
  8
0
  2
*D6
 70
     1
 10
0.0
 20
0.0
 30
0.0
  3
*D6
  1
*D32
  0
LINE
  5
5C3
  8
KOTY
 62
     0
 10
28.6375
 20
8.1
 30
0.0
 11
-18.75061144267096
 21
8.099999999999994
 31
0.0
  0
LINE
  5
5C4
  8
KOTY
 62
     0
 10
28.6375
 20
90.1
 30
0.0
 11
-18.75061144267096
 21
90.1
 31
0.0
  0
LINE
  5
5C5
  8
KOTY
 62
     0
 10
-18.57061144267096
 20
12.09999999999999
 30
0.0
 11
-18.57061144267096
 21
86.1
 31
0.0
  0
SOLID
  5
5C6
  8
KOTY
 62
     0
 10
-19.23727810933763
 20
12.09999999999999
 30
0.0
 11
-17.90394477600429
 21
12.09999999999999
 31
0.0
 12
-18.57061144267096
 22
8.099999999999994
 32
0.0
 13
-18.57061144267096
 23
8.099999999999994
 33
0.0
  0
SOLID
  5
5C7
  8
KOTY
 62
     0
 10
-17.90394477600429
 20
86.1
 30
0.0
 11
-19.23727810933763
 21
86.1
 31
0.0
 12
-18.57061144267096
 22
90.1
 32
0.0
 13
-18.57061144267096
 23
90.1
 33
0.0
  0
TEXT
  5
5C8
  8
KOTY
  6
CONTINUOUS
 62
     0
 10
-19.64661144267097
 20
42.93000000000001
 30
0.0
 40
4.0
  1
82
 50
90.0
  0
POINT
  5
5C9
  8
DEFPOINTS
 62
     0
 10
28.7
 20
8.1
 30
0.0
  0
POINT
  5
5CA
  8
DEFPOINTS
 62
     0
 10
28.7
 20
90.1
 30
0.0
  0
POINT
  5
5CB
  8
DEFPOINTS
 62
     0
 10
-18.57061144267096
 20
90.1
 30
0.0
  0
ENDBLK
  5
5CE
  8
0
  0
BLOCK
  8
0
  2
*D7
 70
     1
 10
0.0
 20
0.0
 30
0.0
  3
*D7
  1
*D34
  0
LINE
  5
5DE
  8
KOTY
 62
     0
 10
66.5
 20
30.4375
 30
0.0
 11
66.5
 21
-10.18
 31
0.0
  0
LINE
  5
5DF
  8
KOTY
 62
     0
 10
22.5
 20
11.6375
 30
0.0
 11
22.5
 21
-10.18
 31
0.0
  0
LINE
  5
5E0
  8
KOTY
 62
     0
 10
62.5
 20
-10.0
 30
0.0
 11
26.5
 21
-10.0
 31
0.0
  0
SOLID
  5
5E1
  8
KOTY
 62
     0
 10
62.5
 20
-10.66666666666667
 30
0.0
 11
62.5
 21
-9.333333333333334
 31
0.0
 12
66.5
 22
-10.0
 32
0.0
 13
66.5
 23
-10.0
 33
0.0
  0
SOLID
  5
5E2
  8
KOTY
 62
     0
 10
26.5
 20
-9.333333333333334
 30
0.0
 11
26.5
 21
-10.66666666666667
 31
0.0
 12
22.5
 22
-10.0
 32
0.0
 13
22.5
 23
-10.0
 33
0.0
  0
TEXT
  5
5E3
  8
KOTY
  6
CONTINUOUS
 62
     0
 10
41.494
 20
-9.0
 30
0.0
 40
4.0
  1
44
  0
POINT
  5
5E4
  8
DEFPOINTS
 62
     0
 10
66.5
 20
30.5
 30
0.0
  0
POINT
  5
5E5
  8
DEFPOINTS
 62
     0
 10
22.5
 20
11.7
 30
0.0
  0
POINT
  5
5E6
  8
DEFPOINTS
 62
     0
 10
22.5
 20
-10.0
 30
0.0
  0
ENDBLK
  5
5E9
  8
0
  0
BLOCK
  8
0
  2
*D8
 70
     1
 10
0.0
 20
0.0
 30
0.0
  3
*D8
  1
*D35
  0
LINE
  5
5EE
  8
KOTY
 62
     0
 10
0.0
 20
26.5375
 30
0.0
 11
0.0
 21
-20.32753940326921
 31
0.0
  0
LINE
  5
5EF
  8
KOTY
 62
     0
 10
66.5
 20
30.375
 30
0.0
 11
66.5
 21
-20.32753940326921
 31
0.0
  0
LINE
  5
5F0
  8
KOTY
 62
     0
 10
4.0
 20
-20.14753940326921
 30
0.0
 11
62.5
 21
-20.14753940326921
 31
0.0
  0
SOLID
  5
5F1
  8
KOTY
 62
     0
 10
4.0
 20
-19.48087273660254
 30
0.0
 11
4.0
 21
-20.81420606993587
 31
0.0
 12
0.0
 22
-20.14753940326921
 32
0.0
 13
0.0
 23
-20.14753940326921
 33
0.0
  0
SOLID
  5
5F2
  8
KOTY
 62
     0
 10
62.5
 20
-20.81420606993587
 30
0.0
 11
62.5
 21
-19.48087273660254
 31
0.0
 12
66.5
 22
-20.14753940326921
 32
0.0
 13
66.5
 23
-20.14753940326921
 33
0.0
  0
TEXT
  5
5F3
  8
KOTY
  6
CONTINUOUS
 62
     0
 10
27.826
 20
-18.3515394032692
 30
0.0
 40
4.0
  1
66,5
  0
POINT
  5
5F4
  8
DEFPOINTS
 62
     0
 10
0.0
 20
26.6
 30
0.0
  0
POINT
  5
5F5
  8
DEFPOINTS
 62
     0
 10
66.5
 20
30.4375
 30
0.0
  0
POINT
  5
5F6
  8
DEFPOINTS
 62
     0
 10
66.5
 20
-20.14753940326921
 30
0.0
  0
ENDBLK
  5
5F9
  8
0
  0
BLOCK
  8
0
  2
_CLOSEDBLANK
 70
     0
 10
0.0
 20
0.0
 30
0.0
  3
_CLOSEDBLANK
  1
_CLOSEDBLANK
  0
LINE
  5
60A
  8
0
  6
BYBLOCK
 62
     0
 10
-1.0
 20
0.166667
 30
0.0
 11
0.0
 21
0.0
 31
0.0
  0
LINE
  5
60B
  8
0
  6
BYBLOCK
 62
     0
 10
0.0
 20
0.0
 30
0.0
 11
-1.0
 21
-0.166667
 31
0.0
  0
LINE
  5
60C
  8
0
  6
BYBLOCK
 62
     0
 10
-1.0
 20
0.166667
 30
0.0
 11
-1.0
 21
-0.166667
 31
0.0
  0
ENDBLK
  5
609
  8
0
  0
BLOCK
  8
0
  2
_CLOSED
 70
     0
 10
0.0
 20
0.0
 30
0.0
  3
_CLOSED
  1
_CLOSED
  0
LINE
  5
610
  8
0
  6
BYBLOCK
 62
     0
 10
-1.0
 20
0.166667
 30
0.0
 11
0.0
 21
0.0
 31
0.0
  0
LINE
  5
611
  8
0
  6
BYBLOCK
 62
     0
 10
0.0
 20
0.0
 30
0.0
 11
-1.0
 21
-0.166667
 31
0.0
  0
LINE
  5
612
  8
0
  6
BYBLOCK
 62
     0
 10
-1.0
 20
0.166667
 30
0.0
 11
-1.0
 21
-0.166667
 31
0.0
  0
LINE
  5
613
  8
0
  6
BYBLOCK
 62
     0
 10
0.0
 20
0.0
 30
0.0
 11
-1.0
 21
0.0
 31
0.0
  0
ENDBLK
  5
60F
  8
0
  0
BLOCK
  8
0
  2
_DOT
 70
     0
 10
0.0
 20
0.0
 30
0.0
  3
_DOT
  1
_DOT
  0
POLYLINE
  5
617
  8
0
  6
BYBLOCK
 62
     0
 66
     1
 10
0.0
 20
0.0
 30
0.0
 70
     1
 40
0.5
 41
0.5
  0
VERTEX
  5
969
  8
0
  6
BYBLOCK
 62
     0
 10
-0.25
 20
0.0
 30
0.0
 42
1.0
  0
VERTEX
  5
96A
  8
0
  6
BYBLOCK
 62
     0
 10
0.25
 20
0.0
 30
0.0
 42
1.0
  0
SEQEND
  5
973
  8
0
  6
BYBLOCK
 62
     0
  0
LINE
  5
618
  8
0
  6
BYBLOCK
 62
     0
 10
-0.5
 20
0.0
 30
0.0
 11
-1.0
 21
0.0
 31
0.0
  0
ENDBLK
  5
616
  8
0
  0
BLOCK
  8
0
  2
_ARCHTICK
 70
     0
 10
0.0
 20
0.0
 30
0.0
  3
_ARCHTICK
  1
_ARCHTICK
  0
POLYLINE
  5
61C
  8
0
  6
BYBLOCK
 62
     0
 66
     1
 10
0.0
 20
0.0
 30
0.0
 40
0.15
 41
0.15
  0
VERTEX
  5
96B
  8
0
  6
BYBLOCK
 62
     0
 10
-0.5
 20
-0.5
 30
0.0
  0
VERTEX
  5
96C
  8
0
  6
BYBLOCK
 62
     0
 10
0.5
 20
0.5
 30
0.0
  0
SEQEND
  5
974
  8
0
  6
BYBLOCK
 62
     0
  0
ENDBLK
  5
61B
  8
0
  0
BLOCK
  8
0
  2
*D13
 70
     1
 10
0.0
 20
0.0
 30
0.0
  3
*D13
  1
*D43
  0
LINE
  5
6F3
  8
KOTY
 62
     0
 10
120.0
 20
8.0375
 30
0.0
 11
120.0
 21
-10.18
 31
0.0
  0
LINE
  5
6F4
  8
KOTY
 62
     0
 10
156.0
 20
8.037499999999994
 30
0.0
 11
156.0
 21
-10.18
 31
0.0
  0
LINE
  5
6F5
  8
KOTY
 62
     0
 10
124.0
 20
-10.0
 30
0.0
 11
152.0
 21
-10.0
 31
0.0
  0
SOLID
  5
6F6
  8
KOTY
 62
     0
 10
124.0
 20
-9.333333333333334
 30
0.0
 11
124.0
 21
-10.66666666666667
 31
0.0
 12
120.0
 22
-10.0
 32
0.0
 13
120.0
 23
-10.0
 33
0.0
  0
SOLID
  5
6F7
  8
KOTY
 62
     0
 10
152.0
 20
-10.66666666666667
 30
0.0
 11
152.0
 21
-9.333333333333334
 31
0.0
 12
156.0
 22
-10.0
 32
0.0
 13
156.0
 23
-10.0
 33
0.0
  0
TEXT
  5
6F8
  8
KOTY
  6
CONTINUOUS
 62
     0
 10
134.904
 20
-8.924
 30
0.0
 40
4.0
  1
36
  0
POINT
  5
6F9
  8
DEFPOINTS
 62
     0
 10
120.0
 20
8.1
 30
0.0
  0
POINT
  5
6FA
  8
DEFPOINTS
 62
     0
 10
156.0
 20
8.099999999999994
 30
0.0
  0
POINT
  5
6FB
  8
DEFPOINTS
 62
     0
 10
156.0
 20
-10.0
 30
0.0
  0
ENDBLK
  5
6FE
  8
0
  0
BLOCK
  8
0
  2
*D14
 70
     1
 10
0.0
 20
0.0
 30
0.0
  3
*D14
  1
*D44
  0
LINE
  5
703
  8
KOTY
 62
     0
 10
147.0625
 20
81.35
 30
0.0
 11
166.18
 21
81.35
 31
0.0
  0
LINE
  5
704
  8
KOTY
 62
     0
 10
147.0625
 20
16.85
 30
0.0
 11
166.18
 21
16.85
 31
0.0
  0
LINE
  5
705
  8
KOTY
 62
     0
 10
166.0
 20
77.35
 30
0.0
 11
166.0
 21
20.85
 31
0.0
  0
SOLID
  5
706
  8
KOTY
 62
     0
 10
166.6666666666667
 20
77.35
 30
0.0
 11
165.3333333333333
 21
77.35
 31
0.0
 12
166.0
 22
81.35
 32
0.0
 13
166.0
 23
81.35
 33
0.0
  0
SOLID
  5
707
  8
KOTY
 62
     0
 10
165.3333333333333
 20
20.85
 30
0.0
 11
166.6666666666667
 21
20.85
 31
0.0
 12
166.0
 22
16.85
 32
0.0
 13
166.0
 23
16.85
 33
0.0
  0
TEXT
  5
708
  8
KOTY
  6
CONTINUOUS
 62
     0
 10
164.204
 20
43.67599999999999
 30
0.0
 40
4.0
  1
64,5
 50
90.0
  0
POINT
  5
709
  8
DEFPOINTS
 62
     0
 10
147.0
 20
81.35
 30
0.0
  0
POINT
  5
70A
  8
DEFPOINTS
 62
     0
 10
147.0
 20
16.85
 30
0.0
  0
POINT
  5
70B
  8
DEFPOINTS
 62
     0
 10
166.0
 20
16.85
 30
0.0
  0
ENDBLK
  5
70E
  8
0
  0
BLOCK
  8
0
  2
*D15
 70
     1
 10
0.0
 20
0.0
 30
0.0
  3
*D15
  1
*D46
  0
LINE
  5
736
  8
KOTY
 62
     0
 10
36.00002989583506
 20
90.1625
 30
0.0
 11
36.00002989583506
 21
100.28
 31
0.0
  0
LINE
  5
737
  8
KOTY
 62
     0
 10
66.5
 20
66.6625
 30
0.0
 11
66.5
 21
100.28
 31
0.0
  0
LINE
  5
738
  8
KOTY
 62
     0
 10
40.00002989583506
 20
100.1
 30
0.0
 11
62.5
 21
100.1
 31
0.0
  0
SOLID
  5
739
  8
KOTY
 62
     0
 10
40.00002989583506
 20
100.7666666666667
 30
0.0
 11
40.00002989583506
 21
99.43333333333332
 31
0.0
 12
36.00002989583506
 22
100.1
 32
0.0
 13
36.00002989583506
 23
100.1
 33
0.0
  0
SOLID
  5
73A
  8
KOTY
 62
     0
 10
62.5
 20
99.43333333333332
 30
0.0
 11
62.5
 21
100.7666666666667
 31
0.0
 12
66.5
 22
100.1
 32
0.0
 13
66.5
 23
100.1
 33
0.0
  0
TEXT
  5
73B
  8
KOTY
  6
CONTINUOUS
 62
     0
 10
45.81201494791753
 20
101.896
 30
0.0
 40
4.0
  1
30,5
  0
POINT
  5
73C
  8
DEFPOINTS
 62
     0
 10
36.00002989583506
 20
90.1
 30
0.0
  0
POINT
  5
73D
  8
DEFPOINTS
 62
     0
 10
66.5
 20
66.6
 30
0.0
  0
POINT
  5
73E
  8
DEFPOINTS
 62
     0
 10
66.5
 20
100.1
 30
0.0
  0
ENDBLK
  5
741
  8
0
  0
BLOCK
  8
0
  2
*D16
 70
     1
 10
0.0
 20
0.0
 30
0.0
  3
*D16
  1
*D51
  0
LINE
  5
833
  8
KOTY
 62
     0
 10
74.06252440573034
 20
123.9999537402668
 30
0.0
 11
82.68002440573035
 21
123.9999537402668
 31
0.0
  0
LINE
  5
834
  8
KOTY
 62
     0
 10
73.36252440573034
 20
114.9999537402668
 30
0.0
 11
82.68002440573035
 21
114.9999537402668
 31
0.0
  0
LINE
  5
835
  8
KOTY
 62
     0
 10
82.50002440573034
 20
127.9999537402668
 30
0.0
 11
82.50002440573034
 21
131.9999537402668
 31
0.0
  0
LINE
  5
836
  8
KOTY
 62
     0
 10
82.50002440573034
 20
110.9999537402668
 30
0.0
 11
82.50002440573034
 21
106.9999537402668
 31
0.0
  0
SOLID
  5
837
  8
KOTY
 62
     0
 10
81.83335773906367
 20
127.9999537402668
 30
0.0
 11
83.16669107239701
 21
127.9999537402668
 31
0.0
 12
82.50002440573034
 22
123.9999537402668
 32
0.0
 13
82.50002440573034
 23
123.9999537402668
 33
0.0
  0
SOLID
  5
838
  8
KOTY
 62
     0
 10
83.16669107239701
 20
110.9999537402668
 30
0.0
 11
81.83335773906367
 21
110.9999537402668
 31
0.0
 12
82.50002440573034
 22
114.9999537402668
 32
0.0
 13
82.50002440573034
 23
114.9999537402668
 33
0.0
  0
TEXT
  5
839
  8
KOTY
  6
CONTINUOUS
 62
     0
 10
81.42402440573035
 20
117.9539537402668
 30
0.0
 40
4.0
  1
9
 50
90.0
  0
POINT
  5
83A
  8
DEFPOINTS
 62
     0
 10
74.00002440573034
 20
123.9999537402668
 30
0.0
  0
POINT
  5
83B
  8
DEFPOINTS
 62
     0
 10
73.30002440573034
 20
114.9999537402668
 30
0.0
  0
POINT
  5
929
  8
DEFPOINTS
 62
     0
 10
82.50002440573034
 20
114.9999537402668
 30
0.0
  0
ENDBLK
  5
851
  8
0
  0
BLOCK
  8
0
  2
*D17
 70
     1
 10
0.0
 20
0.0
 30
0.0
  3
*D17
  1
*D52
  0
LINE
  5
83D
  8
KOTY
 62
     0
 10
63.00002440573035
 20
122.3624537402668
 30
0.0
 11
63.00002440573035
 21
134.1799537402668
 31
0.0
  0
LINE
  5
83E
  8
KOTY
 62
     0
 10
74.00002440573034
 20
124.0624537402668
 30
0.0
 11
74.00002440573034
 21
134.1799537402668
 31
0.0
  0
LINE
  5
83F
  8
KOTY
 62
     0
 10
67.00002440573036
 20
133.9999537402668
 30
0.0
 11
70.00002440573034
 21
133.9999537402668
 31
0.0
  0
SOLID
  5
840
  8
KOTY
 62
     0
 10
67.00002440573036
 20
134.6666204069334
 30
0.0
 11
67.00002440573036
 21
133.3332870736001
 31
0.0
 12
63.00002440573035
 22
133.9999537402668
 32
0.0
 13
63.00002440573035
 23
133.9999537402668
 33
0.0
  0
SOLID
  5
841
  8
KOTY
 62
     0
 10
70.00002440573034
 20
133.3332870736001
 30
0.0
 11
70.00002440573034
 21
134.6666204069334
 31
0.0
 12
74.00002440573034
 22
133.9999537402668
 32
0.0
 13
74.00002440573034
 23
133.9999537402668
 33
0.0
  0
TEXT
  5
842
  8
KOTY
  6
CONTINUOUS
 62
     0
 10
65.60402440573034
 20
135.0079537402668
 30
0.0
 40
4.0
  1
11
  0
POINT
  5
843
  8
DEFPOINTS
 62
     0
 10
63.00002440573035
 20
122.2999537402668
 30
0.0
  0
POINT
  5
844
  8
DEFPOINTS
 62
     0
 10
74.00002440573034
 20
123.9999537402668
 30
0.0
  0
POINT
  5
845
  8
DEFPOINTS
 62
     0
 10
74.00002440573034
 20
133.9999537402668
 30
0.0
  0
ENDBLK
  5
853
  8
0
  0
BLOCK
  8
0
  2
*D18
 70
     1
 10
0.0
 20
0.0
 30
0.0
  3
*D18
  1
*D53
  0
LINE
  5
847
  8
KOTY
 62
     0
 10
121.5000244057303
 20
124.0624537402668
 30
0.0
 11
121.5000244057303
 21
134.1799537402668
 31
0.0
  0
LINE
  5
848
  8
KOTY
 62
     0
 10
136.5000244057304
 20
124.0624537402668
 30
0.0
 11
136.5000244057304
 21
134.1799537402668
 31
0.0
  0
LINE
  5
849
  8
KOTY
 62
     0
 10
125.5000244057303
 20
133.9999537402668
 30
0.0
 11
132.5000244057304
 21
133.9999537402668
 31
0.0
  0
SOLID
  5
84A
  8
KOTY
 62
     0
 10
125.5000244057303
 20
134.6666204069334
 30
0.0
 11
125.5000244057303
 21
133.3332870736001
 31
0.0
 12
121.5000244057303
 22
133.9999537402668
 32
0.0
 13
121.5000244057303
 23
133.9999537402668
 33
0.0
  0
SOLID
  5
84B
  8
KOTY
 62
     0
 10
132.5000244057304
 20
133.3332870736001
 30
0.0
 11
132.5000244057304
 21
134.6666204069334
 31
0.0
 12
136.5000244057304
 22
133.9999537402668
 32
0.0
 13
136.5000244057304
 23
133.9999537402668
 33
0.0
  0
TEXT
  5
84C
  8
KOTY
  6
CONTINUOUS
 62
     0
 10
125.7040244057304
 20
135.0759537402668
 30
0.0
 40
4.0
  1
15
  0
POINT
  5
84D
  8
DEFPOINTS
 62
     0
 10
121.5000244057303
 20
123.9999537402668
 30
0.0
  0
POINT
  5
84E
  8
DEFPOINTS
 62
     0
 10
136.5000244057304
 20
123.9999537402668
 30
0.0
  0
POINT
  5
84F
  8
DEFPOINTS
 62
     0
 10
136.5000244057304
 20
133.9999537402668
 30
0.0
  0
ENDBLK
  5
855
  8
0
  0
BLOCK
  8
0
  2
*X20
 70
     1
 10
0.0
 20
0.0
 30
0.0
  3
*X20
  1

  0
ENDBLK
  5
96E
  8
0
  0
ENDSEC
  0
SECTION
  2
ENTITIES
  0
LINE
  5
E3
  8
OBRYS
 62
     5
 10
72.5
 20
8.1
 30
0.0
 11
72.5
 21
0.0
 31
0.0
  0
LINE
  5
E4
  8
OBRYS
 62
     5
 10
72.5
 20
0.0
 30
0.0
 11
67.9
 21
0.0
 31
0.0
  0
LINE
  5
E5
  8
OBRYS
 62
     5
 10
67.9
 20
0.0
 30
0.0
 11
67.9
 21
8.1
 31
0.0
  0
LINE
  5
E6
  8
OBRYS
 62
     5
 10
67.9
 20
4.5
 30
0.0
 11
66.6
 21
4.5
 31
0.0
  0
LINE
  5
E7
  8
OBRYS
 62
     5
 10
66.6
 20
4.5
 30
0.0
 11
66.6
 21
8.1
 31
0.0
  0
LINE
  5
E8
  8
OBRYS
 62
     5
 10
72.5
 20
8.1
 30
0.0
 11
28.7
 21
8.1
 31
0.0
  0
LINE
  5
EB
  8
OBRYS
 62
     5
 10
65.3
 20
8.1
 30
0.0
 11
65.3
 21
30.5
 31
0.0
  0
LINE
  5
EC
  8
OBRYS
 62
     5
 10
65.3
 20
30.5
 30
0.0
 11
72.5
 21
30.5
 31
0.0
  0
LINE
  5
ED
  8
OBRYS
 62
     5
 10
72.5
 20
30.5
 30
0.0
 11
72.5
 21
8.1
 31
0.0
  0
LINE
  5
EE
  8
OBRYS
 62
     5
 10
61.65
 20
6.2
 30
0.0
 11
49.34999999999999
 21
6.2
 31
0.0
  0
LINE
  5
F0
  8
OBRYS
 62
     5
 10
61.65
 20
6.2
 30
0.0
 11
62.8
 21
8.1
 31
0.0
  0
LINE
  5
F1
  8
OBRYS
 62
     5
 10
49.34999999999999
 20
6.2
 30
0.0
 11
48.2
 21
8.1
 31
0.0
  0
LINE
  5
F2
  8
OBRYS
 62
     5
 10
22.5
 20
11.7
 30
0.0
 11
22.5
 21
26.1
 31
0.0
  0
LINE
  5
F3
  8
OBRYS
 62
     5
 10
22.5
 20
11.7
 30
0.0
 11
23.35474539744931
 21
11.20330606154289
 31
0.0
  0
LINE
  5
F6
  8
OBRYS
 62
     5
 10
66.5
 20
30.5
 30
0.0
 11
66.5
 21
66.6
 31
0.0
  0
LINE
  5
F7
  8
OBRYS
 62
     5
 10
66.5
 20
66.6
 30
0.0
 11
72.5
 21
66.6
 31
0.0
  0
LINE
  5
F8
  8
OBRYS
 62
     5
 10
72.5
 20
66.6
 30
0.0
 11
72.5
 21
83.3
 31
0.0
  0
LINE
  5
F9
  8
OBRYS
 62
     5
 10
72.5
 20
66.6
 30
0.0
 11
72.5
 21
64.7
 31
0.0
  0
LINE
  5
FA
  8
OBRYS
 62
     5
 10
72.5
 20
64.7
 30
0.0
 11
69.5
 21
64.7
 31
0.0
  0
LINE
  5
FB
  8
OBRYS
 62
     5
 10
69.5
 20
64.7
 30
0.0
 11
68.1
 21
66.6
 31
0.0
  0
LINE
  5
FD
  8
OBRYS
 62
     5
 10
25.0
 20
26.4
 30
0.0
 11
48.5
 21
26.4
 31
0.0
  0
LINE
  5
FE
  8
OBRYS
 62
     5
 10
48.5
 20
26.4
 30
0.0
 11
48.5
 21
71.8
 31
0.0
  0
LINE
  5
FF
  8
OBRYS
 62
     5
 10
48.5
 20
71.8
 30
0.0
 11
25.0
 21
71.8
 31
0.0
  0
LINE
  5
100
  8
OBRYS
 62
     5
 10
22.5
 20
72.1
 30
0.0
 11
22.5
 21
86.5
 31
0.0
  0
LINE
  5
112
  8
OBRYS
 62
     5
 10
28.7
 20
90.1
 30
0.0
 11
70.8
 21
90.1
 31
0.0
  0
LINE
  5
115
  8
OBRYS
 62
     5
 10
48.5
 20
26.6
 30
0.0
 11
9.1
 21
26.6
 31
0.0
  0
LINE
  5
116
  8
OBRYS
 62
     5
 10
48.5
 20
71.6
 30
0.0
 11
9.1
 21
71.6
 31
0.0
  0
LINE
  5
117
  8
OBRYS
 62
     5
 10
0.0
 20
26.6
 30
0.0
 11
0.0
 21
71.6
 31
0.0
  0
LINE
  5
128
  8
OBRYS
 62
     5
 10
0.0
 20
26.6
 30
0.0
 11
2.0
 21
26.6
 31
0.0
  0
LINE
  5
129
  8
OBRYS
 62
     5
 10
0.0
 20
71.6
 30
0.0
 11
2.0
 21
71.6
 31
0.0
  0
LINE
  5
14A
  8
OBRYS
 62
     5
 10
2.5
 20
27.1
 30
0.0
 11
8.6
 21
27.1
 31
0.0
  0
LINE
  5
15B
  8
OBRYS
 62
     5
 10
2.0
 20
26.6
 30
0.0
 11
2.5
 21
27.1
 31
0.0
  0
LINE
  5
15C
  8
OBRYS
 62
     5
 10
8.6
 20
27.1
 30
0.0
 11
9.1
 21
26.6
 31
0.0
  0
LINE
  5
15F
  8
OBRYS
 62
     5
 10
2.5
 20
71.1
 30
0.0
 11
8.6
 21
71.1
 31
0.0
  0
LINE
  5
160
  8
OBRYS
 62
     5
 10
2.0
 20
71.6
 30
0.0
 11
2.5
 21
71.1
 31
0.0
  0
LINE
  5
161
  8
OBRYS
 62
     5
 10
8.6
 20
71.1
 30
0.0
 11
9.1
 21
71.6
 31
0.0
  0
ARC
  5
175
  8
OBRYS
 62
     5
 10
5.45
 20
27.1
 30
0.0
 40
0.25
 50
180.0
 51
0.3652309648402171
  0
ARC
  5
17A
  8
OBRYS
 62
     5
 10
3.55
 20
27.1
 30
0.0
 40
0.25
 50
180.0
 51
0.1423211833411854
  0
ARC
  5
17B
  8
OBRYS
 62
     5
 10
7.35
 20
27.1
 30
0.0
 40
0.25
 50
180.0
 51
358.9752080979408
  0
ARC
  5
17F
  8
OBRYS
 62
     5
 10
3.55
 20
71.1
 30
0.0
 40
0.25
 50
0.0
 51
179.6960893550858
  0
ARC
  5
180
  8
OBRYS
 62
     5
 10
5.45
 20
71.1
 30
0.0
 40
0.25
 50
0.0
 51
179.6818731305043
  0
ARC
  5
182
  8
OBRYS
 62
     5
 10
7.35
 20
71.1
 30
0.0
 40
0.25
 50
0.0
 51
180.4641496716499
  0
LINE
  5
184
  8
OBRYS
 62
     5
 10
49.34999999999999
 20
92.0
 30
0.0
 11
61.65
 21
92.0
 31
0.0
  0
LINE
  5
185
  8
OBRYS
 62
     5
 10
70.8
 20
90.1
 30
0.0
 11
72.5
 21
83.3
 31
0.0
  0
LINE
  5
186
  8
OBRYS
 62
     5
 10
49.34999999999999
 20
92.0
 30
0.0
 11
48.2
 21
90.1
 31
0.0
  0
LINE
  5
187
  8
OBRYS
 62
     5
 10
61.65
 20
92.0
 30
0.0
 11
62.8
 21
90.1
 31
0.0
  0
LINE
  5
198
  8
OBRYS
 62
     5
 10
22.5
 20
86.5
 30
0.0
 11
28.7
 21
90.1
 31
0.0
  0
LINE
  5
1A0
  8
OBRYS
 62
     5
 10
22.5
 20
26.1
 30
0.0
 11
25.0
 21
26.4
 31
0.0
  0
LINE
  5
1A1
  8
OBRYS
 62
     5
 10
22.5
 20
72.1
 30
0.0
 11
25.0
 21
71.8
 31
0.0
  0
LINE
  5
1C5
  8
OBRYS
 62
     5
 10
62.9
 20
15.6
 30
0.0
 11
62.9
 21
18.7
 31
0.0
  0
LINE
  5
1C6
  8
OBRYS
 62
     5
 10
62.9
 20
18.7
 30
0.0
 11
59.8
 21
18.7
 31
0.0
  0
LINE
  5
1C7
  8
OBRYS
 62
     5
 10
59.8
 20
18.7
 30
0.0
 11
59.8
 21
15.6
 31
0.0
  0
LINE
  5
1C8
  8
OBRYS
 62
     5
 10
59.8
 20
15.6
 30
0.0
 11
62.9
 21
15.6
 31
0.0
  0
LINE
  5
1CD
  8
OBRYS
 62
     5
 10
62.2
 20
15.6
 30
0.0
 11
62.2
 21
18.7
 31
0.0
  0
LINE
  5
1CE
  8
OBRYS
 62
     5
 10
60.2
 20
15.6
 30
0.0
 11
60.2
 21
18.7
 31
0.0
  0
LINE
  5
1CF
  8
OBRYS
 62
     5
 10
62.9
 20
47.5
 30
0.0
 11
62.9
 21
50.59999999999999
 31
0.0
  0
LINE
  5
1D0
  8
OBRYS
 62
     5
 10
62.9
 20
50.59999999999999
 30
0.0
 11
59.8
 21
50.59999999999999
 31
0.0
  0
LINE
  5
1D1
  8
OBRYS
 62
     5
 10
59.8
 20
50.59999999999999
 30
0.0
 11
59.8
 21
47.5
 31
0.0
  0
LINE
  5
1D2
  8
OBRYS
 62
     5
 10
59.8
 20
47.5
 30
0.0
 11
62.9
 21
47.5
 31
0.0
  0
LINE
  5
1D3
  8
OBRYS
 62
     5
 10
62.2
 20
47.5
 30
0.0
 11
62.2
 21
50.59999999999999
 31
0.0
  0
LINE
  5
1D4
  8
OBRYS
 62
     5
 10
60.2
 20
47.5
 30
0.0
 11
60.2
 21
50.59999999999999
 31
0.0
  0
LINE
  5
1D5
  8
OBRYS
 62
     5
 10
68.8
 20
69.8
 30
0.0
 11
68.8
 21
72.89999999999999
 31
0.0
  0
LINE
  5
1D6
  8
OBRYS
 62
     5
 10
68.8
 20
72.89999999999999
 30
0.0
 11
65.7
 21
72.89999999999999
 31
0.0
  0
LINE
  5
1D7
  8
OBRYS
 62
     5
 10
65.7
 20
72.89999999999999
 30
0.0
 11
65.7
 21
69.8
 31
0.0
  0
LINE
  5
1D8
  8
OBRYS
 62
     5
 10
65.7
 20
69.8
 30
0.0
 11
68.8
 21
69.8
 31
0.0
  0
LINE
  5
1D9
  8
OBRYS
 62
     5
 10
68.10000000000001
 20
69.8
 30
0.0
 11
68.10000000000001
 21
72.89999999999999
 31
0.0
  0
LINE
  5
1DA
  8
OBRYS
 62
     5
 10
66.10000000000001
 20
69.8
 30
0.0
 11
66.10000000000001
 21
72.89999999999999
 31
0.0
  0
LINE
  5
1DB
  8
OBRYS
 62
     5
 10
68.8
 20
84.1
 30
0.0
 11
68.8
 21
87.19999999999999
 31
0.0
  0
LINE
  5
1DC
  8
OBRYS
 62
     5
 10
68.8
 20
87.19999999999999
 30
0.0
 11
65.7
 21
87.19999999999999
 31
0.0
  0
LINE
  5
1DD
  8
OBRYS
 62
     5
 10
65.7
 20
87.19999999999999
 30
0.0
 11
65.7
 21
84.1
 31
0.0
  0
LINE
  5
1DE
  8
OBRYS
 62
     5
 10
65.7
 20
84.1
 30
0.0
 11
68.8
 21
84.1
 31
0.0
  0
LINE
  5
1DF
  8
OBRYS
 62
     5
 10
68.10000000000001
 20
84.1
 30
0.0
 11
68.10000000000001
 21
87.19999999999999
 31
0.0
  0
LINE
  5
1E0
  8
OBRYS
 62
     5
 10
66.10000000000001
 20
84.1
 30
0.0
 11
66.10000000000001
 21
87.19999999999999
 31
0.0
  0
LINE
  5
2B6
  8
OBRYS
 62
     5
 10
27.83479919941555
 20
8.602374658403873
 30
0.0
 11
28.7
 21
8.1
 31
0.0
  0
LINE
  5
2BB
  8
OBRYS
 62
     5
 10
27.83479919941555
 20
8.602374658403873
 30
0.0
 11
23.35474539744931
 21
11.20330606154289
 31
0.0
  0
LINE
  5
3EF
  8
OBRYS
 62
     5
 10
134.3969719792858
 20
0.0000000000000033
 30
0.0
 11
141.3892480580031
 21
0.0000000000000007
 31
0.0
  0
LINE
  5
3F0
  8
OBRYS
 62
     5
 10
120.0
 20
8.1
 30
0.0
 11
138.0
 21
8.1
 31
0.0
  0
LINE
  5
3F1
  8
OBRYS
 62
     5
 10
123.15
 20
6.2
 30
0.0
 11
134.85
 21
6.2
 31
0.0
  0
LINE
  5
3F2
  8
OBRYS
 62
     5
 10
123.15
 20
6.2
 30
0.0
 11
121.95
 21
8.1
 31
0.0
  0
LINE
  5
3F3
  8
OBRYS
 62
     5
 10
134.85
 20
6.2
 30
0.0
 11
136.05
 21
8.1
 31
0.0
  0
LINE
  5
3F4
  8
OBRYS
 62
     5
 10
134.6071067811866
 20
1.0
 30
0.0
 11
141.1928932188135
 21
1.0
 31
0.0
  0
LINE
  5
3F5
  8
OBRYS
 62
     5
 10
133.9
 20
1.707106781186548
 30
0.0
 11
133.9
 21
6.2
 31
0.0
  0
LINE
  5
3F6
  8
OBRYS
 62
     5
 10
141.9
 20
1.707106781186548
 30
0.0
 11
141.9
 21
6.2
 31
0.0
  0
ARC
  5
3F7
  8
OBRYS
 62
     5
 10
134.6071067811866
 20
1.707106781186548
 30
0.0
 40
0.707106781186548
 50
180.0
 51
270.0
  0
ARC
  5
3F8
  8
OBRYS
 62
     5
 10
141.1928932188135
 20
1.707106781186548
 30
0.0
 40
0.707106781186548
 50
270.0
 51
359.9999999999998
  0
LINE
  5
3F9
  8
OBRYS
 62
     5
 10
130.6
 20
6.2
 30
0.0
 11
130.6
 21
5.207106781186549
 31
0.0
  0
LINE
  5
3FA
  8
OBRYS
 62
     5
 10
133.9
 20
4.5
 30
0.0
 11
131.3071067811865
 21
4.500000000000001
 31
0.0
  0
ARC
  5
3FB
  8
OBRYS
 62
     5
 10
131.3071067811865
 20
5.207106781186549
 30
0.0
 40
0.707106781186548
 50
180.0
 51
270.0
  0
LINE
  5
3FC
  8
OBRYS
 62
     5
 10
145.2
 20
6.2
 30
0.0
 11
145.2
 21
5.207106781186541
 31
0.0
  0
LINE
  5
3FD
  8
OBRYS
 62
     5
 10
141.9170014197672
 20
4.5
 30
0.0
 11
144.4928932188135
 21
4.5
 31
0.0
  0
ARC
  5
3FE
  8
OBRYS
 62
     5
 10
144.4928932188135
 20
5.207106781186548
 30
0.0
 40
0.7071067811865475
 50
270.0
 51
359.9999999999993
  0
LINE
  5
3FF
  8
OBRYS
 62
     5
 10
132.9
 20
4.5
 30
0.0
 11
132.8999990265624
 21
1.503194007024523
 31
0.0
  0
LINE
  5
400
  8
OBRYS
 62
     5
 10
142.9
 20
4.5
 30
0.0
 11
142.9
 21
1.49604698548332
 31
0.0
  0
ARC
  5
401
  8
OBRYS
 62
     5
 10
141.3601391923747
 20
1.540219193746501
 30
0.0
 40
1.540494235900705
 50
271.0827138285986
 51
358.356872755389
  0
ARC
  5
402
  8
OBRYS
 62
     5
 10
134.4032078059073
 20
1.503195845114476
 30
0.0
 40
1.503208779346059
 50
179.9347947880687
 51
269.7623167341435
  0
LINE
  5
403
  8
OBRYS
 62
     5
 10
120.0
 20
8.1
 30
0.0
 11
120.0
 21
90.1
 31
0.0
  0
LINE
  5
404
  8
OBRYS
 62
     5
 10
120.0
 20
90.1
 30
0.0
 11
138.0
 21
90.1
 31
0.0
  0
LINE
  5
406
  8
OBRYS
 62
     5
 10
123.15
 20
91.99999999999999
 30
0.0
 11
121.95
 21
90.1
 31
0.0
  0
LINE
  5
407
  8
OBRYS
 62
     5
 10
123.15
 20
91.99999999999999
 30
0.0
 11
134.85
 21
91.99999999999999
 31
0.0
  0
LINE
  5
408
  8
OBRYS
 62
     5
 10
134.85
 20
91.99999999999999
 30
0.0
 11
136.05
 21
90.1
 31
0.0
  0
LINE
  5
409
  8
OBRYS
 62
     5
 10
120.0
 20
26.1
 30
0.0
 11
138.0
 21
26.1
 31
0.0
  0
LINE
  5
40A
  8
OBRYS
 62
     5
 10
120.3
 20
26.6
 30
0.0
 11
137.7
 21
26.6
 31
0.0
  0
LINE
  5
40B
  8
OBRYS
 62
     5
 10
120.3
 20
71.6
 30
0.0
 11
137.7
 21
71.6
 31
0.0
  0
LINE
  5
40C
  8
OBRYS
 62
     5
 10
120.0
 20
72.1
 30
0.0
 11
138.0
 21
72.1
 31
0.0
  0
LINE
  5
40E
  8
OBRYS
 62
     5
 10
127.3
 20
26.1
 30
0.0
 11
127.3
 21
24.6
 31
0.0
  0
LINE
  5
40F
  8
OBRYS
 62
     5
 10
127.3
 20
24.6
 30
0.0
 11
129.0
 21
24.6
 31
0.0
  0
LINE
  5
410
  8
OBRYS
 62
     5
 10
129.0
 20
24.6
 30
0.0
 11
129.0
 21
26.1
 31
0.0
  0
LINE
  5
411
  8
OBRYS
 62
     5
 10
126.45
 20
26.1
 30
0.0
 11
126.45
 21
23.6
 31
0.0
  0
LINE
  5
412
  8
OBRYS
 62
     5
 10
126.45
 20
23.6
 30
0.0
 11
129.85
 21
23.6
 31
0.0
  0
LINE
  5
413
  8
OBRYS
 62
     5
 10
129.85
 20
23.6
 30
0.0
 11
129.85
 21
26.1
 31
0.0
  0
LINE
  5
414
  8
OBRYS
 62
     5
 10
126.45
 20
23.6
 30
0.0
 11
127.3
 21
24.6
 31
0.0
  0
LINE
  5
415
  8
OBRYS
 62
     5
 10
129.0
 20
24.6
 30
0.0
 11
129.85
 21
23.6
 31
0.0
  0
LINE
  5
416
  8
OBRYS
 62
     5
 10
127.3
 20
72.1
 30
0.0
 11
127.3
 21
73.6
 31
0.0
  0
LINE
  5
417
  8
OBRYS
 62
     5
 10
127.3
 20
73.6
 30
0.0
 11
129.0
 21
73.6
 31
0.0
  0
LINE
  5
418
  8
OBRYS
 62
     5
 10
129.0
 20
73.6
 30
0.0
 11
129.0
 21
72.1
 31
0.0
  0
LINE
  5
419
  8
OBRYS
 62
     5
 10
126.45
 20
72.1
 30
0.0
 11
126.45
 21
74.6
 31
0.0
  0
LINE
  5
41A
  8
OBRYS
 62
     5
 10
126.45
 20
74.6
 30
0.0
 11
129.85
 21
74.6
 31
0.0
  0
LINE
  5
41B
  8
OBRYS
 62
     5
 10
129.85
 20
74.6
 30
0.0
 11
129.85
 21
72.1
 31
0.0
  0
LINE
  5
41C
  8
OBRYS
 62
     5
 10
126.45
 20
74.6
 30
0.0
 11
127.3
 21
73.6
 31
0.0
  0
LINE
  5
41D
  8
OBRYS
 62
     5
 10
129.0
 20
73.6
 30
0.0
 11
129.85
 21
74.6
 31
0.0
  0
CIRCLE
  5
41E
  8
OBRYS
 62
     5
 10
129.0
 20
16.85
 30
0.0
 40
3.2
  0
LINE
  5
41F
  8
OBRYS
 62
     5
 10
120.0
 20
11.7
 30
0.0
 11
138.0
 21
11.7
 31
0.0
  0
LINE
  5
420
  8
OBRYS
 62
     5
 10
120.0
 20
86.5
 30
0.0
 11
138.0
 21
86.5
 31
0.0
  0
LINE
  5
421
  8
OBRYS
 62
     5
 10
128.35
 20
18.20710678118655
 30
0.0
 11
128.35
 21
19.98328900677866
 31
0.0
  0
LINE
  5
422
  8
OBRYS
 62
     5
 10
128.35
 20
13.71671099322134
 30
0.0
 11
128.35
 21
15.49289321881345
 31
0.0
  0
LINE
  5
423
  8
OBRYS
 62
     5
 10
129.65
 20
18.20710678118655
 30
0.0
 11
129.65
 21
19.98328900677866
 31
0.0
  0
LINE
  5
424
  8
OBRYS
 62
     5
 10
129.65
 20
13.71671099322134
 30
0.0
 11
129.65
 21
15.49289321881345
 31
0.0
  0
ARC
  5
425
  8
OBRYS
 62
     5
 10
127.6428932188135
 20
18.20710678118655
 30
0.0
 40
0.707106781186548
 50
270.0
 51
0.0
  0
ARC
  5
426
  8
OBRYS
 62
     5
 10
130.3571067811866
 20
18.20710678118655
 30
0.0
 40
0.707106781186548
 50
180.0
 51
270.0
  0
ARC
  5
427
  8
OBRYS
 62
     5
 10
130.3571067811866
 20
15.49289321881345
 30
0.0
 40
0.707106781186548
 50
90.0
 51
180.0
  0
ARC
  5
428
  8
OBRYS
 62
     5
 10
127.6428932188135
 20
15.49289321881345
 30
0.0
 40
0.707106781186548
 50
0.0
 51
90.0
  0
LINE
  5
429
  8
OBRYS
 62
     5
 10
126.75
 20
16.2
 30
0.0
 11
126.75
 21
17.5
 31
0.0
  0
LINE
  5
42A
  8
OBRYS
 62
     5
 10
131.25
 20
16.2
 30
0.0
 11
131.25
 21
17.5
 31
0.0
  0
LINE
  5
42B
  8
OBRYS
 62
     5
 10
130.3571067811866
 20
16.2
 30
0.0
 11
131.2451978939826
 21
16.2
 31
0.0
  0
LINE
  5
42C
  8
OBRYS
 62
     5
 10
130.3571067811866
 20
17.5
 30
0.0
 11
131.2451978939826
 21
17.5
 31
0.0
  0
LINE
  5
42D
  8
OBRYS
 62
     5
 10
126.7548021060174
 20
17.5
 30
0.0
 11
127.6428932188135
 21
17.5
 31
0.0
  0
LINE
  5
42E
  8
OBRYS
 62
     5
 10
129.8571067811866
 20
17.70710678118655
 30
0.0
 11
130.3571067811866
 21
18.20710678118655
 31
0.0
  0
LINE
  5
42F
  8
OBRYS
 62
     5
 10
126.7548021060174
 20
16.2
 30
0.0
 11
127.6428932188135
 21
16.2
 31
0.0
  0
LINE
  5
430
  8
OBRYS
 62
     5
 10
129.8571067811866
 20
15.99289321881345
 30
0.0
 11
130.3571067811866
 21
15.49289321881345
 31
0.0
  0
LINE
  5
431
  8
OBRYS
 62
     5
 10
128.1428932188135
 20
17.70710678118655
 30
0.0
 11
127.6428932188135
 21
18.20710678118655
 31
0.0
  0
LINE
  5
432
  8
OBRYS
 62
     5
 10
128.1428932188135
 20
15.99289321881345
 30
0.0
 11
127.6428932188135
 21
15.49289321881345
 31
0.0
  0
CIRCLE
  5
433
  8
OBRYS
 62
     5
 10
129.0
 20
16.85
 30
0.0
 40
0.7
  0
CIRCLE
  5
434
  8
OBRYS
 62
     5
 10
129.0
 20
81.35
 30
0.0
 40
3.2
  0
LINE
  5
435
  8
OBRYS
 62
     5
 10
128.35
 20
78.21671099322133
 30
0.0
 11
128.35
 21
79.99289321881345
 31
0.0
  0
LINE
  5
436
  8
OBRYS
 62
     5
 10
128.35
 20
82.70710678118654
 30
0.0
 11
128.35
 21
84.48328900677866
 31
0.0
  0
LINE
  5
437
  8
OBRYS
 62
     5
 10
129.65
 20
78.21671099322133
 30
0.0
 11
129.65
 21
79.99289321881345
 31
0.0
  0
LINE
  5
438
  8
OBRYS
 62
     5
 10
129.65
 20
82.70710678118654
 30
0.0
 11
129.65
 21
84.48328900677865
 31
0.0
  0
ARC
  5
439
  8
OBRYS
 62
     5
 10
127.6428932188135
 20
82.70710678118654
 30
0.0
 40
0.707106781186548
 50
270.0
 51
0.0
  0
ARC
  5
43A
  8
OBRYS
 62
     5
 10
130.3571067811866
 20
82.70710678118654
 30
0.0
 40
0.707106781186548
 50
180.0
 51
270.0
  0
ARC
  5
43B
  8
OBRYS
 62
     5
 10
130.3571067811866
 20
79.99289321881345
 30
0.0
 40
0.707106781186548
 50
90.0
 51
180.0
  0
ARC
  5
43C
  8
OBRYS
 62
     5
 10
127.6428932188135
 20
79.99289321881345
 30
0.0
 40
0.707106781186548
 50
0.0
 51
90.0
  0
LINE
  5
43D
  8
OBRYS
 62
     5
 10
126.75
 20
80.69999999999999
 30
0.0
 11
126.75
 21
81.99999999999999
 31
0.0
  0
LINE
  5
43E
  8
OBRYS
 62
     5
 10
131.25
 20
80.69999999999999
 30
0.0
 11
131.25
 21
81.99999999999999
 31
0.0
  0
LINE
  5
43F
  8
OBRYS
 62
     5
 10
130.3571067811866
 20
80.69999999999999
 30
0.0
 11
131.2451978939826
 21
80.69999999999999
 31
0.0
  0
LINE
  5
440
  8
OBRYS
 62
     5
 10
130.3571067811866
 20
81.99999999999999
 30
0.0
 11
131.2451978939826
 21
81.99999999999999
 31
0.0
  0
LINE
  5
441
  8
OBRYS
 62
     5
 10
126.7548021060174
 20
81.99999999999999
 30
0.0
 11
127.6428932188135
 21
81.99999999999999
 31
0.0
  0
LINE
  5
442
  8
OBRYS
 62
     5
 10
129.8571067811866
 20
82.20710678118654
 30
0.0
 11
130.3571067811866
 21
82.70710678118654
 31
0.0
  0
LINE
  5
443
  8
OBRYS
 62
     5
 10
126.7548021060174
 20
80.69999999999999
 30
0.0
 11
127.6428932188135
 21
80.69999999999999
 31
0.0
  0
LINE
  5
444
  8
OBRYS
 62
     5
 10
129.8571067811866
 20
80.49289321881345
 30
0.0
 11
130.3571067811866
 21
79.99289321881345
 31
0.0
  0
LINE
  5
445
  8
OBRYS
 62
     5
 10
128.1428932188135
 20
82.20710678118654
 30
0.0
 11
127.6428932188135
 21
82.70710678118654
 31
0.0
  0
LINE
  5
446
  8
OBRYS
 62
     5
 10
128.1428932188135
 20
80.49289321881345
 30
0.0
 11
127.6428932188135
 21
79.99289321881345
 31
0.0
  0
CIRCLE
  5
447
  8
OBRYS
 62
     5
 10
129.0
 20
81.35
 30
0.0
 40
0.7
  0
LINE
  5
44E
  8
OBRYS
 62
     5
 10
120.0
 20
8.6
 30
0.0
 11
138.0
 21
8.599999999999994
 31
0.0
  0
LINE
  5
44F
  8
OBRYS
 62
     5
 10
120.0
 20
89.6
 30
0.0
 11
138.0
 21
89.6
 31
0.0
  0
LINE
  5
4E0
  8
OBRYS
 62
     5
 10
23.17858802006699
 20
11.88396178886323
 30
0.0
 11
23.60596071879165
 21
11.63561481963468
 31
0.0
  0
LINE
  5
4E1
  8
OBRYS
 62
     5
 10
28.08586695810881
 20
9.034769131708918
 30
0.0
 11
28.51846735840103
 21
8.783581802506982
 31
0.0
  0
LINE
  5
4E2
  8
OBRYS
 62
     5
 10
23.17858802006699
 20
11.88396178886323
 30
0.0
 11
23.73102181544385
 21
12.83537554756782
 31
0.0
  0
LINE
  5
4E3
  8
OBRYS
 62
     5
 10
28.51846735840103
 20
8.783581802506982
 30
0.0
 11
29.07081642752618
 21
9.73484964377808
 31
0.0
  0
LINE
  5
4E4
  8
OBRYS
 62
     5
 10
27.83479919941555
 20
8.602374658403873
 30
0.0
 11
28.08586695810881
 21
9.034769131708918
 31
0.0
  0
LINE
  5
4E5
  8
OBRYS
 62
     5
 10
23.35474539744931
 20
11.20330606154289
 30
0.0
 11
23.60581314151945
 21
11.63570050966369
 31
0.0
  0
LINE
  5
4E6
  8
OBRYS
 62
     5
 10
23.73102181544385
 20
12.83537554756782
 30
0.0
 11
29.07081642752618
 21
9.73484964377808
 31
0.0
  0
POLYLINE
  5
4E7
  8
OBRYS
 62
     5
 66
     1
 10
0.0
 20
0.0
 30
0.0
  0
VERTEX
  5
931
  8
OBRYS
 62
     5
 10
25.3609758012149
 20
11.88895065260398
 30
0.0
  0
VERTEX
  5
932
  8
OBRYS
 62
     5
 10
25.30573563890113
 20
11.74779841644219
 30
0.0
  0
VERTEX
  5
933
  8
OBRYS
 62
     5
 10
25.29258276363709
 20
11.58886542366543
 30
0.0
  0
VERTEX
  5
934
  8
OBRYS
 62
     5
 10
25.32202263304295
 20
11.41825938005547
 30
0.0
  0
VERTEX
  5
935
  8
OBRYS
 62
     5
 10
25.39292388944752
 20
11.24253658019127
 30
0.0
  0
VERTEX
  5
936
  8
OBRYS
 62
     5
 10
25.50256183732905
 20
11.06844995272512
 30
0.0
  0
VERTEX
  5
937
  8
OBRYS
 62
     5
 10
25.64672315183613
 20
10.90268954912165
 30
0.0
  0
VERTEX
  5
938
  8
OBRYS
 62
     5
 10
25.81986779449884
 20
10.75162544873183
 30
0.0
  0
VERTEX
  5
939
  8
OBRYS
 62
     5
 10
26.01534191380029
 20
10.62106296021591
 30
0.0
  0
VERTEX
  5
93A
  8
OBRYS
 62
     5
 10
26.22563354895888
 20
10.51601952678729
 30
0.0
  0
VERTEX
  5
93B
  8
OBRYS
 62
     5
 10
26.44266131036836
 20
10.44053190868358
 30
0.0
  0
VERTEX
  5
93C
  8
OBRYS
 62
     5
 10
26.65808494286835
 20
10.39750105273456
 30
0.0
  0
VERTEX
  5
93D
  8
OBRYS
 62
     5
 10
26.86362583707283
 20
10.38858061060238
 30
0.0
  0
VERTEX
  5
93E
  8
OBRYS
 62
     5
 10
27.05138517168619
 20
10.41411338987553
 30
0.0
  0
VERTEX
  5
93F
  8
OBRYS
 62
     5
 10
27.21414746077588
 20
10.4731181801655
 30
0.0
  0
VERTEX
  5
940
  8
OBRYS
 62
     5
 10
27.34565784085033
 20
10.5633274604717
 30
0.0
  0
VERTEX
  5
941
  8
OBRYS
 62
     5
 10
27.44086244175514
 20
10.68127453874192
 30
0.0
  0
SEQEND
  5
96F
  8
OBRYS
 62
     5
  0
LINE
  5
4E8
  8
OBRYS
 62
     5
 10
24.60098340460934
 20
12.33023656031044
 30
0.0
 11
24.09875154992429
 21
11.46515194972255
 31
0.0
  0
LINE
  5
4E9
  8
OBRYS
 62
     5
 10
28.20211116541818
 20
10.23925915080853
 30
0.0
 11
27.70001548530882
 21
9.374409098281191
 31
0.0
  0
LINE
  5
4EA
  8
OBRYS
 62
     5
 10
27.70001548530882
 20
9.374409098281191
 30
0.0
 11
24.09875154992429
 21
11.46515194972255
 31
0.0
  0
LINE
  5
4EB
  8
OBRYS
 62
     5
 10
23.17858802006699
 20
86.31603821113676
 30
0.0
 11
23.60596071879165
 21
86.5643851803653
 31
0.0
  0
LINE
  5
4EC
  8
OBRYS
 62
     5
 10
28.08586695810881
 20
89.16523086829106
 30
0.0
 11
28.51846735840103
 21
89.416418197493
 31
0.0
  0
LINE
  5
4ED
  8
OBRYS
 62
     5
 10
23.17858802006699
 20
86.31603821113676
 30
0.0
 11
23.73102181544385
 21
85.36462445243217
 31
0.0
  0
LINE
  5
4EE
  8
OBRYS
 62
     5
 10
28.51846735840103
 20
89.416418197493
 30
0.0
 11
29.07081642752618
 21
88.4651503562219
 31
0.0
  0
LINE
  5
4EF
  8
OBRYS
 62
     5
 10
27.83479919941555
 20
89.59762534159611
 30
0.0
 11
28.08586695810881
 21
89.16523086829106
 31
0.0
  0
LINE
  5
4F0
  8
OBRYS
 62
     5
 10
23.35474539744931
 20
86.9966939384571
 30
0.0
 11
23.60581314151945
 21
86.5642994903363
 31
0.0
  0
LINE
  5
4F1
  8
OBRYS
 62
     5
 10
23.73102181544385
 20
85.36462445243217
 30
0.0
 11
29.07081642752618
 21
88.4651503562219
 31
0.0
  0
POLYLINE
  5
4F2
  8
OBRYS
 62
     5
 66
     1
 10
0.0
 20
0.0
 30
0.0
  0
VERTEX
  5
942
  8
OBRYS
 62
     5
 10
25.3609758012149
 20
86.311049347396
 30
0.0
  0
VERTEX
  5
943
  8
OBRYS
 62
     5
 10
25.30573563890113
 20
86.4522015835578
 30
0.0
  0
VERTEX
  5
944
  8
OBRYS
 62
     5
 10
25.29258276363709
 20
86.61113457633455
 30
0.0
  0
VERTEX
  5
945
  8
OBRYS
 62
     5
 10
25.32202263304295
 20
86.7817406199445
 30
0.0
  0
VERTEX
  5
946
  8
OBRYS
 62
     5
 10
25.39292388944752
 20
86.9574634198087
 30
0.0
  0
VERTEX
  5
947
  8
OBRYS
 62
     5
 10
25.50256183732905
 20
87.13155004727487
 30
0.0
  0
VERTEX
  5
948
  8
OBRYS
 62
     5
 10
25.64672315183613
 20
87.29731045087833
 30
0.0
  0
VERTEX
  5
949
  8
OBRYS
 62
     5
 10
25.81986779449884
 20
87.44837455126816
 30
0.0
  0
VERTEX
  5
94A
  8
OBRYS
 62
     5
 10
26.01534191380029
 20
87.57893703978407
 30
0.0
  0
VERTEX
  5
94B
  8
OBRYS
 62
     5
 10
26.22563354895888
 20
87.6839804732127
 30
0.0
  0
VERTEX
  5
94C
  8
OBRYS
 62
     5
 10
26.44266131036836
 20
87.7594680913164
 30
0.0
  0
VERTEX
  5
94D
  8
OBRYS
 62
     5
 10
26.65808494286835
 20
87.80249894726542
 30
0.0
  0
VERTEX
  5
94E
  8
OBRYS
 62
     5
 10
26.86362583707283
 20
87.81141938939761
 30
0.0
  0
VERTEX
  5
94F
  8
OBRYS
 62
     5
 10
27.05138517168619
 20
87.78588661012445
 30
0.0
  0
VERTEX
  5
950
  8
OBRYS
 62
     5
 10
27.21414746077588
 20
87.72688181983449
 30
0.0
  0
VERTEX
  5
951
  8
OBRYS
 62
     5
 10
27.34565784085033
 20
87.63667253952828
 30
0.0
  0
VERTEX
  5
952
  8
OBRYS
 62
     5
 10
27.44086244175514
 20
87.51872546125807
 30
0.0
  0
SEQEND
  5
970
  8
OBRYS
 62
     5
  0
LINE
  5
4F3
  8
OBRYS
 62
     5
 10
24.60098340460934
 20
85.86976343968955
 30
0.0
 11
24.09875154992429
 21
86.73484805027744
 31
0.0
  0
LINE
  5
4F4
  8
OBRYS
 62
     5
 10
28.20211116541818
 20
87.96074084919145
 30
0.0
 11
27.70001548530882
 21
88.8255909017188
 31
0.0
  0
LINE
  5
4F5
  8
OBRYS
 62
     5
 10
27.70001548530882
 20
88.8255909017188
 30
0.0
 11
24.09875154992429
 21
86.73484805027744
 31
0.0
  0
LINE
  5
4F6
  8
OBRYS
 62
     5
 10
123.0
 20
54.2
 30
0.0
 11
123.0
 21
59.89999999999999
 31
0.0
  0
LINE
  5
4F7
  8
OBRYS
 62
     5
 10
123.0
 20
59.89999999999999
 30
0.0
 11
135.0
 21
59.89999999999999
 31
0.0
  0
LINE
  5
4F8
  8
OBRYS
 62
     5
 10
135.0
 20
59.89999999999999
 30
0.0
 11
135.0
 21
54.2
 31
0.0
  0
LINE
  5
4F9
  8
OBRYS
 62
     5
 10
135.0
 20
54.2
 30
0.0
 11
123.0
 21
54.2
 31
0.0
  0
LINE
  5
516
  8
OBRYS
 62
     5
 10
66.5
 20
43.0145913078578
 30
0.0
 11
66.5
 21
43.47198337547407
 31
0.0
  0
LINE
  5
517
  8
OBRYS
 62
     5
 10
48.5
 20
43.0145913078578
 30
0.0
 11
48.5
 21
43.47198337547407
 31
0.0
  0
DIMENSION
  5
55F
  8
KOTY
 62
     1
  2
*D2
 10
66.5
 20
38.61920698643668
 30
0.0
 11
57.31093343209884
 21
38.61920698643668
 31
0.0
 70
   160
  3
STANDARD
 13
48.5
 23
38.61920698643668
 33
0.0
 14
66.5
 24
38.61920698643668
 34
0.0
1001
ACAD
1000
DSTYLE
1002
{
1070
     7
1000

1070
     6
1000

1070
     5
1000

1070
   278
1070
    44
1070
   147
1040
1.0
1070
   173
1070
     1
1070
    77
1070
     1
1070
   271
1070
     0
1070
    41
1040
4.0
1070
   140
1040
4.0
1002
}
  0
DIMENSION
  5
56F
  8
KOTY
 62
     1
  2
*D3
 10
82.5
 20
92.0
 30
0.0
 11
82.5
 21
46.0
 31
0.0
 70
   160
  3
STANDARD
 13
72.5
 23
0.0
 33
0.0
 14
61.65
 24
92.0
 34
0.0
 50
90.0
1001
ACAD
1000
DSTYLE
1002
{
1070
     7
1000

1070
     6
1000

1070
     5
1000

1070
    73
1070
     0
1070
   278
1070
    44
1070
   147
1040
1.0
1070
   173
1070
     1
1070
    77
1070
     1
1070
   271
1070
     0
1070
    41
1040
4.0
1070
   140
1040
4.0
1002
}
  0
DIMENSION
  5
57F
  8
KOTY
 62
     1
  2
*D4
 10
72.5
 20
-28.63938265051708
 30
0.0
 11
35.69797016463227
 21
-28.63938265051708
 31
0.0
 70
   160
  3
STANDARD
 13
0.0
 23
26.6
 33
0.0
 14
72.5
 24
0.0
 34
0.0
1001
ACAD
1000
DSTYLE
1002
{
1070
     7
1000

1070
     6
1000

1070
     5
1000

1070
   278
1070
    44
1070
   147
1040
1.0
1070
   173
1070
     1
1070
    77
1070
     1
1070
   271
1070
     1
1070
    41
1040
4.0
1070
   140
1040
4.0
1002
}
  0
DIMENSION
  5
5AF
  8
KOTY
 62
     1
  2
*D5
 10
-9.999999999999998
 20
71.6
 30
0.0
 11
-10.0
 21
46.0
 31
0.0
 70
   160
  3
STANDARD
 13
0.0
 23
26.6
 33
0.0
 14
0.0
 24
71.6
 34
0.0
 50
90.0
1001
ACAD
1000
DSTYLE
1002
{
1070
     7
1000

1070
     6
1000

1070
     5
1000

1070
    73
1070
     0
1070
   278
1070
    44
1070
   147
1040
1.0
1070
   173
1070
     1
1070
    77
1070
     2
1070
   271
1070
     0
1070
    41
1040
4.0
1070
   140
1040
4.0
1002
}
  0
DIMENSION
  5
5BF
  8
KOTY
 62
     1
  2
*D6
 10
-18.57061144267096
 20
90.1
 30
0.0
 11
-18.57061144267096
 21
46.00000000000001
 31
0.0
 70
   160
  3
STANDARD
 13
28.7
 23
8.1
 33
0.0
 14
28.7
 24
90.1
 34
0.0
 50
90.0
1001
ACAD
1000
DSTYLE
1002
{
1070
     7
1000

1070
     6
1000

1070
     5
1000

1070
    73
1070
     0
1070
   278
1070
    44
1070
   147
1040
1.0
1070
   173
1070
     1
1070
   280
1070
     0
1070
    77
1070
     2
1070
   271
1070
     0
1070
    41
1040
4.0
1070
   140
1040
4.0
1002
}
  0
DIMENSION
  5
5DA
  8
KOTY
 62
     1
  2
*D7
 10
22.5
 20
-10.0
 30
0.0
 11
44.5
 21
-10.0
 31
0.0
 70
   160
  3
STANDARD
 13
66.5
 23
30.5
 33
0.0
 14
22.5
 24
11.7
 34
0.0
1001
ACAD
1000
DSTYLE
1002
{
1070
     7
1000

1070
     6
1000

1070
     5
1000

1070
   278
1070
    44
1070
   147
1040
1.0
1070
    77
1070
     1
1070
   173
1070
     1
1070
   271
1070
     0
1070
   140
1040
4.0
1070
    41
1040
4.0
1002
}
  0
DIMENSION
  5
5EA
  8
KOTY
 62
     1
  2
*D8
 10
66.5
 20
-20.14753940326921
 30
0.0
 11
33.25
 21
-20.14753940326921
 31
0.0
 70
   160
  3
STANDARD
 13
0.0
 23
26.6
 33
0.0
 14
66.5
 24
30.4375
 34
0.0
1001
ACAD
1000
DSTYLE
1002
{
1070
     7
1000

1070
     6
1000

1070
     5
1000

1070
   278
1070
    44
1070
   147
1040
1.0
1070
    77
1070
     1
1070
   173
1070
     1
1070
   271
1070
     1
1070
   140
1040
4.0
1070
    41
1040
4.0
1002
}
  0
LINE
  5
63D
  8
OBRYS
 62
     5
 10
128.35
 20
19.0952
 30
0.0
 11
129.65
 21
19.0951978939826
 31
0.0
  0
LINE
  5
63E
  8
OBRYS
 62
     5
 10
128.35
 20
14.6048021060174
 30
0.0
 11
129.65
 21
14.6048021060174
 31
0.0
  0
LINE
  5
63F
  8
OBRYS
 62
     5
 10
128.35
 20
79.1048
 30
0.0
 11
129.65
 21
79.1048
 31
0.0
  0
LINE
  5
640
  8
OBRYS
 62
     5
 10
128.35
 20
83.5952
 30
0.0
 11
129.65
 21
83.5952
 31
0.0
  0
LINE
  5
641
  8
OBRYS
 62
     5
 10
120.0
 20
11.2
 30
0.0
 11
138.0
 21
11.2
 31
0.0
  0
LINE
  5
642
  8
OBRYS
 62
     5
 10
120.0
 20
87.0
 30
0.0
 11
138.0
 21
87.0
 31
0.0
  0
LINE
  5
678
  8
OBRYS
 62
     5
 10
120.3
 20
71.6
 30
0.0
 11
120.3
 21
26.6
 31
0.0
  0
LINE
  5
679
  8
OBRYS
 62
     5
 10
137.7
 20
71.6
 30
0.0
 11
137.7
 21
26.6
 31
0.0
  0
LINE
  5
67B
  8
OBRYS
 62
     5
 10
138.0
 20
8.1
 30
0.0
 11
156.0
 21
8.1
 31
0.0
  0
LINE
  5
67C
  8
OBRYS
 62
     5
 10
141.15
 20
6.2
 30
0.0
 11
152.85
 21
6.2
 31
0.0
  0
LINE
  5
67D
  8
OBRYS
 62
     5
 10
141.15
 20
6.2
 30
0.0
 11
139.95
 21
8.1
 31
0.0
  0
LINE
  5
67E
  8
OBRYS
 62
     5
 10
152.85
 20
6.2
 30
0.0
 11
154.05
 21
8.1
 31
0.0
  0
LINE
  5
68E
  8
OBRYS
 62
     5
 10
138.0
 20
90.1
 30
0.0
 11
156.0
 21
90.1
 31
0.0
  0
LINE
  5
68F
  8
OBRYS
 62
     5
 10
156.0
 20
90.1
 30
0.0
 11
156.0
 21
8.1
 31
0.0
  0
LINE
  5
690
  8
OBRYS
 62
     5
 10
141.15
 20
91.99999999999999
 30
0.0
 11
139.95
 21
90.1
 31
0.0
  0
LINE
  5
691
  8
OBRYS
 62
     5
 10
141.15
 20
91.99999999999999
 30
0.0
 11
152.85
 21
91.99999999999999
 31
0.0
  0
LINE
  5
692
  8
OBRYS
 62
     5
 10
152.85
 20
91.99999999999999
 30
0.0
 11
154.05
 21
90.1
 31
0.0
  0
LINE
  5
693
  8
OBRYS
 62
     5
 10
138.0
 20
26.1
 30
0.0
 11
156.0
 21
26.1
 31
0.0
  0
LINE
  5
694
  8
OBRYS
 62
     5
 10
138.3
 20
26.6
 30
0.0
 11
155.7
 21
26.6
 31
0.0
  0
LINE
  5
695
  8
OBRYS
 62
     5
 10
138.3
 20
71.6
 30
0.0
 11
155.7
 21
71.6
 31
0.0
  0
LINE
  5
696
  8
OBRYS
 62
     5
 10
138.0
 20
72.1
 30
0.0
 11
156.0
 21
72.1
 31
0.0
  0
LINE
  5
697
  8
OBRYS
 62
     5
 10
145.3
 20
26.1
 30
0.0
 11
145.3
 21
24.6
 31
0.0
  0
LINE
  5
698
  8
OBRYS
 62
     5
 10
145.3
 20
24.6
 30
0.0
 11
147.0
 21
24.6
 31
0.0
  0
LINE
  5
699
  8
OBRYS
 62
     5
 10
147.0
 20
24.6
 30
0.0
 11
147.0
 21
26.1
 31
0.0
  0
LINE
  5
69A
  8
OBRYS
 62
     5
 10
144.45
 20
26.1
 30
0.0
 11
144.45
 21
23.6
 31
0.0
  0
LINE
  5
69B
  8
OBRYS
 62
     5
 10
144.45
 20
23.6
 30
0.0
 11
147.85
 21
23.6
 31
0.0
  0
LINE
  5
69C
  8
OBRYS
 62
     5
 10
147.85
 20
23.6
 30
0.0
 11
147.85
 21
26.1
 31
0.0
  0
LINE
  5
69D
  8
OBRYS
 62
     5
 10
144.45
 20
23.6
 30
0.0
 11
145.3
 21
24.6
 31
0.0
  0
LINE
  5
69E
  8
OBRYS
 62
     5
 10
147.0
 20
24.6
 30
0.0
 11
147.85
 21
23.6
 31
0.0
  0
LINE
  5
69F
  8
OBRYS
 62
     5
 10
145.3
 20
72.1
 30
0.0
 11
145.3
 21
73.6
 31
0.0
  0
LINE
  5
6A0
  8
OBRYS
 62
     5
 10
145.3
 20
73.6
 30
0.0
 11
147.0
 21
73.6
 31
0.0
  0
LINE
  5
6A1
  8
OBRYS
 62
     5
 10
147.0
 20
73.6
 30
0.0
 11
147.0
 21
72.1
 31
0.0
  0
LINE
  5
6A2
  8
OBRYS
 62
     5
 10
144.45
 20
72.1
 30
0.0
 11
144.45
 21
74.6
 31
0.0
  0
LINE
  5
6A3
  8
OBRYS
 62
     5
 10
144.45
 20
74.6
 30
0.0
 11
147.85
 21
74.6
 31
0.0
  0
LINE
  5
6A4
  8
OBRYS
 62
     5
 10
147.85
 20
74.6
 30
0.0
 11
147.85
 21
72.1
 31
0.0
  0
LINE
  5
6A5
  8
OBRYS
 62
     5
 10
144.45
 20
74.6
 30
0.0
 11
145.3
 21
73.6
 31
0.0
  0
LINE
  5
6A6
  8
OBRYS
 62
     5
 10
147.0
 20
73.6
 30
0.0
 11
147.85
 21
74.6
 31
0.0
  0
CIRCLE
  5
6A7
  8
OBRYS
 62
     5
 10
147.0
 20
16.85
 30
0.0
 40
3.2
  0
LINE
  5
6A8
  8
OBRYS
 62
     5
 10
138.0
 20
11.7
 30
0.0
 11
156.0
 21
11.7
 31
0.0
  0
LINE
  5
6A9
  8
OBRYS
 62
     5
 10
138.0
 20
86.5
 30
0.0
 11
156.0
 21
86.5
 31
0.0
  0
LINE
  5
6AA
  8
OBRYS
 62
     5
 10
146.35
 20
18.20710678118655
 30
0.0
 11
146.35
 21
19.98328900677866
 31
0.0
  0
LINE
  5
6AB
  8
OBRYS
 62
     5
 10
146.35
 20
13.71671099322134
 30
0.0
 11
146.35
 21
15.49289321881345
 31
0.0
  0
LINE
  5
6AC
  8
OBRYS
 62
     5
 10
147.65
 20
18.20710678118655
 30
0.0
 11
147.65
 21
19.98328900677866
 31
0.0
  0
LINE
  5
6AD
  8
OBRYS
 62
     5
 10
147.65
 20
13.71671099322134
 30
0.0
 11
147.65
 21
15.49289321881345
 31
0.0
  0
ARC
  5
6AE
  8
OBRYS
 62
     5
 10
145.6428932188135
 20
18.20710678118655
 30
0.0
 40
0.707106781186548
 50
270.0
 51
0.0
  0
ARC
  5
6AF
  8
OBRYS
 62
     5
 10
148.3571067811866
 20
18.20710678118655
 30
0.0
 40
0.707106781186548
 50
180.0
 51
270.0
  0
ARC
  5
6B0
  8
OBRYS
 62
     5
 10
148.3571067811866
 20
15.49289321881345
 30
0.0
 40
0.707106781186548
 50
90.0
 51
180.0
  0
ARC
  5
6B1
  8
OBRYS
 62
     5
 10
145.6428932188135
 20
15.49289321881345
 30
0.0
 40
0.707106781186548
 50
0.0
 51
90.0
  0
LINE
  5
6B2
  8
OBRYS
 62
     5
 10
144.75
 20
16.2
 30
0.0
 11
144.75
 21
17.5
 31
0.0
  0
LINE
  5
6B3
  8
OBRYS
 62
     5
 10
149.25
 20
16.2
 30
0.0
 11
149.25
 21
17.5
 31
0.0
  0
LINE
  5
6B4
  8
OBRYS
 62
     5
 10
148.3571067811866
 20
16.2
 30
0.0
 11
149.2451978939826
 21
16.2
 31
0.0
  0
LINE
  5
6B5
  8
OBRYS
 62
     5
 10
148.3571067811866
 20
17.5
 30
0.0
 11
149.2451978939826
 21
17.5
 31
0.0
  0
LINE
  5
6B6
  8
OBRYS
 62
     5
 10
144.7548021060174
 20
17.5
 30
0.0
 11
145.6428932188135
 21
17.5
 31
0.0
  0
LINE
  5
6B7
  8
OBRYS
 62
     5
 10
147.8571067811866
 20
17.70710678118655
 30
0.0
 11
148.3571067811866
 21
18.20710678118655
 31
0.0
  0
LINE
  5
6B8
  8
OBRYS
 62
     5
 10
144.7548021060174
 20
16.2
 30
0.0
 11
145.6428932188135
 21
16.2
 31
0.0
  0
LINE
  5
6B9
  8
OBRYS
 62
     5
 10
147.8571067811866
 20
15.99289321881345
 30
0.0
 11
148.3571067811866
 21
15.49289321881345
 31
0.0
  0
LINE
  5
6BA
  8
OBRYS
 62
     5
 10
146.1428932188135
 20
17.70710678118655
 30
0.0
 11
145.6428932188135
 21
18.20710678118655
 31
0.0
  0
LINE
  5
6BB
  8
OBRYS
 62
     5
 10
146.1428932188135
 20
15.99289321881345
 30
0.0
 11
145.6428932188135
 21
15.49289321881345
 31
0.0
  0
CIRCLE
  5
6BC
  8
OBRYS
 62
     5
 10
147.0
 20
16.85
 30
0.0
 40
0.7
  0
CIRCLE
  5
6BD
  8
OBRYS
 62
     5
 10
147.0
 20
81.35
 30
0.0
 40
3.2
  0
LINE
  5
6BE
  8
OBRYS
 62
     5
 10
146.35
 20
78.21671099322133
 30
0.0
 11
146.35
 21
79.99289321881345
 31
0.0
  0
LINE
  5
6BF
  8
OBRYS
 62
     5
 10
146.35
 20
82.70710678118654
 30
0.0
 11
146.35
 21
84.48328900677866
 31
0.0
  0
LINE
  5
6C0
  8
OBRYS
 62
     5
 10
147.65
 20
78.21671099322133
 30
0.0
 11
147.65
 21
79.99289321881345
 31
0.0
  0
LINE
  5
6C1
  8
OBRYS
 62
     5
 10
147.65
 20
82.70710678118654
 30
0.0
 11
147.65
 21
84.48328900677865
 31
0.0
  0
ARC
  5
6C2
  8
OBRYS
 62
     5
 10
145.6428932188135
 20
82.70710678118654
 30
0.0
 40
0.707106781186548
 50
270.0
 51
0.0
  0
ARC
  5
6C3
  8
OBRYS
 62
     5
 10
148.3571067811866
 20
82.70710678118654
 30
0.0
 40
0.707106781186548
 50
180.0
 51
270.0
  0
ARC
  5
6C4
  8
OBRYS
 62
     5
 10
148.3571067811866
 20
79.99289321881345
 30
0.0
 40
0.707106781186548
 50
90.0
 51
180.0
  0
ARC
  5
6C5
  8
OBRYS
 62
     5
 10
145.6428932188135
 20
79.99289321881345
 30
0.0
 40
0.707106781186548
 50
0.0
 51
90.0
  0
LINE
  5
6C6
  8
OBRYS
 62
     5
 10
144.75
 20
80.69999999999999
 30
0.0
 11
144.75
 21
81.99999999999999
 31
0.0
  0
LINE
  5
6C7
  8
OBRYS
 62
     5
 10
149.25
 20
80.69999999999999
 30
0.0
 11
149.25
 21
81.99999999999999
 31
0.0
  0
LINE
  5
6C8
  8
OBRYS
 62
     5
 10
148.3571067811866
 20
80.69999999999999
 30
0.0
 11
149.2451978939826
 21
80.69999999999999
 31
0.0
  0
LINE
  5
6C9
  8
OBRYS
 62
     5
 10
148.3571067811866
 20
81.99999999999999
 30
0.0
 11
149.2451978939826
 21
81.99999999999999
 31
0.0
  0
LINE
  5
6CA
  8
OBRYS
 62
     5
 10
144.7548021060174
 20
81.99999999999999
 30
0.0
 11
145.6428932188135
 21
81.99999999999999
 31
0.0
  0
LINE
  5
6CB
  8
OBRYS
 62
     5
 10
147.8571067811866
 20
82.20710678118654
 30
0.0
 11
148.3571067811866
 21
82.70710678118654
 31
0.0
  0
LINE
  5
6CC
  8
OBRYS
 62
     5
 10
144.7548021060174
 20
80.69999999999999
 30
0.0
 11
145.6428932188135
 21
80.69999999999999
 31
0.0
  0
LINE
  5
6CD
  8
OBRYS
 62
     5
 10
147.8571067811866
 20
80.49289321881345
 30
0.0
 11
148.3571067811866
 21
79.99289321881345
 31
0.0
  0
LINE
  5
6CE
  8
OBRYS
 62
     5
 10
146.1428932188135
 20
82.20710678118654
 30
0.0
 11
145.6428932188135
 21
82.70710678118654
 31
0.0
  0
LINE
  5
6CF
  8
OBRYS
 62
     5
 10
146.1428932188135
 20
80.49289321881345
 30
0.0
 11
145.6428932188135
 21
79.99289321881345
 31
0.0
  0
CIRCLE
  5
6D0
  8
OBRYS
 62
     5
 10
147.0
 20
81.35
 30
0.0
 40
0.7
  0
LINE
  5
6D1
  8
OBRYS
 62
     5
 10
138.0
 20
8.6
 30
0.0
 11
156.0
 21
8.599999999999994
 31
0.0
  0
LINE
  5
6D2
  8
OBRYS
 62
     5
 10
138.0
 20
89.6
 30
0.0
 11
156.0
 21
89.6
 31
0.0
  0
LINE
  5
6D3
  8
OBRYS
 62
     5
 10
141.0
 20
54.2
 30
0.0
 11
141.0
 21
59.89999999999999
 31
0.0
  0
LINE
  5
6D4
  8
OBRYS
 62
     5
 10
141.0
 20
59.89999999999999
 30
0.0
 11
153.0
 21
59.89999999999999
 31
0.0
  0
LINE
  5
6D5
  8
OBRYS
 62
     5
 10
153.0
 20
59.89999999999999
 30
0.0
 11
153.0
 21
54.2
 31
0.0
  0
LINE
  5
6D6
  8
OBRYS
 62
     5
 10
153.0
 20
54.2
 30
0.0
 11
141.0
 21
54.2
 31
0.0
  0
LINE
  5
6D7
  8
OBRYS
 62
     5
 10
146.35
 20
19.0952
 30
0.0
 11
147.65
 21
19.0951978939826
 31
0.0
  0
LINE
  5
6D8
  8
OBRYS
 62
     5
 10
146.35
 20
14.6048021060174
 30
0.0
 11
147.65
 21
14.6048021060174
 31
0.0
  0
LINE
  5
6D9
  8
OBRYS
 62
     5
 10
146.35
 20
79.1048
 30
0.0
 11
147.65
 21
79.1048
 31
0.0
  0
LINE
  5
6DA
  8
OBRYS
 62
     5
 10
146.35
 20
83.5952
 30
0.0
 11
147.65
 21
83.5952
 31
0.0
  0
LINE
  5
6DB
  8
OBRYS
 62
     5
 10
138.0
 20
11.2
 30
0.0
 11
156.0
 21
11.2
 31
0.0
  0
LINE
  5
6DC
  8
OBRYS
 62
     5
 10
138.0
 20
87.0
 30
0.0
 11
156.0
 21
87.0
 31
0.0
  0
LINE
  5
6DD
  8
OBRYS
 62
     5
 10
138.3
 20
71.6
 30
0.0
 11
138.3
 21
26.6
 31
0.0
  0
LINE
  5
6DE
  8
OBRYS
 62
     5
 10
155.7
 20
71.6
 30
0.0
 11
155.7
 21
26.6
 31
0.0
  0
DIMENSION
  5
6EF
  8
KOTY
 62
     1
  2
*D13
 10
156.0
 20
-10.0
 30
0.0
 11
138.0
 21
-10.0
 31
0.0
 70
   160
  3
STANDARD
 13
120.0
 23
8.1
 33
0.0
 14
156.0
 24
8.099999999999994
 34
0.0
1001
ACAD
1000
DSTYLE
1002
{
1070
   271
1070
     0
1070
   278
1070
    44
1070
   140
1040
4.0
1070
    77
1070
     1
1070
   147
1040
1.0
1070
    41
1040
4.0
1002
}
  0
DIMENSION
  5
6FF
  8
KOTY
 62
     1
  2
*D14
 10
166.0
 20
16.85
 30
0.0
 11
166.0
 21
49.09999999999999
 31
0.0
 70
   160
  3
STANDARD
 13
147.0
 23
81.35
 33
0.0
 14
147.0
 24
16.85
 34
0.0
 50
90.0
1001
ACAD
1000
DSTYLE
1002
{
1070
   271
1070
     1
1070
   278
1070
    44
1070
   140
1040
4.0
1070
    73
1070
     0
1070
    77
1070
     1
1070
   147
1040
1.0
1070
    41
1040
4.0
1002
}
  0
LINE
  5
72F
  8
OBRYS
  6
HIDDEN
 62
     5
 10
32.50002989583506
 20
90.1
 30
0.0
 11
32.50002989583506
 21
87.1
 31
0.0
  0
LINE
  5
730
  8
OBRYS
  6
HIDDEN
 62
     5
 10
32.50002989583506
 20
87.1
 30
0.0
 11
36.00002989583506
 21
87.1
 31
0.0
  0
LINE
  5
731
  8
OBRYS
  6
HIDDEN
 62
     5
 10
36.00002989583506
 20
87.1
 30
0.0
 11
36.00002989583506
 21
90.1
 31
0.0
  0
DIMENSION
  5
732
  8
KOTY
 62
     1
  2
*D15
 10
66.5
 20
100.1
 30
0.0
 11
51.25001494791753
 21
100.1
 31
0.0
 70
   160
  3
STANDARD
 13
36.00002989583506
 23
90.1
 33
0.0
 14
66.5
 24
66.6
 34
0.0
1001
ACAD
1000
DSTYLE
1002
{
1070
   271
1070
     1
1070
   278
1070
    44
1070
   140
1040
4.0
1070
    77
1070
     1
1070
   147
1040
1.0
1070
    41
1040
4.0
1002
}
  0
LINE
  5
7DD
  8
OBRYS
 62
     5
 10
65.50002440573034
 20
114.9999537402668
 30
0.0
 11
65.50002440573034
 21
108.5999537402668
 31
0.0
  0
LINE
  5
7DE
  8
OBRYS
 62
     5
 10
65.50002440573034
 20
108.5999537402668
 30
0.0
 11
69.50002440573034
 21
108.5999537402668
 31
0.0
  0
LINE
  5
7DF
  8
OBRYS
 62
     5
 10
69.50002440573034
 20
108.5999537402668
 30
0.0
 11
69.50002440573034
 21
114.9999537402668
 31
0.0
  0
LINE
  5
7E0
  8
OBRYS
 62
     5
 10
64.90002440573035
 20
114.9999537402668
 30
0.0
 11
73.30002440573034
 21
114.9999537402668
 31
0.0
  0
LINE
  5
7E1
  8
OBRYS
 62
     5
 10
68.80002440573034
 20
108.5999537402668
 30
0.0
 11
68.80002440573034
 21
114.9999537402668
 31
0.0
  0
LINE
  5
7E2
  8
OBRYS
 62
     5
 10
65.50002440573034
 20
108.5999537402668
 30
0.0
 11
64.50002440573034
 21
108.5999537402668
 31
0.0
  0
LINE
  5
7E3
  8
OBRYS
 62
     5
 10
64.50002440573034
 20
108.5999537402668
 30
0.0
 11
64.50002440573034
 21
110.9999537402668
 31
0.0
  0
LINE
  5
7E4
  8
OBRYS
 62
     5
 10
64.50002440573034
 20
110.9999537402668
 30
0.0
 11
65.50002440573034
 21
110.9999537402668
 31
0.0
  0
LINE
  5
7E5
  8
OBRYS
 62
     5
 10
64.90002440573035
 20
114.9999537402668
 30
0.0
 11
64.90002440573035
 21
115.6999537402668
 31
0.0
  0
LINE
  5
7E6
  8
OBRYS
 62
     5
 10
64.90002440573035
 20
115.6999537402668
 30
0.0
 11
63.00002440573035
 21
115.6999537402668
 31
0.0
  0
LINE
  5
7E7
  8
OBRYS
 62
     5
 10
63.00002440573035
 20
115.6999537402668
 30
0.0
 11
63.00002440573035
 21
122.2999537402668
 31
0.0
  0
LINE
  5
7E8
  8
OBRYS
 62
     5
 10
63.00002440573035
 20
122.2999537402668
 30
0.0
 11
63.70002440573035
 21
122.2999537402668
 31
0.0
  0
LINE
  5
7E9
  8
OBRYS
 62
     5
 10
73.30002440573034
 20
114.9999537402668
 30
0.0
 11
73.30002440573034
 21
115.6999537402668
 31
0.0
  0
LINE
  5
7EA
  8
OBRYS
 62
     5
 10
73.30002440573034
 20
115.6999537402668
 30
0.0
 11
74.00002440573034
 21
115.6999537402668
 31
0.0
  0
LINE
  5
7EB
  8
OBRYS
 62
     5
 10
74.00002440573034
 20
115.6999537402668
 30
0.0
 11
74.00002440573034
 21
123.9999537402668
 31
0.0
  0
LINE
  5
7EC
  8
OBRYS
 62
     5
 10
74.00002440573034
 20
123.9999537402668
 30
0.0
 11
67.50002440573034
 21
123.9999537402668
 31
0.0
  0
LINE
  5
7ED
  8
OBRYS
 62
     5
 10
67.50002440573034
 20
123.9999537402668
 30
0.0
 11
67.50002440573034
 21
123.6999537402667
 31
0.0
  0
LINE
  5
7EE
  8
OBRYS
 62
     5
 10
63.70002440573035
 20
122.2999537402668
 30
0.0
 11
67.50002440573034
 21
123.6999537402667
 31
0.0
  0
LINE
  5
7EF
  8
OBRYS
  6
CONTINUOUS
 62
     5
 10
121.5000244057303
 20
114.9999537402668
 30
0.0
 11
121.5000244057303
 21
123.9999537402668
 31
0.0
  0
LINE
  5
7F0
  8
OBRYS
  6
CONTINUOUS
 62
     5
 10
121.5000244057303
 20
123.9999537402668
 30
0.0
 11
136.5000244057304
 21
123.9999537402668
 31
0.0
  0
LINE
  5
7F1
  8
OBRYS
  6
CONTINUOUS
 62
     5
 10
136.5000244057304
 20
123.9999537402668
 30
0.0
 11
136.5000244057304
 21
114.9999537402668
 31
0.0
  0
DIMENSION
  5
7F2
  8
KOTY
 62
     1
  2
*D16
 10
82.50002440573034
 20
114.9999537402668
 30
0.0
 11
82.50002440573034
 21
119.4999537402668
 31
0.0
 70
   160
  3
STANDARD
 13
74.00002440573034
 23
123.9999537402668
 33
0.0
 14
73.30002440573034
 24
114.9999537402668
 34
0.0
 50
90.0
1001
ACAD
1000
DSTYLE
1002
{
1070
     7
1000

1070
     6
1000

1070
     5
1000

1070
   278
1070
    44
1070
    73
1070
     0
1070
    77
1070
     1
1070
   147
1040
1.0
1070
   173
1070
     1
1070
   271
1070
     0
1070
   140
1040
4.0
1070
    41
1040
4.0
1002
}
  0
DIMENSION
  5
7F5
  8
KOTY
 62
     1
  2
*D17
 10
74.00002440573034
 20
133.9999537402668
 30
0.0
 11
68.50002440573034
 21
133.9999537402668
 31
0.0
 70
   160
  3
STANDARD
 13
63.00002440573035
 23
122.2999537402668
 33
0.0
 14
74.00002440573034
 24
123.9999537402668
 34
0.0
1001
ACAD
1000
DSTYLE
1002
{
1070
     7
1000

1070
     6
1000

1070
     5
1000

1070
   278
1070
    44
1070
   147
1040
1.0
1070
    77
1070
     1
1070
   173
1070
     1
1070
   271
1070
     0
1070
   140
1040
4.0
1070
    41
1040
4.0
1002
}
  0
LINE
  5
7F8
  8
OBRYS
  6
CONTINUOUS
 62
     5
 10
121.5000244057303
 20
114.9999537402668
 30
0.0
 11
122.5000244057303
 21
114.9999537402668
 31
0.0
  0
LINE
  5
7F9
  8
OBRYS
  6
CONTINUOUS
 62
     5
 10
136.5000244057304
 20
114.9999537402668
 30
0.0
 11
135.5000244057304
 21
114.9999537402668
 31
0.0
  0
LINE
  5
7FA
  8
OBRYS
  6
CONTINUOUS
 62
     5
 10
122.5000244057303
 20
108.5999537402668
 30
0.0
 11
122.5000244057303
 21
115.8999537402668
 31
0.0
  0
LINE
  5
7FB
  8
OBRYS
  6
CONTINUOUS
 62
     5
 10
122.5000244057303
 20
108.5999537402668
 30
0.0
 11
125.4000244057303
 21
108.5999537402668
 31
0.0
  0
LINE
  5
7FC
  8
OBRYS
  6
CONTINUOUS
 62
     5
 10
125.4000244057303
 20
108.5999537402668
 30
0.0
 11
125.4000244057303
 21
115.8999537402668
 31
0.0
  0
LINE
  5
7FD
  8
OBRYS
  6
CONTINUOUS
 62
     5
 10
132.6000244057304
 20
108.5999537402668
 30
0.0
 11
132.6000244057304
 21
115.8999537402668
 31
0.0
  0
LINE
  5
7FE
  8
OBRYS
  6
CONTINUOUS
 62
     5
 10
132.6000244057304
 20
108.5999537402668
 30
0.0
 11
135.5000244057304
 21
108.5999537402668
 31
0.0
  0
LINE
  5
7FF
  8
OBRYS
  6
CONTINUOUS
 62
     5
 10
135.5000244057304
 20
108.5999537402668
 30
0.0
 11
135.5000244057304
 21
115.8999537402668
 31
0.0
  0
LINE
  5
800
  8
OBRYS
  6
CONTINUOUS
 62
     5
 10
127.5500244057304
 20
108.5999537402668
 30
0.0
 11
127.5500244057304
 21
115.8999537402668
 31
0.0
  0
LINE
  5
801
  8
OBRYS
  6
CONTINUOUS
 62
     5
 10
127.5500244057304
 20
108.5999537402668
 30
0.0
 11
130.4500244057304
 21
108.5999537402668
 31
0.0
  0
LINE
  5
802
  8
OBRYS
  6
CONTINUOUS
 62
     5
 10
130.4500244057304
 20
108.5999537402668
 30
0.0
 11
130.4500244057304
 21
115.8999537402668
 31
0.0
  0
LINE
  5
803
  8
OBRYS
  6
CONTINUOUS
 62
     5
 10
122.5000244057303
 20
108.5999537402668
 30
0.0
 11
122.0000244057303
 21
108.5999537402668
 31
0.0
  0
LINE
  5
804
  8
OBRYS
  6
CONTINUOUS
 62
     5
 10
122.0000244057303
 20
108.5999537402668
 30
0.0
 11
122.0000244057303
 21
114.9999537402668
 31
0.0
  0
LINE
  5
805
  8
OBRYS
  6
CONTINUOUS
 62
     5
 10
135.5000244057304
 20
108.5999537402668
 30
0.0
 11
136.0000244057304
 21
108.5999537402668
 31
0.0
  0
LINE
  5
806
  8
OBRYS
  6
CONTINUOUS
 62
     5
 10
136.0000244057304
 20
108.5999537402668
 30
0.0
 11
136.0000244057304
 21
114.9999537402668
 31
0.0
  0
LINE
  5
807
  8
OBRYS
  6
CONTINUOUS
 62
     5
 10
123.5750244057303
 20
108.5999537402668
 30
0.0
 11
123.5750244057303
 21
110.9999537402668
 31
0.0
  0
LINE
  5
808
  8
OBRYS
  6
CONTINUOUS
 62
     5
 10
123.5750244057303
 20
110.9999537402668
 30
0.0
 11
124.3250244057303
 21
110.9999537402668
 31
0.0
  0
LINE
  5
809
  8
OBRYS
  6
CONTINUOUS
 62
     5
 10
124.3250244057303
 20
110.9999537402668
 30
0.0
 11
124.3250244057303
 21
108.5999537402668
 31
0.0
  0
LINE
  5
80A
  8
OBRYS
  6
CONTINUOUS
 62
     5
 10
129.3750244057304
 20
110.9999537402668
 30
0.0
 11
129.3750244057304
 21
108.5999537402668
 31
0.0
  0
LINE
  5
80B
  8
OBRYS
  6
CONTINUOUS
 62
     5
 10
128.6250244057304
 20
108.5999537402668
 30
0.0
 11
128.6250244057304
 21
110.9999537402668
 31
0.0
  0
LINE
  5
80C
  8
OBRYS
  6
CONTINUOUS
 62
     5
 10
128.6250244057304
 20
110.9999537402668
 30
0.0
 11
129.3750244057304
 21
110.9999537402668
 31
0.0
  0
LINE
  5
80D
  8
OBRYS
  6
CONTINUOUS
 62
     5
 10
134.4250244057304
 20
110.9999537402668
 30
0.0
 11
134.4250244057304
 21
108.5999537402668
 31
0.0
  0
LINE
  5
80E
  8
OBRYS
  6
CONTINUOUS
 62
     5
 10
133.6750244057304
 20
108.5999537402668
 30
0.0
 11
133.6750244057304
 21
110.9999537402668
 31
0.0
  0
LINE
  5
80F
  8
OBRYS
  6
CONTINUOUS
 62
     5
 10
133.6750244057304
 20
110.9999537402668
 30
0.0
 11
134.4250244057304
 21
110.9999537402668
 31
0.0
  0
LINE
  5
810
  8
OBRYS
  6
CONTINUOUS
 62
     5
 10
125.4000244057303
 20
114.9999537402668
 30
0.0
 11
127.5500244057304
 21
114.9999537402668
 31
0.0
  0
LINE
  5
811
  8
OBRYS
  6
CONTINUOUS
 62
     5
 10
130.4500244057304
 20
114.9999537402668
 30
0.0
 11
132.6000244057304
 21
114.9999537402668
 31
0.0
  0
LINE
  5
812
  8
OBRYS
  6
CONTINUOUS
 62
     5
 10
121.5000244057303
 20
123.6999537402667
 30
0.0
 11
136.5000244057304
 21
123.6999537402667
 31
0.0
  0
LINE
  5
813
  8
OBRYS
  6
CONTINUOUS
 62
     5
 10
126.9500244057303
 20
115.8999537402668
 30
0.0
 11
130.9500244057304
 21
115.8999537402668
 31
0.0
  0
LINE
  5
814
  8
OBRYS
  6
CONTINUOUS
 62
     5
 10
125.9500244057303
 20
115.8999537402668
 30
0.0
 11
122.5000244057303
 21
115.8999537402668
 31
0.0
  0
LINE
  5
815
  8
OBRYS
  6
CONTINUOUS
 62
     5
 10
132.0500244057304
 20
115.8999537402668
 30
0.0
 11
135.5000244057304
 21
115.8999537402668
 31
0.0
  0
LINE
  5
816
  8
OBRYS
  6
CONTINUOUS
 62
     5
 10
121.5000244057303
 20
122.2999537402668
 30
0.0
 11
136.5000244057304
 21
122.2999537402668
 31
0.0
  0
CIRCLE
  5
817
  8
OBRYS
  6
CONTINUOUS
 62
     5
 10
123.9500244057303
 20
118.3999537402668
 30
0.0
 40
1.3
  0
LINE
  5
818
  8
OBRYS
  6
CONTINUOUS
 62
     5
 10
122.685113341663
 20
118.0999537402668
 30
0.0
 11
125.2149354697977
 21
118.0999537402668
 31
0.0
  0
LINE
  5
819
  8
OBRYS
  6
CONTINUOUS
 62
     5
 10
122.685113341663
 20
118.6999537402668
 30
0.0
 11
125.2149354697977
 21
118.6999537402668
 31
0.0
  0
CIRCLE
  5
81A
  8
OBRYS
  6
CONTINUOUS
 62
     5
 10
129.0000244057304
 20
118.3999537402668
 30
0.0
 40
1.3
  0
LINE
  5
81B
  8
OBRYS
  6
CONTINUOUS
 62
     5
 10
127.735113341663
 20
118.0999537402668
 30
0.0
 11
130.2649354697977
 21
118.0999537402668
 31
0.0
  0
LINE
  5
81C
  8
OBRYS
  6
CONTINUOUS
 62
     5
 10
127.735113341663
 20
118.6999537402668
 30
0.0
 11
130.2649354697977
 21
118.6999537402668
 31
0.0
  0
CIRCLE
  5
81D
  8
OBRYS
  6
CONTINUOUS
 62
     5
 10
134.0500244057304
 20
118.3999537402668
 30
0.0
 40
1.3
  0
LINE
  5
81E
  8
OBRYS
  6
CONTINUOUS
 62
     5
 10
132.785113341663
 20
118.0999537402668
 30
0.0
 11
135.3149354697977
 21
118.0999537402668
 31
0.0
  0
LINE
  5
81F
  8
OBRYS
  6
CONTINUOUS
 62
     5
 10
132.785113341663
 20
118.6999537402668
 30
0.0
 11
135.3149354697977
 21
118.6999537402668
 31
0.0
  0
LINE
  5
820
  8
OBRYS
  6
CONTINUOUS
 62
     5
 10
122.1000244057303
 20
117.2999537402668
 30
0.0
 11
122.3399001869199
 21
117.2999537402668
 31
0.0
  0
ARC
  5
821
  8
OBRYS
  6
CONTINUOUS
 62
     5
 10
123.9500244057303
 20
118.3999537402668
 30
0.0
 40
1.95
 50
214.3399949437028
 51
325.4656264950653
  0
ARC
  5
822
  8
OBRYS
  6
CONTINUOUS
 62
     5
 10
129.0000244057304
 20
118.3999537402668
 30
0.0
 40
1.95
 50
214.3399949437026
 51
325.4656264950653
  0
ARC
  5
823
  8
OBRYS
  6
CONTINUOUS
 62
     5
 10
134.0500244057304
 20
118.3999537402668
 30
0.0
 40
1.95
 50
214.3399949437028
 51
325.4656264950653
  0
LINE
  5
824
  8
OBRYS
  6
CONTINUOUS
 62
     5
 10
125.5564075654747
 20
117.2999537402668
 30
0.0
 11
127.3899001869199
 21
117.2999537402668
 31
0.0
  0
LINE
  5
825
  8
OBRYS
  6
CONTINUOUS
 62
     5
 10
130.6064075654747
 20
117.2999537402668
 30
0.0
 11
132.4399001869199
 21
117.2999537402668
 31
0.0
  0
LINE
  5
826
  8
OBRYS
  6
CONTINUOUS
 62
     5
 10
135.6564075654747
 20
117.2999537402668
 30
0.0
 11
135.9000244057304
 21
117.2999537402668
 31
0.0
  0
LINE
  5
827
  8
OBRYS
  6
CONTINUOUS
 62
     5
 10
125.9500244057303
 20
115.8999537402668
 30
0.0
 11
125.9500244057303
 21
117.2999537402668
 31
0.0
  0
LINE
  5
828
  8
OBRYS
  6
CONTINUOUS
 62
     5
 10
126.9500244057303
 20
115.8999537402668
 30
0.0
 11
126.9500244057303
 21
117.2999537402668
 31
0.0
  0
LINE
  5
829
  8
OBRYS
  6
CONTINUOUS
 62
     5
 10
130.9500244057304
 20
115.8999537402668
 30
0.0
 11
130.9500244057304
 21
117.2999537402668
 31
0.0
  0
LINE
  5
82A
  8
OBRYS
  6
CONTINUOUS
 62
     5
 10
132.0500244057304
 20
115.8999537402668
 30
0.0
 11
132.0500244057304
 21
117.2999537402668
 31
0.0
  0
LINE
  5
82B
  8
OBRYS
  6
CONTINUOUS
 62
     5
 10
121.5000244057303
 20
115.8999537402668
 30
0.0
 11
122.1000244057303
 21
115.8999537402668
 31
0.0
  0
LINE
  5
82C
  8
OBRYS
  6
CONTINUOUS
 62
     5
 10
122.1000244057303
 20
115.8999537402668
 30
0.0
 11
122.1000244057303
 21
117.2999537402668
 31
0.0
  0
LINE
  5
82D
  8
OBRYS
  6
CONTINUOUS
 62
     5
 10
136.5000244057304
 20
115.8999537402668
 30
0.0
 11
135.9000244057304
 21
115.8999537402668
 31
0.0
  0
LINE
  5
82E
  8
OBRYS
  6
CONTINUOUS
 62
     5
 10
135.9000244057304
 20
115.8999537402668
 30
0.0
 11
135.9000244057304
 21
117.2999537402668
 31
0.0
  0
DIMENSION
  5
82F
  8
KOTY
 62
     1
  2
*D18
 10
136.5000244057304
 20
133.9999537402668
 30
0.0
 11
129.0000244057304
 21
133.9999537402668
 31
0.0
 70
   160
  3
STANDARD
 13
121.5000244057303
 23
123.9999537402668
 33
0.0
 14
136.5000244057304
 24
123.9999537402668
 34
0.0
1001
ACAD
1000
DSTYLE
1002
{
1070
     7
1000

1070
     6
1000

1070
     5
1000

1070
   278
1070
    44
1070
   147
1040
1.0
1070
    77
1070
     1
1070
   271
1070
     0
1070
   140
1040
4.0
1070
   173
1070
     1
1070
    41
1040
4.0
1002
}
  0
INSERT
  5
89A
  8
OKENKO
  2
*X20
 10
0.0
 20
0.0
 30
0.0
  0
VIEWPORT
  5
92E
 67
     1
  8
0
 10
5.25
 20
4.0
 30
0.0
 40
12.6
 41
9.6
 68
     1
 69
     1
1001
ACAD
1000
MVIEW
1002
{
1070
    16
1010
0.0
1020
0.0
1030
0.0
1020
0.0
1030
0.0
1010
0.0
1020
0.0
1030
1.0
1020
0.0
1030
1.0
1040
0.0
1040
9.6
1040
5.25
1040
4.0
1040
50.0
1040
0.0
1040
0.0
1070
     0
1070
   100
1070
     0
1070
     3
1070
     0
1070
     0
1070
     0
1070
     0
1040
0.0
1040
0.0
1040
0.0
1040
0.5
1040
0.5
1040
0.0
1040
0.0
1070
     0
1002
{
1002
}
1002
}
  0
VIEWPORT
  5
92F
 67
     1
  8
0
 10
5.25
 20
4.0
 30
0.0
 40
8.4
 41
6.4
 68
     2
 69
     2
1001
ACAD
1000
MVIEW
1002
{
1070
    16
1010
0.0
1020
0.0
1030
0.0
1020
0.0
1030
0.0
1010
0.0
1020
0.0
1030
1.0
1020
0.0
1030
1.0
1040
0.0
1040
171.7659631185996
1040
71.50202761199785
1040
54.89295221154153
1040
50.0
1040
0.0
1040
0.0
1070
     0
1070
   100
1070
     0
1070
     3
1070
     0
1070
     0
1070
     0
1070
     0
1040
0.0
1040
0.0
1040
0.0
1040
0.5
1040
0.5
1040
0.0
1040
0.0
1070
     0
1002
{
1002
}
1002
}
  0
ENDSEC
  0
EOF
