  0
SECTION
  2
HEADER
  9
$ACADVER
  1
AC1014
  9
$ACADMAINTVER
 70
     9
  9
$DWGCODEPAGE
  3
ANSI_1250
  9
$INSBASE
 10
0.0
 20
0.0
 30
0.0
  9
$EXTMIN
 10
163.0362708189016
 20
101.6837979369854
 30
0.0
  9
$EXTMAX
 10
364.1083054462538
 20
259.0700100730133
 30
0.0
  9
$LIMMIN
 10
0.0
 20
0.0
  9
$LIMMAX
 10
12.0
 20
9.0
  9
$ORTHOMODE
 70
     0
  9
$REGENMODE
 70
     1
  9
$FILLMODE
 70
     1
  9
$QTEXTMODE
 70
     0
  9
$MIRRTEXT
 70
     0
  9
$DRAGMODE
 70
     2
  9
$LTSCALE
 40
1.0
  9
$OSMODE
 70
 15359
  9
$ATTMODE
 70
     1
  9
$TEXTSIZE
 40
0.2
  9
$TRACEWID
 40
0.05
  9
$TEXTSTYLE
  7
STANDARD
  9
$CLAYER
  8
0
  9
$CELTYPE
  6
BYLAYER
  9
$CECOLOR
 62
   256
  9
$CELTSCALE
 40
1.0
  9
$DELOBJ
 70
     1
  9
$DISPSILH
 70
     0
  9
$DIMSCALE
 40
1.0
  9
$DIMASZ
 40
0.18
  9
$DIMEXO
 40
0.0625
  9
$DIMDLI
 40
0.38
  9
$DIMRND
 40
0.0
  9
$DIMDLE
 40
0.0
  9
$DIMEXE
 40
0.18
  9
$DIMTP
 40
0.0
  9
$DIMTM
 40
0.0
  9
$DIMTXT
 40
0.18
  9
$DIMCEN
 40
0.09
  9
$DIMTSZ
 40
0.0
  9
$DIMTOL
 70
     0
  9
$DIMLIM
 70
     0
  9
$DIMTIH
 70
     1
  9
$DIMTOH
 70
     1
  9
$DIMSE1
 70
     0
  9
$DIMSE2
 70
     0
  9
$DIMTAD
 70
     0
  9
$DIMZIN
 70
     0
  9
$DIMBLK
  1

  9
$DIMASO
 70
     1
  9
$DIMSHO
 70
     1
  9
$DIMPOST
  1

  9
$DIMAPOST
  1

  9
$DIMALT
 70
     0
  9
$DIMALTD
 70
     2
  9
$DIMALTF
 40
25.4
  9
$DIMLFAC
 40
1.0
  9
$DIMTOFL
 70
     0
  9
$DIMTVP
 40
0.0
  9
$DIMTIX
 70
     0
  9
$DIMSOXD
 70
     0
  9
$DIMSAH
 70
     0
  9
$DIMBLK1
  1

  9
$DIMBLK2
  1

  9
$DIMSTYLE
  2
STANDARD
  9
$DIMCLRD
 70
     0
  9
$DIMCLRE
 70
     0
  9
$DIMCLRT
 70
     0
  9
$DIMTFAC
 40
1.0
  9
$DIMGAP
 40
0.09
  9
$DIMJUST
 70
     0
  9
$DIMSD1
 70
     0
  9
$DIMSD2
 70
     0
  9
$DIMTOLJ
 70
     1
  9
$DIMTZIN
 70
     0
  9
$DIMALTZ
 70
     0
  9
$DIMALTTZ
 70
     0
  9
$DIMFIT
 70
     5
  9
$DIMUPT
 70
     0
  9
$DIMUNIT
 70
     2
  9
$DIMDEC
 70
     4
  9
$DIMTDEC
 70
     4
  9
$DIMALTU
 70
     2
  9
$DIMALTTD
 70
     2
  9
$DIMTXSTY
  7
STANDARD
  9
$DIMAUNIT
 70
     0
  9
$LUNITS
 70
     2
  9
$LUPREC
 70
     4
  9
$SKETCHINC
 40
0.1
  9
$FILLETRAD
 40
0.0
  9
$AUNITS
 70
     0
  9
$AUPREC
 70
     0
  9
$MENU
  1
.
  9
$ELEVATION
 40
0.0
  9
$PELEVATION
 40
0.0
  9
$THICKNESS
 40
0.0
  9
$LIMCHECK
 70
     0
  9
$CHAMFERA
 40
0.0
  9
$CHAMFERB
 40
0.0
  9
$CHAMFERC
 40
0.0
  9
$CHAMFERD
 40
0.0
  9
$SKPOLY
 70
     0
  9
$TDCREATE
 40
2452643.146717593
  9
$TDUPDATE
 40
2456765.326032894
  9
$TDINDWG
 40
0.005333287
  9
$TDUSRTIMER
 40
2456765.242012408
  9
$USRTIMER
 70
     1
  9
$ANGBASE
 50
0.0
  9
$ANGDIR
 70
     0
  9
$PDMODE
 70
     0
  9
$PDSIZE
 40
0.0
  9
$PLINEWID
 40
0.0
  9
$COORDS
 70
     2
  9
$SPLFRAME
 70
     0
  9
$SPLINETYPE
 70
     6
  9
$SPLINESEGS
 70
     8
  9
$ATTDIA
 70
     0
  9
$ATTREQ
 70
     1
  9
$HANDLING
 70
     1
  9
$HANDSEED
  5
2BB
  9
$SURFTAB1
 70
     6
  9
$SURFTAB2
 70
     6
  9
$SURFTYPE
 70
     6
  9
$SURFU
 70
     6
  9
$SURFV
 70
     6
  9
$UCSNAME
  2

  9
$UCSORG
 10
0.0
 20
0.0
 30
0.0
  9
$UCSXDIR
 10
1.0
 20
0.0
 30
0.0
  9
$UCSYDIR
 10
0.0
 20
1.0
 30
0.0
  9
$PUCSNAME
  2

  9
$PUCSORG
 10
0.0
 20
0.0
 30
0.0
  9
$PUCSXDIR
 10
1.0
 20
0.0
 30
0.0
  9
$PUCSYDIR
 10
0.0
 20
1.0
 30
0.0
  9
$USERI1
 70
     0
  9
$USERI2
 70
     0
  9
$USERI3
 70
     0
  9
$USERI4
 70
     0
  9
$USERI5
 70
     0
  9
$USERR1
 40
0.0
  9
$USERR2
 40
0.0
  9
$USERR3
 40
0.0
  9
$USERR4
 40
0.0
  9
$USERR5
 40
0.0
  9
$WORLDVIEW
 70
     1
  9
$SHADEDGE
 70
     3
  9
$SHADEDIF
 70
    70
  9
$TILEMODE
 70
     0
  9
$MAXACTVP
 70
    64
  9
$PINSBASE
 10
0.0
 20
0.0
 30
0.0
  9
$PLIMCHECK
 70
     0
  9
$PEXTMIN
 10
1.05
 20
0.7999999999999998
 30
0.0
  9
$PEXTMAX
 10
9.45
 20
7.2
 30
0.0
  9
$PLIMMIN
 10
0.8500000000000006
 20
0.5999999999999998
  9
$PLIMMAX
 10
9.650000000000002
 20
7.4
  9
$UNITMODE
 70
     0
  9
$VISRETAIN
 70
     1
  9
$PLINEGEN
 70
     0
  9
$PSLTSCALE
 70
     1
  9
$TREEDEPTH
 70
  3020
  9
$PICKSTYLE
 70
     0
  9
$CMLSTYLE
  2
STANDARD
  9
$CMLJUST
 70
     0
  9
$CMLSCALE
 40
1.0
  9
$PROXYGRAPHICS
 70
     1
  9
$MEASUREMENT
 70
     0
  0
ENDSEC
  0
SECTION
  2
CLASSES
  0
CLASS
  1
ACDBDICTIONARYWDFLT
  2
AcDbDictionaryWithDefault
  3
ObjectDBX Classes
 90
        0
280
     0
281
     0
  0
CLASS
  1
ACDBPLACEHOLDER
  2
AcDbPlaceHolder
  3
ObjectDBX Classes
 90
        0
280
     0
281
     0
  0
CLASS
  1
LAYOUT
  2
AcDbLayout
  3
ObjectDBX Classes
 90
        0
280
     0
281
     0
  0
CLASS
  1
DICTIONARYVAR
  2
AcDbDictionaryVar
  3
ObjectDBX Classes
 90
        0
280
     0
281
     0
  0
CLASS
  1
TABLESTYLE
  2
AcDbTableStyle
  3
ObjectDBX Classes
 90
     4095
280
     0
281
     0
  0
CLASS
  1
MATERIAL
  2
AcDbMaterial
  3
ObjectDBX Classes
 90
     1153
280
     0
281
     0
  0
CLASS
  1
VISUALSTYLE
  2
AcDbVisualStyle
  3
ObjectDBX Classes
 90
     4095
280
     0
281
     0
  0
CLASS
  1
SCALE
  2
AcDbScale
  3
ObjectDBX Classes
 90
     1153
280
     0
281
     0
  0
CLASS
  1
CELLSTYLEMAP
  2
AcDbCellStyleMap
  3
ObjectDBX Classes
 90
     1152
280
     0
281
     0
  0
CLASS
  1
RASTERVARIABLES
  2
AcDbRasterVariables
  3
ISM
 90
        0
280
     0
281
     0
  0
CLASS
  1
SUN
  2
AcDbSun
  3
SCENEOE
 90
     1153
280
     0
281
     0
  0
CLASS
  1
XRECORD
  2
AcDbXrecord
  3
ObjectDBX Classes
 90
        0
280
     0
281
     0
  0
CLASS
  1
LWPOLYLINE
  2
AcDbPolyline
  3
ObjectDBX Classes
 90
        0
280
     0
281
     1
  0
CLASS
  1
HATCH
  2
AcDbHatch
  3
ObjectDBX Classes
 90
        0
280
     0
281
     1
  0
ENDSEC
  0
SECTION
  2
TABLES
  0
TABLE
  2
VPORT
  5
8
330
0
100
AcDbSymbolTable
 70
     1
  0
VPORT
  5
94
330
8
100
AcDbSymbolTableRecord
100
AcDbViewportTableRecord
  2
*ACTIVE
 70
     0
 10
0.0
 20
0.0
 11
1.0
 21
1.0
 12
300.0259012902876
 22
204.6486126258715
 13
0.0
 23
0.0
 14
0.5
 24
0.5
 15
0.5
 25
0.5
 16
0.0
 26
0.0
 36
1.0
 17
-27.66959356597988
 27
-19.53870295786203
 37
0.0
 40
200.1927766416752
 41
1.267252195734003
 42
50.0
 43
0.0
 44
0.0
 50
0.0
 51
0.0
 71
    16
 72
  1000
 73
     1
 74
     3
 75
     0
 76
     0
 77
     0
 78
     0
  0
ENDTAB
  0
TABLE
  2
LTYPE
  5
5
330
0
100
AcDbSymbolTable
 70
     1
  0
LTYPE
  5
14
330
5
100
AcDbSymbolTableRecord
100
AcDbLinetypeTableRecord
  2
BYBLOCK
 70
     0
  3

 72
    65
 73
     0
 40
0.0
  0
LTYPE
  5
15
330
5
100
AcDbSymbolTableRecord
100
AcDbLinetypeTableRecord
  2
BYLAYER
 70
     0
  3

 72
    65
 73
     0
 40
0.0
  0
LTYPE
  5
16
330
5
100
AcDbSymbolTableRecord
100
AcDbLinetypeTableRecord
  2
CONTINUOUS
 70
     0
  3
Solid line
 72
    65
 73
     0
 40
0.0
  0
ENDTAB
  0
TABLE
  2
LAYER
  5
2
102
{ACAD_XDICTIONARY
360
268
102
}
330
0
100
AcDbSymbolTable
 70
     4
  0
LAYER
  5
10
330
2
100
AcDbSymbolTableRecord
100
AcDbLayerTableRecord
  2
0
 70
     0
 62
     7
  6
CONTINUOUS
  0
LAYER
  5
125
330
2
100
AcDbSymbolTableRecord
100
AcDbLayerTableRecord
  2
DEFPOINTS
 70
     0
 62
     7
  6
CONTINUOUS
  0
LAYER
  5
128
330
2
100
AcDbSymbolTableRecord
100
AcDbLayerTableRecord
  2
OBRYS
 70
     0
 62
     5
  6
CONTINUOUS
  0
LAYER
  5
129
330
2
100
AcDbSymbolTableRecord
100
AcDbLayerTableRecord
  2
KOTY
 70
     0
 62
     1
  6
CONTINUOUS
1001
ACAECLAYERSTANDARD
1000

1000

  0
ENDTAB
  0
TABLE
  2
STYLE
  5
3
330
0
100
AcDbSymbolTable
 70
     1
  0
STYLE
  5
11
330
3
100
AcDbSymbolTableRecord
100
AcDbTextStyleTableRecord
  2
STANDARD
 70
     0
 40
0.0
 41
1.0
 50
0.0
 71
     0
 42
0.2
  3
arial.ttf
  4

1001
ACAD
1000
Arial
1071
        0
  0
ENDTAB
  0
TABLE
  2
VIEW
  5
6
330
0
100
AcDbSymbolTable
 70
     0
  0
ENDTAB
  0
TABLE
  2
UCS
  5
7
330
0
100
AcDbSymbolTable
 70
     0
  0
ENDTAB
  0
TABLE
  2
APPID
  5
9
330
0
100
AcDbSymbolTable
 70
     2
  0
APPID
  5
12
330
9
100
AcDbSymbolTableRecord
100
AcDbRegAppTableRecord
  2
ACAD
 70
     0
  0
APPID
  5
12A
330
9
100
AcDbSymbolTableRecord
100
AcDbRegAppTableRecord
  2
ACAECLAYERSTANDARD
 70
     0
  0
ENDTAB
  0
TABLE
  2
DIMSTYLE
  5
A
330
0
100
AcDbSymbolTable
 70
     2
  0
DIMSTYLE
105
27
102
{ACAD_REACTORS
330
20F
330
210
330
211
102
}
330
A
100
AcDbSymbolTableRecord
100
AcDbDimStyleTableRecord
  2
STANDARD
 70
     0
  3

  4

  5

  6

  7

 40
1.0
 41
0.18
 42
0.0625
 43
0.38
 44
0.18
 45
0.0
 46
0.0
 47
0.0
 48
0.0
140
0.18
141
0.09
142
0.0
143
25.4
144
1.0
145
0.0
146
1.0
147
0.09
 71
     0
 72
     0
 73
     1
 74
     1
 75
     0
 76
     0
 77
     0
 78
     0
170
     0
171
     2
172
     0
173
     0
174
     0
175
     0
176
     0
177
     0
178
     0
270
     2
271
     4
272
     4
273
     2
274
     2
340
11
275
     0
280
     0
281
     0
282
     0
283
     1
284
     0
285
     0
286
     0
287
     3
288
     0
  0
DIMSTYLE
105
12D
330
A
100
AcDbSymbolTableRecord
100
AcDbDimStyleTableRecord
  2
ISO-25
 70
     0
  3

  4

  5

  6

  7

 40
1.0
 41
6.0
 42
0.0
 43
3.75
 44
1.25
 45
0.0
 46
0.0
 47
0.0
 48
0.0
140
3.0
141
2.5
142
0.0
143
0.03937007874016
144
1.0
145
0.0
146
1.0
147
0.625
 71
     0
 72
     0
 73
     0
 74
     1
 75
     0
 76
     0
 77
     1
 78
     8
170
     0
171
     3
172
     1
173
     0
174
     0
175
     0
176
     5
177
     5
178
     5
270
     2
271
     4
272
     4
273
     2
274
     2
340
11
275
     0
280
     0
281
     0
282
     0
283
     1
284
     0
285
     0
286
     0
287
     3
288
     0
  0
ENDTAB
  0
TABLE
  2
BLOCK_RECORD
  5
1
330
0
100
AcDbSymbolTable
 70
     7
  0
BLOCK_RECORD
  5
1F
330
1
100
AcDbSymbolTableRecord
100
AcDbBlockTableRecord
  2
*MODEL_SPACE
  0
BLOCK_RECORD
  5
58
330
1
100
AcDbSymbolTableRecord
100
AcDbBlockTableRecord
  2
*PAPER_SPACE
  0
BLOCK_RECORD
  5
5D
330
1
100
AcDbSymbolTableRecord
100
AcDbBlockTableRecord
  2
*PAPER_SPACE0
  0
BLOCK_RECORD
  5
180
330
1
100
AcDbSymbolTableRecord
100
AcDbBlockTableRecord
  2
*D1
  0
BLOCK_RECORD
  5
18D
330
1
100
AcDbSymbolTableRecord
100
AcDbBlockTableRecord
  2
*D2
  0
BLOCK_RECORD
  5
19A
330
1
100
AcDbSymbolTableRecord
100
AcDbBlockTableRecord
  2
*D3
  0
BLOCK_RECORD
  5
244
330
1
100
AcDbSymbolTableRecord
100
AcDbBlockTableRecord
  2
*D4
  0
BLOCK_RECORD
  5
250
330
1
100
AcDbSymbolTableRecord
100
AcDbBlockTableRecord
  2
*D5
  0
BLOCK_RECORD
  5
25C
330
1
100
AcDbSymbolTableRecord
100
AcDbBlockTableRecord
  2
*D6
  0
ENDTAB
  0
ENDSEC
  0
SECTION
  2
BLOCKS
  0
BLOCK
  5
20
330
1F
100
AcDbEntity
  8
0
100
AcDbBlockBegin
  2
*MODEL_SPACE
 70
     0
 10
0.0
 20
0.0
 30
0.0
  3
*MODEL_SPACE
  1

  0
ENDBLK
  5
21
330
1F
100
AcDbEntity
  8
0
100
AcDbBlockEnd
  0
BLOCK
  5
5A
330
58
100
AcDbEntity
 67
     1
  8
0
100
AcDbBlockBegin
  2
*PAPER_SPACE
 70
     0
 10
0.0
 20
0.0
 30
0.0
  3
*PAPER_SPACE
  1

  0
ENDBLK
  5
5B
330
58
100
AcDbEntity
 67
     1
  8
0
100
AcDbBlockEnd
  0
BLOCK
  5
5F
330
5D
100
AcDbEntity
  8
0
100
AcDbBlockBegin
  2
*PAPER_SPACE0
 70
     0
 10
0.0
 20
0.0
 30
0.0
  3
*PAPER_SPACE0
  1
*PAPER_SPACE0
  0
ENDBLK
  5
60
330
5D
100
AcDbEntity
  8
0
100
AcDbBlockEnd
  0
BLOCK
  5
181
330
180
100
AcDbEntity
  8
0
100
AcDbBlockBegin
  2
*D1
 70
     1
 10
0.0
 20
0.0
 30
0.0
  3
*D1
  1
*D2
  0
LINE
  5
182
330
180
100
AcDbEntity
  8
KOTY
 62
     0
100
AcDbLine
 10
24.75976961809943
 20
27.32371213602801
 30
0.0
 11
24.75976961809943
 21
0.4866666666667425
 31
0.0
  0
LINE
  5
183
330
180
100
AcDbEntity
  8
KOTY
 62
     0
100
AcDbLine
 10
89.7597696181
 20
27.32371213602983
 30
0.0
 11
89.7597696181
 21
0.4866666666667425
 31
0.0
  0
LINE
  5
184
330
180
100
AcDbEntity
  8
KOTY
 62
     0
100
AcDbLine
 10
28.75976961809943
 20
0.6666666666667425
 30
0.0
 11
85.7597696181
 21
0.6666666666667425
 31
0.0
  0
SOLID
  5
185
330
180
100
AcDbEntity
  8
KOTY
 62
     0
100
AcDbTrace
 10
28.75976961809943
 20
1.333333333333409
 30
0.0
 11
28.75976961809943
 21
0.0000000000000758
 31
0.0
 12
24.75976961809943
 22
0.6666666666667425
 32
0.0
 13
24.75976961809943
 23
0.6666666666667425
 33
0.0
  0
SOLID
  5
186
330
180
100
AcDbEntity
  8
KOTY
 62
     0
100
AcDbTrace
 10
85.7597696181
 20
0.0000000000000758
 30
0.0
 11
85.7597696181
 21
1.333333333333409
 31
0.0
 12
89.7597696181
 22
0.6666666666667425
 32
0.0
 13
89.7597696181
 23
0.6666666666667425
 33
0.0
  0
MTEXT
  5
187
330
180
100
AcDbEntity
  8
KOTY
 62
     0
100
AcDbMText
 10
57.25976961809971
 20
4.068666666666743
 30
0.0
 40
4.0
 41
0.0
 71
     5
 72
     1
  1
\A1;65,00000
  0
POINT
  5
188
330
180
100
AcDbEntity
  8
DEFPOINTS
 62
     0
100
AcDbPoint
 10
24.75976961809943
 20
27.38621213602801
 30
0.0
  0
POINT
  5
189
330
180
100
AcDbEntity
  8
DEFPOINTS
 62
     0
100
AcDbPoint
 10
89.7597696181
 20
27.38621213602983
 30
0.0
  0
POINT
  5
18A
330
180
100
AcDbEntity
  8
DEFPOINTS
 62
     0
100
AcDbPoint
 10
89.7597696181
 20
0.6666666666667425
 30
0.0
  0
ENDBLK
  5
18B
330
180
100
AcDbEntity
  8
0
100
AcDbBlockEnd
  0
BLOCK
  5
18E
330
18D
100
AcDbEntity
  8
0
100
AcDbBlockBegin
  2
*D2
 70
     1
 10
0.0
 20
0.0
 30
0.0
  3
*D2
  1
*D3
  0
LINE
  5
18F
330
18D
100
AcDbEntity
  8
KOTY
 62
     0
100
AcDbLine
 10
146.9792210425496
 20
22.32371213602801
 30
0.0
 11
146.9792210425496
 21
0.4866666666667425
 31
0.0
  0
LINE
  5
190
330
18D
100
AcDbEntity
  8
KOTY
 62
     0
100
AcDbLine
 10
200.980034627352
 20
96.8895314179249
 30
0.0
 11
200.980034627352
 21
0.4866666666667425
 31
0.0
  0
LINE
  5
191
330
18D
100
AcDbEntity
  8
KOTY
 62
     0
100
AcDbLine
 10
150.9792210425496
 20
0.6666666666667425
 30
0.0
 11
196.980034627352
 21
0.6666666666667425
 31
0.0
  0
SOLID
  5
192
330
18D
100
AcDbEntity
  8
KOTY
 62
     0
100
AcDbTrace
 10
150.9792210425496
 20
1.333333333333409
 30
0.0
 11
150.9792210425496
 21
0.0000000000000758
 31
0.0
 12
146.9792210425496
 22
0.6666666666667425
 32
0.0
 13
146.9792210425496
 23
0.6666666666667425
 33
0.0
  0
SOLID
  5
193
330
18D
100
AcDbEntity
  8
KOTY
 62
     0
100
AcDbTrace
 10
196.980034627352
 20
0.0000000000000758
 30
0.0
 11
196.980034627352
 21
1.333333333333409
 31
0.0
 12
200.980034627352
 22
0.6666666666667425
 32
0.0
 13
200.980034627352
 23
0.6666666666667425
 33
0.0
  0
MTEXT
  5
194
330
18D
100
AcDbEntity
  8
KOTY
 62
     0
100
AcDbMText
 10
173.9796278349508
 20
3.700666666666742
 30
0.0
 40
4.0
 41
0.0
 71
     5
 72
     1
  1
\A1;54
  0
POINT
  5
195
330
18D
100
AcDbEntity
  8
DEFPOINTS
 62
     0
100
AcDbPoint
 10
146.9792210425496
 20
22.38621213602801
 30
0.0
  0
POINT
  5
196
330
18D
100
AcDbEntity
  8
DEFPOINTS
 62
     0
100
AcDbPoint
 10
200.980034627352
 20
96.9520314179249
 30
0.0
  0
POINT
  5
197
330
18D
100
AcDbEntity
  8
DEFPOINTS
 62
     0
100
AcDbPoint
 10
200.980034627352
 20
0.6666666666667425
 30
0.0
  0
ENDBLK
  5
198
330
18D
100
AcDbEntity
  8
0
100
AcDbBlockEnd
  0
BLOCK
  5
19B
330
19A
100
AcDbEntity
  8
0
100
AcDbBlockBegin
  2
*D3
 70
     1
 10
0.0
 20
0.0
 30
0.0
  3
*D3
  1
*D4
  0
LINE
  5
19C
330
19A
100
AcDbEntity
  8
KOTY
 62
     0
100
AcDbLine
 10
34.69726961809943
 20
157.386212136028
 30
0.0
 11
4.819999999999895
 21
157.386212136028
 31
0.0
  0
LINE
  5
19D
330
19A
100
AcDbEntity
  8
KOTY
 62
     0
100
AcDbLine
 10
34.69726961809943
 20
17.38621213602914
 30
0.0
 11
4.819999999999887
 21
17.38621213602915
 31
0.0
  0
LINE
  5
19E
330
19A
100
AcDbEntity
  8
KOTY
 62
     0
100
AcDbLine
 10
4.999999999999895
 20
153.386212136028
 30
0.0
 11
4.999999999999886
 21
21.38621213602915
 31
0.0
  0
SOLID
  5
19F
330
19A
100
AcDbEntity
  8
KOTY
 62
     0
100
AcDbTrace
 10
5.666666666666562
 20
153.386212136028
 30
0.0
 11
4.333333333333228
 21
153.386212136028
 31
0.0
 12
4.999999999999895
 22
157.386212136028
 32
0.0
 13
4.999999999999895
 23
157.386212136028
 33
0.0
  0
SOLID
  5
1A0
330
19A
100
AcDbEntity
  8
KOTY
 62
     0
100
AcDbTrace
 10
4.333333333333219
 20
21.38621213602915
 30
0.0
 11
5.666666666666553
 21
21.38621213602915
 31
0.0
 12
4.999999999999886
 22
17.38621213602915
 32
0.0
 13
4.999999999999886
 23
17.38621213602915
 33
0.0
  0
MTEXT
  5
1A1
330
19A
100
AcDbEntity
  8
KOTY
 62
     0
100
AcDbMText
 10
1.957999999999889
 20
87.38621213602858
 30
0.0
 40
4.0
 41
0.0
 71
     5
 72
     1
  1
\A1;140
 11
6.344131569286660E-17
 21
1.0
 31
0.0
  0
POINT
  5
1A2
330
19A
100
AcDbEntity
  8
DEFPOINTS
 62
     0
100
AcDbPoint
 10
34.75976961809943
 20
157.386212136028
 30
0.0
  0
POINT
  5
1A3
330
19A
100
AcDbEntity
  8
DEFPOINTS
 62
     0
100
AcDbPoint
 10
34.75976961809943
 20
17.38621213602914
 30
0.0
  0
POINT
  5
1A4
330
19A
100
AcDbEntity
  8
DEFPOINTS
 62
     0
100
AcDbPoint
 10
4.999999999999886
 20
17.38621213602915
 30
0.0
  0
ENDBLK
  5
1A5
330
19A
100
AcDbEntity
  8
0
100
AcDbBlockEnd
  0
BLOCK
  5
245
330
244
100
AcDbEntity
  8
0
100
AcDbBlockBegin
  2
*D4
 70
     1
 10
0.0
 20
0.0
 30
0.0
  3
*D4
  1
*D5
  0
LINE
  5
247
330
244
100
AcDbEntity
  8
KOTY
 62
     0
100
AcDbLine
 10
187.8880404370012
 20
129.0075100730134
 30
0.0
 11
187.8880404370012
 21
102.1704646036521
 31
0.0
  0
LINE
  5
248
330
244
100
AcDbEntity
  8
KOTY
 62
     0
100
AcDbLine
 10
252.8880404370017
 20
129.0075100730152
 30
0.0
 11
252.8880404370017
 21
102.1704646036521
 31
0.0
  0
LINE
  5
249
330
244
100
AcDbEntity
  8
KOTY
 62
     0
100
AcDbLine
 10
192.8880404370012
 20
102.3504646036521
 30
0.0
 11
247.8880404370017
 21
102.3504646036521
 31
0.0
  0
SOLID
  5
24A
330
244
100
AcDbEntity
  8
KOTY
 62
     0
100
AcDbTrace
 10
192.8880404370012
 20
103.1837979369854
 30
0.0
 11
192.8880404370012
 21
101.5171312703188
 31
0.0
 12
187.8880404370012
 22
102.3504646036521
 32
0.0
 13
187.8880404370012
 23
102.3504646036521
 33
0.0
  0
SOLID
  5
24B
330
244
100
AcDbEntity
  8
KOTY
 62
     0
100
AcDbTrace
 10
247.8880404370017
 20
101.5171312703188
 30
0.0
 11
247.8880404370017
 21
103.1837979369854
 31
0.0
 12
252.8880404370017
 22
102.3504646036521
 32
0.0
 13
252.8880404370017
 23
102.3504646036521
 33
0.0
  0
MTEXT
  5
24C
330
244
100
AcDbEntity
  8
KOTY
 62
     0
100
AcDbMText
 10
220.3880404370015
 20
105.9029646036521
 30
0.0
 40
5.0
 41
0.0
 71
     5
 72
     1
  1
\A1;65
  0
POINT
  5
24D
330
244
100
AcDbEntity
  8
DEFPOINTS
 62
     0
100
AcDbPoint
 10
187.8880404370012
 20
129.0700100730134
 30
0.0
  0
POINT
  5
24E
330
244
100
AcDbEntity
  8
DEFPOINTS
 62
     0
100
AcDbPoint
 10
252.8880404370017
 20
129.0700100730152
 30
0.0
  0
POINT
  5
24F
330
244
100
AcDbEntity
  8
DEFPOINTS
 62
     0
100
AcDbPoint
 10
252.8880404370017
 20
102.3504646036521
 30
0.0
  0
ENDBLK
  5
246
330
244
100
AcDbEntity
  8
0
100
AcDbBlockEnd
  0
BLOCK
  5
251
330
250
100
AcDbEntity
  8
0
100
AcDbBlockBegin
  2
*D5
 70
     1
 10
0.0
 20
0.0
 30
0.0
  3
*D5
  1
*D6
  0
LINE
  5
253
330
250
100
AcDbEntity
  8
KOTY
 62
     0
100
AcDbLine
 10
310.1074918614514
 20
124.0075100730134
 30
0.0
 11
310.1074918614514
 21
102.1704646036521
 31
0.0
  0
LINE
  5
254
330
250
100
AcDbEntity
  8
KOTY
 62
     0
100
AcDbLine
 10
364.1083054462537
 20
198.5733293549103
 30
0.0
 11
364.1083054462537
 21
102.1704646036521
 31
0.0
  0
LINE
  5
255
330
250
100
AcDbEntity
  8
KOTY
 62
     0
100
AcDbLine
 10
315.1074918614514
 20
102.3504646036521
 30
0.0
 11
359.1083054462537
 21
102.3504646036521
 31
0.0
  0
SOLID
  5
256
330
250
100
AcDbEntity
  8
KOTY
 62
     0
100
AcDbTrace
 10
315.1074918614514
 20
103.1837979369854
 30
0.0
 11
315.1074918614514
 21
101.5171312703188
 31
0.0
 12
310.1074918614514
 22
102.3504646036521
 32
0.0
 13
310.1074918614514
 23
102.3504646036521
 33
0.0
  0
SOLID
  5
257
330
250
100
AcDbEntity
  8
KOTY
 62
     0
100
AcDbTrace
 10
359.1083054462537
 20
101.5171312703188
 30
0.0
 11
359.1083054462537
 21
103.1837979369854
 31
0.0
 12
364.1083054462537
 22
102.3504646036521
 32
0.0
 13
364.1083054462537
 23
102.3504646036521
 33
0.0
  0
MTEXT
  5
258
330
250
100
AcDbEntity
  8
KOTY
 62
     0
100
AcDbMText
 10
337.1078986538525
 20
105.8929646036521
 30
0.0
 40
5.0
 41
0.0
 71
     5
 72
     1
  1
\A1;54
  0
POINT
  5
259
330
250
100
AcDbEntity
  8
DEFPOINTS
 62
     0
100
AcDbPoint
 10
310.1074918614514
 20
124.0700100730134
 30
0.0
  0
POINT
  5
25A
330
250
100
AcDbEntity
  8
DEFPOINTS
 62
     0
100
AcDbPoint
 10
364.1083054462537
 20
198.6358293549103
 30
0.0
  0
POINT
  5
25B
330
250
100
AcDbEntity
  8
DEFPOINTS
 62
     0
100
AcDbPoint
 10
364.1083054462537
 20
102.3504646036521
 30
0.0
  0
ENDBLK
  5
252
330
250
100
AcDbEntity
  8
0
100
AcDbBlockEnd
  0
BLOCK
  5
25D
330
25C
100
AcDbEntity
  8
0
100
AcDbBlockBegin
  2
*D6
 70
     1
 10
0.0
 20
0.0
 30
0.0
  3
*D6
  1
*D7
  0
LINE
  5
25F
330
25C
100
AcDbEntity
  8
KOTY
 62
     0
100
AcDbLine
 10
197.8255404370012
 20
259.0700100730133
 30
0.0
 11
167.9482708189016
 21
259.0700100730133
 31
0.0
  0
LINE
  5
260
330
25C
100
AcDbEntity
  8
KOTY
 62
     0
100
AcDbLine
 10
197.8255404370012
 20
119.0700100730145
 30
0.0
 11
167.9482708189016
 21
119.0700100730145
 31
0.0
  0
LINE
  5
261
330
25C
100
AcDbEntity
  8
KOTY
 62
     0
100
AcDbLine
 10
168.1282708189016
 20
254.0700100730133
 30
0.0
 11
168.1282708189016
 21
124.0700100730145
 31
0.0
  0
SOLID
  5
262
330
25C
100
AcDbEntity
  8
KOTY
 62
     0
100
AcDbTrace
 10
168.9616041522349
 20
254.0700100730133
 30
0.0
 11
167.2949374855683
 21
254.0700100730133
 31
0.0
 12
168.1282708189016
 22
259.0700100730133
 32
0.0
 13
168.1282708189016
 23
259.0700100730133
 33
0.0
  0
SOLID
  5
263
330
25C
100
AcDbEntity
  8
KOTY
 62
     0
100
AcDbTrace
 10
167.2949374855683
 20
124.0700100730145
 30
0.0
 11
168.9616041522349
 21
124.0700100730145
 31
0.0
 12
168.1282708189016
 22
119.0700100730145
 32
0.0
 13
168.1282708189016
 23
119.0700100730145
 33
0.0
  0
MTEXT
  5
264
330
25C
100
AcDbEntity
  8
KOTY
 62
     0
100
AcDbMText
 10
164.5757708189016
 20
189.0700100730139
 30
0.0
 40
5.0
 41
0.0
 71
     5
 72
     1
  1
\A1;140
 11
0.0
 21
1.0
 31
0.0
  0
POINT
  5
265
330
25C
100
AcDbEntity
  8
DEFPOINTS
 62
     0
100
AcDbPoint
 10
197.8880404370012
 20
259.0700100730133
 30
0.0
  0
POINT
  5
266
330
25C
100
AcDbEntity
  8
DEFPOINTS
 62
     0
100
AcDbPoint
 10
197.8880404370012
 20
119.0700100730145
 30
0.0
  0
POINT
  5
267
330
25C
100
AcDbEntity
  8
DEFPOINTS
 62
     0
100
AcDbPoint
 10
168.1282708189016
 20
119.0700100730145
 30
0.0
  0
ENDBLK
  5
25E
330
25C
100
AcDbEntity
  8
0
100
AcDbBlockEnd
  0
ENDSEC
  0
SECTION
  2
ENTITIES
  0
ARC
  5
1DB
330
1F
100
AcDbEntity
  8
OBRYS
100
AcDbCircle
 10
197.8880404370012
 20
129.0700100730134
 30
0.0
 40
10.0
100
AcDbArc
 50
180.0
 51
270.0
  0
ARC
  5
1DC
330
1F
100
AcDbEntity
  8
OBRYS
100
AcDbCircle
 10
197.8880404370012
 20
249.0700100730134
 30
0.0
 40
10.0
100
AcDbArc
 50
90.0
 51
180.0
  0
ARC
  5
1DD
330
1F
100
AcDbEntity
  8
OBRYS
100
AcDbCircle
 10
242.8880404370013
 20
249.0700100730134
 30
0.0
 40
10.0
100
AcDbArc
 50
0.0
 51
90.0
  0
ARC
  5
1DE
330
1F
100
AcDbEntity
  8
OBRYS
100
AcDbCircle
 10
238.452821600904
 20
133.5052289091115
 30
0.0
 40
15.10121547989082
100
AcDbArc
 50
287.0795676974986
 51
342.9204323025094
  0
LINE
  5
1DF
330
1F
100
AcDbEntity
  8
OBRYS
100
AcDbLine
 10
197.8880404370012
 20
119.0700100730145
 30
0.0
 11
242.8880404370013
 21
119.0700100730145
 31
0.0
  0
LINE
  5
1E0
330
1F
100
AcDbEntity
  8
OBRYS
100
AcDbLine
 10
197.8880404370012
 20
259.0700100730133
 30
0.0
 11
242.8880404370013
 21
259.0700100730133
 31
0.0
  0
ARC
  5
1E1
330
1F
100
AcDbEntity
  8
OBRYS
100
AcDbCircle
 10
192.8880404370012
 20
202.5700100730134
 30
0.0
 40
5.0
100
AcDbArc
 50
180.0
 51
270.0
  0
ARC
  5
1E2
330
1F
100
AcDbEntity
  8
OBRYS
100
AcDbCircle
 10
246.2346563959665
 20
204.2233941140484
 30
0.0
 40
6.855741971854294
100
AcDbArc
 50
283.9554736620973
 51
346.044526337895
  0
LINE
  5
1E3
330
1F
100
AcDbEntity
  8
OBRYS
100
AcDbLine
 10
187.8880404370012
 20
249.0700100730134
 30
0.0
 11
187.8880404370012
 21
129.0700100730134
 31
0.0
  0
LINE
  5
1E4
330
1F
100
AcDbEntity
  8
OBRYS
100
AcDbLine
 10
252.8880404370012
 20
249.0700100730134
 30
0.0
 11
252.8880404370013
 21
129.0700100730134
 31
0.0
  0
CIRCLE
  5
1E5
330
1F
100
AcDbEntity
  8
OBRYS
100
AcDbCircle
 10
220.3880404370012
 20
227.0700100730134
 30
0.0
 40
19.0
  0
CIRCLE
  5
1E6
330
1F
100
AcDbEntity
  8
OBRYS
100
AcDbCircle
 10
210.9880404370012
 20
227.0700100730134
 30
0.0
 40
2.75
  0
CIRCLE
  5
1E7
330
1F
100
AcDbEntity
  8
OBRYS
100
AcDbCircle
 10
220.3880404370012
 20
237.0700100730134
 30
0.0
 40
2.5
  0
CIRCLE
  5
1E8
330
1F
100
AcDbEntity
  8
OBRYS
100
AcDbCircle
 10
229.7880404370011
 20
227.0700100730134
 30
0.0
 40
2.75
  0
CIRCLE
  5
1E9
330
1F
100
AcDbEntity
  8
OBRYS
100
AcDbCircle
 10
220.3880404370012
 20
216.5700100730145
 30
0.0
 40
2.0
  0
LINE
  5
1EA
330
1F
100
AcDbEntity
  8
OBRYS
100
AcDbLine
 10
220.8880404370011
 20
218.506372135921
 30
0.0
 11
220.8880404370012
 21
214.6335183999105
 31
0.0
  0
LINE
  5
1EB
330
1F
100
AcDbEntity
  8
OBRYS
100
AcDbLine
 10
219.8880404370015
 20
214.6335183999105
 30
0.0
 11
219.8880404370015
 21
218.5065017461174
 31
0.0
  0
LINE
  5
1EC
330
1F
100
AcDbEntity
  8
OBRYS
100
AcDbLine
 10
196.3880404370012
 20
125.5700560351694
 30
0.0
 11
244.3880404370008
 21
125.5700560351694
 31
0.0
  0
LINE
  5
1ED
330
1F
100
AcDbEntity
  8
OBRYS
100
AcDbLine
 10
191.3880404370012
 20
130.5700560351696
 30
0.0
 11
191.3880404370045
 21
197.8003140659277
 31
0.0
  0
LINE
  5
1EE
330
1F
100
AcDbEntity
  8
OBRYS
100
AcDbLine
 10
249.3880404370008
 20
130.5700560351685
 30
0.0
 11
249.3880404370136
 21
198.1359178656911
 31
0.0
  0
ARC
  5
1EF
330
1F
100
AcDbEntity
  8
OBRYS
100
AcDbCircle
 10
220.3880404370012
 20
321.8005449617111
 30
0.0
 40
127.2378709297349
100
AcDbArc
 50
257.5181332268288
 51
282.481866773171
  0
LINE
  5
1F0
330
1F
100
AcDbEntity
  8
OBRYS
100
AcDbLine
 10
195.3879916034523
 20
191.5430210887454
 30
0.0
 11
195.3879916034523
 21
132.3700760661885
 31
0.0
  0
LINE
  5
1F1
330
1F
100
AcDbEntity
  8
OBRYS
100
AcDbLine
 10
200.3879916034523
 20
127.3700760661885
 30
0.0
 11
240.3880352298365
 21
127.3700760661885
 31
0.0
  0
LINE
  5
1F2
330
1F
100
AcDbEntity
  8
OBRYS
100
AcDbLine
 10
245.3880352298365
 20
132.3700760661885
 30
0.0
 11
245.3880352298365
 21
191.5430210887454
 31
0.0
  0
ARC
  5
1F3
330
1F
100
AcDbEntity
  8
OBRYS
100
AcDbCircle
 10
220.3880134166444
 20
353.0603543532424
 30
0.0
 40
163.4406621240094
100
AcDbArc
 50
261.2014489390696
 51
278.7985510609303
  0
LINE
  5
1F4
330
1F
100
AcDbEntity
  8
OBRYS
100
AcDbLine
 10
355.4083054462537
 20
194.6358293549105
 30
0.0
 11
360.1083054462536
 21
194.6358293549103
 31
0.0
  0
LINE
  5
1F5
330
1F
100
AcDbEntity
  8
OBRYS
100
AcDbLine
 10
360.1083054462538
 20
194.6358293549103
 30
0.0
 11
360.1083054462538
 21
259.0700100730133
 31
0.0
  0
ARC
  5
1F6
330
1F
100
AcDbEntity
  8
OBRYS
100
AcDbCircle
 10
349.3725321065421
 20
125.1057834127254
 30
0.0
 40
6.124000834391959
100
AcDbArc
 50
279.7374393740052
 51
350.2625606260029
  0
LINE
  5
1F7
330
1F
100
AcDbEntity
  8
OBRYS
100
AcDbLine
 10
355.4083054462537
 20
124.0700100730134
 30
0.0
 11
355.4083054462537
 21
194.6358293549105
 31
0.0
  0
LINE
  5
1F8
330
1F
100
AcDbEntity
  8
OBRYS
100
AcDbLine
 10
310.1074918614514
 20
124.0700100730134
 30
0.0
 11
310.1074918614514
 21
254.0700100730134
 31
0.0
  0
LINE
  5
1F9
330
1F
100
AcDbEntity
  8
OBRYS
100
AcDbLine
 10
310.1074918614514
 20
252.5700100730134
 30
0.0
 11
291.4074918614513
 21
252.5700100730134
 31
0.0
  0
LINE
  5
1FA
330
1F
100
AcDbEntity
  8
OBRYS
100
AcDbLine
 10
291.4074918614513
 20
252.5700100730134
 30
0.0
 11
291.4074918614513
 21
216.2700100730146
 31
0.0
  0
LINE
  5
1FB
330
1F
100
AcDbEntity
  8
OBRYS
100
AcDbLine
 10
291.4074918614513
 20
216.2700100730146
 30
0.0
 11
310.1074918614514
 21
216.2700100730146
 31
0.0
  0
LINE
  5
1FC
330
1F
100
AcDbEntity
  8
OBRYS
100
AcDbLine
 10
291.4074918614513
 20
236.9200100730128
 30
0.0
 11
281.4074918614513
 21
236.9200100730128
 31
0.0
  0
LINE
  5
1FD
330
1F
100
AcDbEntity
  8
OBRYS
100
AcDbLine
 10
281.4074918614513
 20
231.920010073014
 30
0.0
 11
291.4074918614513
 21
231.920010073014
 31
0.0
  0
LINE
  5
1FE
330
1F
100
AcDbEntity
  8
OBRYS
100
AcDbLine
 10
281.4074918614513
 20
236.9200100730128
 30
0.0
 11
276.4074918614513
 21
236.9200100730128
 31
0.0
  0
LINE
  5
1FF
330
1F
100
AcDbEntity
  8
OBRYS
100
AcDbLine
 10
281.4074918614513
 20
231.920010073014
 30
0.0
 11
276.4074918614513
 21
231.920010073014
 31
0.0
  0
ARC
  5
200
330
1F
100
AcDbEntity
  8
OBRYS
100
AcDbCircle
 10
278.9074918614513
 20
234.420010073014
 30
0.0
 40
3.535533905932737
100
AcDbArc
 50
135.0000000000052
 51
224.9999999999948
  0
LINE
  5
201
330
1F
100
AcDbEntity
  8
OBRYS
100
AcDbLine
 10
331.4082918614515
 20
259.0700100730133
 30
0.0
 11
331.4082918614515
 21
119.0700100730145
 31
0.0
  0
LINE
  5
202
330
1F
100
AcDbEntity
  8
OBRYS
100
AcDbLine
 10
364.1083054462538
 20
255.0700100730134
 30
0.0
 11
364.1083054462537
 21
198.6358293549103
 31
0.0
  0
ARC
  5
203
330
1F
100
AcDbEntity
  8
OBRYS
100
AcDbCircle
 10
360.1083054462538
 20
255.0700100730134
 30
0.0
 40
3.999999999999999
100
AcDbArc
 50
0.0
 51
90.0
  0
ARC
  5
204
330
1F
100
AcDbEntity
  8
OBRYS
100
AcDbCircle
 10
360.1083054462537
 20
198.6358293549103
 30
0.0
 40
4.000000000000001
100
AcDbArc
 50
269.9999999999984
 51
0.0
  0
LINE
  5
205
330
1F
100
AcDbEntity
  8
OBRYS
100
AcDbLine
 10
315.1074918614514
 20
259.0700100730133
 30
0.0
 11
360.1083054462538
 21
259.0700100730133
 31
0.0
  0
LINE
  5
206
330
1F
100
AcDbEntity
  8
OBRYS
100
AcDbLine
 10
315.1074918614515
 20
119.0700100730134
 30
0.0
 11
350.4083054462544
 21
119.0700100730136
 31
0.0
  0
ARC
  5
207
330
1F
100
AcDbEntity
  8
OBRYS
100
AcDbCircle
 10
315.1074918614514
 20
124.0700100730134
 30
0.0
 40
5.000000000000003
100
AcDbArc
 50
180.0
 51
270.0
  0
ARC
  5
208
330
1F
100
AcDbEntity
  8
OBRYS
100
AcDbCircle
 10
315.1074918614514
 20
254.0700100730134
 30
0.0
 40
5.0
100
AcDbArc
 50
90.0
 51
180.0
  0
LINE
  5
209
330
1F
100
AcDbEntity
  8
OBRYS
100
AcDbLine
 10
291.4074918614513
 20
243.1700100730128
 30
0.0
 11
310.1074918614514
 21
243.1700100730128
 31
0.0
  0
LINE
  5
20A
330
1F
100
AcDbEntity
  8
OBRYS
100
AcDbLine
 10
291.4074918614513
 20
225.670010073014
 30
0.0
 11
310.1074918614514
 21
225.670010073014
 31
0.0
  0
ARC
  5
20B
330
1F
100
AcDbEntity
  8
OBRYS
100
AcDbCircle
 10
196.3880404370012
 20
130.5700560351694
 30
0.0
 40
5.000000000000002
100
AcDbArc
 50
179.9999999999974
 51
270.0
  0
ARC
  5
20C
330
1F
100
AcDbEntity
  8
OBRYS
100
AcDbCircle
 10
244.3880404370008
 20
130.5700560351694
 30
0.0
 40
4.999999999999998
100
AcDbArc
 50
270.0
 51
359.9999999999895
  0
ARC
  5
20D
330
1F
100
AcDbEntity
  8
OBRYS
100
AcDbCircle
 10
200.3879916034523
 20
132.3700760661885
 30
0.0
 40
5.0
100
AcDbArc
 50
180.0
 51
270.0
  0
ARC
  5
20E
330
1F
100
AcDbEntity
  8
OBRYS
100
AcDbCircle
 10
240.3880352298365
 20
132.3700760661885
 30
0.0
 40
5.0
100
AcDbArc
 50
270.0
 51
0.0
  0
DIMENSION
  5
20F
330
1F
100
AcDbEntity
  8
KOTY
100
AcDbDimension
  2
*D4
 10
252.8880404370017
 20
102.3504646036521
 30
0.0
 11
220.3880404370015
 21
105.9029646036521
 31
0.0
 70
    32
  3
STANDARD
100
AcDbAlignedDimension
 13
187.8880404370012
 23
129.0700100730134
 33
0.0
 14
252.8880404370017
 24
129.0700100730152
 34
0.0
100
AcDbRotatedDimension
1001
ACAD
1000
DSTYLE
1002
{
1070
   271
1070
     0
1070
   278
1070
    44
1070
   140
1040
5.0
1070
    73
1070
     0
1070
    77
1070
     1
1070
   147
1040
1.0
1070
    41
1040
5.0
1002
}
  0
DIMENSION
  5
210
330
1F
100
AcDbEntity
  8
KOTY
100
AcDbDimension
  2
*D5
 10
364.1083054462537
 20
102.3504646036521
 30
0.0
 11
337.1078986538525
 21
105.8929646036521
 31
0.0
 70
    32
  3
STANDARD
100
AcDbAlignedDimension
 13
310.1074918614514
 23
124.0700100730134
 33
0.0
 14
364.1083054462537
 24
198.6358293549103
 34
0.0
100
AcDbRotatedDimension
1001
ACAD
1000
DSTYLE
1002
{
1070
   271
1070
     0
1070
   278
1070
    44
1070
   140
1040
5.0
1070
    73
1070
     0
1070
    77
1070
     1
1070
   147
1040
1.0
1070
    41
1040
5.0
1002
}
  0
DIMENSION
  5
211
330
1F
100
AcDbEntity
  8
KOTY
100
AcDbDimension
  2
*D6
 10
168.1282708189016
 20
119.0700100730145
 30
0.0
 11
164.5757708189016
 21
189.0700100730139
 31
0.0
 70
    32
  3
STANDARD
100
AcDbAlignedDimension
 13
197.8880404370012
 23
259.0700100730133
 33
0.0
 14
197.8880404370012
 24
119.0700100730145
 34
0.0
 50
90.0
100
AcDbRotatedDimension
1001
ACAD
1000
DSTYLE
1002
{
1070
   271
1070
     0
1070
   278
1070
    44
1070
   140
1040
5.0
1070
    73
1070
     0
1070
    77
1070
     1
1070
   147
1040
1.0
1070
    41
1040
5.0
1002
}
  0
CIRCLE
  5
212
330
1F
100
AcDbEntity
  8
OBRYS
100
AcDbCircle
 10
206.6381331158319
 20
156.3200049108595
 30
0.0
 40
2.0
  0
CIRCLE
  5
213
330
1F
100
AcDbEntity
  8
OBRYS
100
AcDbCircle
 10
233.1383331158319
 20
156.3200049108595
 30
0.0
 40
2.0
  0
LINE
  5
214
330
1F
100
AcDbEntity
  8
OBRYS
100
AcDbLine
 10
201.738173807161
 20
143.5699028373516
 30
0.0
 11
211.5383700380418
 21
143.5698242153807
 31
0.0
  0
LINE
  5
215
330
1F
100
AcDbEntity
  8
OBRYS
100
AcDbLine
 10
200.3880408864916
 20
145.7199869296966
 30
0.0
 11
212.8882253451721
 21
145.7199869296966
 31
0.0
  0
LINE
  5
216
330
1F
100
AcDbEntity
  8
OBRYS
100
AcDbLine
 10
228.2383738071611
 20
143.5699028373516
 30
0.0
 11
238.0385700380419
 21
143.5698242153807
 31
0.0
  0
LINE
  5
217
330
1F
100
AcDbEntity
  8
OBRYS
100
AcDbLine
 10
226.8882408864917
 20
145.7199869296966
 30
0.0
 11
239.3884253451722
 21
145.7199869296966
 31
0.0
  0
LINE
  5
218
330
1F
100
AcDbEntity
  8
OBRYS
100
AcDbLine
 10
201.738173807161
 20
145.5697807665396
 30
0.0
 11
201.738173807161
 21
135.2701510490625
 31
0.0
  0
LINE
  5
219
330
1F
100
AcDbEntity
  8
OBRYS
100
AcDbLine
 10
201.738173807161
 20
135.2701510490625
 30
0.0
 11
203.3384206600594
 21
135.2701510490625
 31
0.0
  0
LINE
  5
21A
330
1F
100
AcDbEntity
  8
OBRYS
100
AcDbLine
 10
203.3384206600594
 20
135.2701510490625
 30
0.0
 11
203.3384206600594
 21
133.5699964270915
 31
0.0
  0
LINE
  5
21B
330
1F
100
AcDbEntity
  8
OBRYS
100
AcDbLine
 10
204.537658398475
 20
133.5699964270915
 30
0.0
 11
204.537658398475
 21
131.5701184979036
 31
0.0
  0
LINE
  5
21C
330
1F
100
AcDbEntity
  8
OBRYS
100
AcDbLine
 10
212.7380191820152
 20
131.0698906334457
 30
0.0
 11
200.5379025400999
 21
131.0698906334457
 31
0.0
  0
LINE
  5
21D
330
1F
100
AcDbEntity
  8
OBRYS
100
AcDbLine
 10
200.5379025400999
 20
131.0698906334457
 30
0.0
 11
200.5379025400999
 21
145.5697807665396
 31
0.0
  0
LINE
  5
21E
330
1F
100
AcDbEntity
  8
OBRYS
100
AcDbLine
 10
203.3384206600594
 20
133.5699964270915
 30
0.0
 11
204.537658398475
 21
133.5699964270915
 31
0.0
  0
LINE
  5
21F
330
1F
100
AcDbEntity
  8
OBRYS
100
AcDbLine
 10
208.7382633236401
 20
132.2699896457326
 30
0.0
 11
204.537658398475
 21
132.2699896457326
 31
0.0
  0
LINE
  5
220
330
1F
100
AcDbEntity
  8
OBRYS
100
AcDbLine
 10
209.9381900811528
 20
134.3701198535406
 30
0.0
 11
203.3384206600594
 21
134.3701198535406
 31
0.0
  0
LINE
  5
221
330
1F
100
AcDbEntity
  8
OBRYS
100
AcDbLine
 10
203.6377994577277
 20
143.5699028373516
 30
0.0
 11
203.6377994577277
 21
145.5697807665396
 31
0.0
  0
LINE
  5
222
330
1F
100
AcDbEntity
  8
OBRYS
100
AcDbLine
 10
211.5380924245028
 20
135.2701510490625
 30
0.0
 11
211.5384369340514
 21
145.5697807665396
 31
0.0
  0
LINE
  5
223
330
1F
100
AcDbEntity
  8
OBRYS
100
AcDbLine
 10
209.9381900811528
 20
135.2701510490625
 30
0.0
 11
211.5380924245028
 21
135.2701510490625
 31
0.0
  0
LINE
  5
224
330
1F
100
AcDbEntity
  8
OBRYS
100
AcDbLine
 10
209.9381900811528
 20
133.5699964270915
 30
0.0
 11
209.9381900811528
 21
135.2701510490625
 31
0.0
  0
LINE
  5
225
330
1F
100
AcDbEntity
  8
OBRYS
100
AcDbLine
 10
212.7380191820152
 20
131.0698906334457
 30
0.0
 11
212.7380191820152
 21
145.5697807665396
 31
0.0
  0
LINE
  5
226
330
1F
100
AcDbEntity
  8
OBRYS
100
AcDbLine
 10
208.7382633236401
 20
133.5699964270915
 30
0.0
 11
209.9381900811528
 21
133.5699964270915
 31
0.0
  0
LINE
  5
227
330
1F
100
AcDbEntity
  8
OBRYS
100
AcDbLine
 10
208.7382633236401
 20
131.5701184979036
 30
0.0
 11
208.7382633236401
 21
133.5699964270915
 31
0.0
  0
LINE
  5
228
330
1F
100
AcDbEntity
  8
OBRYS
100
AcDbLine
 10
209.6381222643875
 20
145.5697807665396
 30
0.0
 11
209.6381222643875
 21
143.5699028373516
 31
0.0
  0
LINE
  5
229
330
1F
100
AcDbEntity
  8
OBRYS
100
AcDbLine
 10
208.7382633236401
 20
131.5701184979036
 30
0.0
 11
204.537658398475
 21
131.5701184979036
 31
0.0
  0
LINE
  5
22A
330
1F
100
AcDbEntity
  8
OBRYS
100
AcDbLine
 10
212.7380191820152
 20
145.5697807665396
 30
0.0
 11
200.5379025400999
 21
145.5697807665396
 31
0.0
  0
LINE
  5
22B
330
1F
100
AcDbEntity
  8
OBRYS
100
AcDbLine
 10
200.3880408864916
 20
145.7199869296966
 30
0.0
 11
200.3880408864916
 21
130.9200289798377
 31
0.0
  0
LINE
  5
22C
330
1F
100
AcDbEntity
  8
OBRYS
100
AcDbLine
 10
212.8882253451721
 20
130.9200289798377
 30
0.0
 11
212.8882253451721
 21
145.7199869296966
 31
0.0
  0
LINE
  5
22D
330
1F
100
AcDbEntity
  8
OBRYS
100
AcDbLine
 10
200.3880408864916
 20
130.9200289798377
 30
0.0
 11
212.8882253451721
 21
130.9200289798377
 31
0.0
  0
LINE
  5
22E
330
1F
100
AcDbEntity
  8
OBRYS
100
AcDbLine
 10
228.2383738071611
 20
145.5697807665396
 30
0.0
 11
228.2383738071611
 21
135.2701510490625
 31
0.0
  0
LINE
  5
22F
330
1F
100
AcDbEntity
  8
OBRYS
100
AcDbLine
 10
228.2383738071611
 20
135.2701510490625
 30
0.0
 11
229.8386206600595
 21
135.2701510490625
 31
0.0
  0
LINE
  5
230
330
1F
100
AcDbEntity
  8
OBRYS
100
AcDbLine
 10
229.8386206600595
 20
135.2701510490625
 30
0.0
 11
229.8386206600595
 21
133.5699964270915
 31
0.0
  0
LINE
  5
231
330
1F
100
AcDbEntity
  8
OBRYS
100
AcDbLine
 10
231.0378583984751
 20
133.5699964270915
 30
0.0
 11
231.0378583984751
 21
131.5701184979036
 31
0.0
  0
LINE
  5
232
330
1F
100
AcDbEntity
  8
OBRYS
100
AcDbLine
 10
239.2382191820153
 20
131.0698906334457
 30
0.0
 11
227.0381025400999
 21
131.0698906334457
 31
0.0
  0
LINE
  5
233
330
1F
100
AcDbEntity
  8
OBRYS
100
AcDbLine
 10
227.0381025400999
 20
131.0698906334457
 30
0.0
 11
227.0381025400999
 21
145.5697807665396
 31
0.0
  0
LINE
  5
234
330
1F
100
AcDbEntity
  8
OBRYS
100
AcDbLine
 10
229.8386206600595
 20
133.5699964270915
 30
0.0
 11
231.0378583984751
 21
133.5699964270915
 31
0.0
  0
LINE
  5
235
330
1F
100
AcDbEntity
  8
OBRYS
100
AcDbLine
 10
235.2384633236401
 20
132.2699896457326
 30
0.0
 11
231.0378583984751
 21
132.2699896457326
 31
0.0
  0
LINE
  5
236
330
1F
100
AcDbEntity
  8
OBRYS
100
AcDbLine
 10
236.4383900811528
 20
134.3701198535406
 30
0.0
 11
229.8386206600595
 21
134.3701198535406
 31
0.0
  0
LINE
  5
237
330
1F
100
AcDbEntity
  8
OBRYS
100
AcDbLine
 10
230.1379994577277
 20
143.5699028373516
 30
0.0
 11
230.1379994577277
 21
145.5697807665396
 31
0.0
  0
LINE
  5
238
330
1F
100
AcDbEntity
  8
OBRYS
100
AcDbLine
 10
238.0382924245029
 20
135.2701510490625
 30
0.0
 11
238.0386369340515
 21
145.5697807665396
 31
0.0
  0
LINE
  5
239
330
1F
100
AcDbEntity
  8
OBRYS
100
AcDbLine
 10
236.4383900811528
 20
135.2701510490625
 30
0.0
 11
238.0382924245029
 21
135.2701510490625
 31
0.0
  0
LINE
  5
23A
330
1F
100
AcDbEntity
  8
OBRYS
100
AcDbLine
 10
236.4383900811528
 20
133.5699964270915
 30
0.0
 11
236.4383900811528
 21
135.2701510490625
 31
0.0
  0
LINE
  5
23B
330
1F
100
AcDbEntity
  8
OBRYS
100
AcDbLine
 10
239.2382191820153
 20
131.0698906334457
 30
0.0
 11
239.2382191820153
 21
145.5697807665396
 31
0.0
  0
LINE
  5
23C
330
1F
100
AcDbEntity
  8
OBRYS
100
AcDbLine
 10
235.2384633236401
 20
133.5699964270915
 30
0.0
 11
236.4383900811528
 21
133.5699964270915
 31
0.0
  0
LINE
  5
23D
330
1F
100
AcDbEntity
  8
OBRYS
100
AcDbLine
 10
235.2384633236401
 20
131.5701184979036
 30
0.0
 11
235.2384633236401
 21
133.5699964270915
 31
0.0
  0
LINE
  5
23E
330
1F
100
AcDbEntity
  8
OBRYS
100
AcDbLine
 10
236.1383222643876
 20
145.5697807665396
 30
0.0
 11
236.1383222643876
 21
143.5699028373516
 31
0.0
  0
LINE
  5
23F
330
1F
100
AcDbEntity
  8
OBRYS
100
AcDbLine
 10
235.2384633236401
 20
131.5701184979036
 30
0.0
 11
231.0378583984751
 21
131.5701184979036
 31
0.0
  0
LINE
  5
240
330
1F
100
AcDbEntity
  8
OBRYS
100
AcDbLine
 10
239.2382191820153
 20
145.5697807665396
 30
0.0
 11
227.0381025400999
 21
145.5697807665396
 31
0.0
  0
LINE
  5
241
330
1F
100
AcDbEntity
  8
OBRYS
100
AcDbLine
 10
226.8882408864917
 20
145.7199869296966
 30
0.0
 11
226.8882408864917
 21
130.9200289798377
 31
0.0
  0
LINE
  5
242
330
1F
100
AcDbEntity
  8
OBRYS
100
AcDbLine
 10
239.3884253451722
 20
130.9200289798377
 30
0.0
 11
239.3884253451722
 21
145.7199869296966
 31
0.0
  0
LINE
  5
243
330
1F
100
AcDbEntity
  8
OBRYS
100
AcDbLine
 10
226.8882408864917
 20
130.9200289798377
 30
0.0
 11
239.3884253451722
 21
130.9200289798377
 31
0.0
  0
VIEWPORT
  5
26C
330
58
100
AcDbEntity
 67
     1
  8
0
100
AcDbViewport
 10
0.0
 20
0.0
 30
0.0
 40
8.976
 41
6.936000000000001
 68
     1
 69
     1
1001
ACAD
1000
MVIEW
1002
{
1070
    16
1010
0.0
1020
0.0
1030
0.0
1010
0.0
1020
0.0
1030
1.0
1040
0.0
1040
6.936000000000001
1040
5.25
1040
4.0
1040
50.0
1040
0.0
1040
0.0
1070
     0
1070
   100
1070
     0
1070
     3
1070
     0
1070
     0
1070
     0
1070
     0
1040
0.0
1040
0.0
1040
0.0
1040
0.5
1040
0.5
1040
0.0
1040
0.0
1070
     0
1002
{
1002
}
1002
}
  0
VIEWPORT
  5
26D
330
58
100
AcDbEntity
 67
     1
  8
0
100
AcDbViewport
 10
5.25
 20
4.0
 30
0.0
 40
8.4
 41
6.4
 68
     2
 69
     2
1001
ACAD
1000
MVIEW
1002
{
1070
    16
1010
0.0
1020
0.0
1030
0.0
1010
0.0
1020
0.0
1030
1.0
1040
0.0
1040
160.5339363787485
1040
263.5722881325777
1040
180.3769040049994
1040
50.0
1040
0.0
1040
0.0
1070
     0
1070
   100
1070
     0
1070
     3
1070
     0
1070
     0
1070
     0
1070
     0
1040
0.0
1040
0.0
1040
0.0
1040
0.5
1040
0.5
1040
0.0
1040
0.0
1070
     0
1002
{
1002
}
1002
}
  0
ENDSEC
  0
SECTION
  2
OBJECTS
  0
DICTIONARY
  5
C
330
0
100
AcDbDictionary
  3
ACAD_DETAILVIEWSTYLE
350
122
  3
ACAD_GROUP
350
D
  3
ACAD_IMAGE_VARS
350
DC
  3
ACAD_MLINESTYLE
350
17
  3
ACAD_SCALELIST
350
274
  3
ACAD_SECTIONVIEWSTYLE
350
123
  3
ACDBVARIABLEDICTIONARY
350
66
  3
APPDATA
350
E1
  3
DWGPROPS
350
2BA
  0
DICTIONARY
  5
268
330
2
100
AcDbDictionary
280
     1
  3
ACAD_LAYERSTATES
360
269
  3
ACLYDICTIONARY
360
26B
  0
DICTIONARY
  5
122
102
{ACAD_REACTORS
330
C
102
}
330
C
100
AcDbDictionary
  0
DICTIONARY
  5
D
102
{ACAD_REACTORS
330
C
102
}
330
C
100
AcDbDictionary
  0
RASTERVARIABLES
  5
DC
102
{ACAD_REACTORS
330
C
102
}
330
C
100
AcDbRasterVariables
 90
        0
 70
     1
 71
     1
 72
     5
  0
DICTIONARY
  5
17
102
{ACAD_REACTORS
330
C
102
}
330
C
100
AcDbDictionary
  3
STANDARD
350
18
  0
DICTIONARY
  5
274
102
{ACAD_REACTORS
330
C
102
}
330
C
100
AcDbDictionary
  0
DICTIONARY
  5
123
102
{ACAD_REACTORS
330
C
102
}
330
C
100
AcDbDictionary
  0
DICTIONARY
  5
66
102
{ACAD_REACTORS
330
C
102
}
330
C
100
AcDbDictionary
  3
DIMASSOC
350
67
  3
HIDETEXT
350
6B
  0
DICTIONARY
  5
E1
102
{ACAD_REACTORS
330
C
102
}
330
C
100
AcDbDictionary
  0
XRECORD
  5
2BA
102
{ACAD_REACTORS
330
C
102
}
330
C
100
AcDbXrecord
  1
DWGPROPS COOKIE
  2

  3

  4

  6

  7

  8
jaromir.podrabsky
  9

300
=
301
=
302
=
303
=
304
=
305
=
306
=
307
=
308
=
309
=
 40
0.0
 41
2452643.063384259
 42
2456765.24269956
  1

 90
        0
  0
DICTIONARY
  5
269
102
{ACAD_REACTORS
330
268
102
}
330
268
100
AcDbDictionary
  0
DICTIONARY
  5
26B
102
{ACAD_REACTORS
330
268
102
}
330
268
100
AcDbDictionary
1001
ACAD
1000
<All
  0
MLINESTYLE
  5
18
102
{ACAD_REACTORS
330
17
102
}
330
17
100
AcDbMlineStyle
  2
STANDARD
 70
     0
  3

 62
   256
 51
90.0
 52
90.0
 71
     2
 49
0.5
 62
   256
  6
BYLAYER
 49
-0.5
 62
   256
  6
BYLAYER
  0
DICTIONARYVAR
  5
67
102
{ACAD_REACTORS
330
66
102
}
330
66
100
DictionaryVariables
280
     0
  1
2
  0
DICTIONARYVAR
  5
6B
102
{ACAD_REACTORS
330
66
102
}
330
66
100
DictionaryVariables
280
     0
  1
1
  0
ENDSEC
  0
EOF
