  0
SECTION
  2
HEADER
  9
$ACADVER
  1
AC1014
  9
$ACADMAINTVER
 70
     9
  9
$DWGCODEPAGE
  3
ANSI_1250
  9
$INSBASE
 10
0.0
 20
0.0
 30
0.0
  9
$EXTMIN
 10
151.7910094252519
 20
148.8792800667063
 30
0.0
  9
$EXTMAX
 10
352.863044052604
 20
306.2654922027343
 30
0.0
  9
$LIMMIN
 10
0.0
 20
0.0
  9
$LIMMAX
 10
12.0
 20
9.0
  9
$ORTHOMODE
 70
     0
  9
$REGENMODE
 70
     1
  9
$FILLMODE
 70
     1
  9
$QTEXTMODE
 70
     0
  9
$MIRRTEXT
 70
     0
  9
$DRAGMODE
 70
     2
  9
$LTSCALE
 40
1.0
  9
$OSMODE
 70
 15359
  9
$ATTMODE
 70
     1
  9
$TEXTSIZE
 40
0.2
  9
$TRACEWID
 40
0.05
  9
$TEXTSTYLE
  7
STANDARD
  9
$CLAYER
  8
0
  9
$CELTYPE
  6
BYLAYER
  9
$CECOLOR
 62
   256
  9
$CELTSCALE
 40
1.0
  9
$DELOBJ
 70
     1
  9
$DISPSILH
 70
     0
  9
$DIMSCALE
 40
1.0
  9
$DIMASZ
 40
0.18
  9
$DIMEXO
 40
0.0625
  9
$DIMDLI
 40
0.38
  9
$DIMRND
 40
0.0
  9
$DIMDLE
 40
0.0
  9
$DIMEXE
 40
0.18
  9
$DIMTP
 40
0.0
  9
$DIMTM
 40
0.0
  9
$DIMTXT
 40
0.18
  9
$DIMCEN
 40
0.09
  9
$DIMTSZ
 40
0.0
  9
$DIMTOL
 70
     0
  9
$DIMLIM
 70
     0
  9
$DIMTIH
 70
     1
  9
$DIMTOH
 70
     1
  9
$DIMSE1
 70
     0
  9
$DIMSE2
 70
     0
  9
$DIMTAD
 70
     0
  9
$DIMZIN
 70
     0
  9
$DIMBLK
  1

  9
$DIMASO
 70
     1
  9
$DIMSHO
 70
     1
  9
$DIMPOST
  1

  9
$DIMAPOST
  1

  9
$DIMALT
 70
     0
  9
$DIMALTD
 70
     2
  9
$DIMALTF
 40
25.4
  9
$DIMLFAC
 40
1.0
  9
$DIMTOFL
 70
     0
  9
$DIMTVP
 40
0.0
  9
$DIMTIX
 70
     0
  9
$DIMSOXD
 70
     0
  9
$DIMSAH
 70
     0
  9
$DIMBLK1
  1

  9
$DIMBLK2
  1

  9
$DIMSTYLE
  2
STANDARD
  9
$DIMCLRD
 70
     0
  9
$DIMCLRE
 70
     0
  9
$DIMCLRT
 70
     0
  9
$DIMTFAC
 40
1.0
  9
$DIMGAP
 40
0.09
  9
$DIMJUST
 70
     0
  9
$DIMSD1
 70
     0
  9
$DIMSD2
 70
     0
  9
$DIMTOLJ
 70
     1
  9
$DIMTZIN
 70
     0
  9
$DIMALTZ
 70
     0
  9
$DIMALTTZ
 70
     0
  9
$DIMFIT
 70
     5
  9
$DIMUPT
 70
     0
  9
$DIMUNIT
 70
     2
  9
$DIMDEC
 70
     4
  9
$DIMTDEC
 70
     4
  9
$DIMALTU
 70
     2
  9
$DIMALTTD
 70
     2
  9
$DIMTXSTY
  7
STANDARD
  9
$DIMAUNIT
 70
     0
  9
$LUNITS
 70
     2
  9
$LUPREC
 70
     4
  9
$SKETCHINC
 40
0.1
  9
$FILLETRAD
 40
0.0
  9
$AUNITS
 70
     0
  9
$AUPREC
 70
     0
  9
$MENU
  1
.
  9
$ELEVATION
 40
0.0
  9
$PELEVATION
 40
0.0
  9
$THICKNESS
 40
0.0
  9
$LIMCHECK
 70
     0
  9
$CHAMFERA
 40
0.0
  9
$CHAMFERB
 40
0.0
  9
$CHAMFERC
 40
0.0
  9
$CHAMFERD
 40
0.0
  9
$SKPOLY
 70
     0
  9
$TDCREATE
 40
2452643.146717593
  9
$TDUPDATE
 40
2456764.370729282
  9
$TDINDWG
 40
0.0024766088
  9
$TDUSRTIMER
 40
2456764.285451644
  9
$USRTIMER
 70
     1
  9
$ANGBASE
 50
0.0
  9
$ANGDIR
 70
     0
  9
$PDMODE
 70
     0
  9
$PDSIZE
 40
0.0
  9
$PLINEWID
 40
0.0
  9
$COORDS
 70
     2
  9
$SPLFRAME
 70
     0
  9
$SPLINETYPE
 70
     6
  9
$SPLINESEGS
 70
     8
  9
$ATTDIA
 70
     0
  9
$ATTREQ
 70
     1
  9
$HANDLING
 70
     1
  9
$HANDSEED
  5
319
  9
$SURFTAB1
 70
     6
  9
$SURFTAB2
 70
     6
  9
$SURFTYPE
 70
     6
  9
$SURFU
 70
     6
  9
$SURFV
 70
     6
  9
$UCSNAME
  2

  9
$UCSORG
 10
0.0
 20
0.0
 30
0.0
  9
$UCSXDIR
 10
1.0
 20
0.0
 30
0.0
  9
$UCSYDIR
 10
0.0
 20
1.0
 30
0.0
  9
$PUCSNAME
  2

  9
$PUCSORG
 10
0.0
 20
0.0
 30
0.0
  9
$PUCSXDIR
 10
1.0
 20
0.0
 30
0.0
  9
$PUCSYDIR
 10
0.0
 20
1.0
 30
0.0
  9
$USERI1
 70
     0
  9
$USERI2
 70
     0
  9
$USERI3
 70
     0
  9
$USERI4
 70
     0
  9
$USERI5
 70
     0
  9
$USERR1
 40
0.0
  9
$USERR2
 40
0.0
  9
$USERR3
 40
0.0
  9
$USERR4
 40
0.0
  9
$USERR5
 40
0.0
  9
$WORLDVIEW
 70
     1
  9
$SHADEDGE
 70
     3
  9
$SHADEDIF
 70
    70
  9
$TILEMODE
 70
     0
  9
$MAXACTVP
 70
    64
  9
$PINSBASE
 10
0.0
 20
0.0
 30
0.0
  9
$PLIMCHECK
 70
     0
  9
$PEXTMIN
 10
1.05
 20
0.7999999999999998
 30
0.0
  9
$PEXTMAX
 10
9.45
 20
7.2
 30
0.0
  9
$PLIMMIN
 10
0.8500000000000006
 20
0.5999999999999998
  9
$PLIMMAX
 10
9.650000000000002
 20
7.4
  9
$UNITMODE
 70
     0
  9
$VISRETAIN
 70
     1
  9
$PLINEGEN
 70
     0
  9
$PSLTSCALE
 70
     1
  9
$TREEDEPTH
 70
  3020
  9
$PICKSTYLE
 70
     0
  9
$CMLSTYLE
  2
STANDARD
  9
$CMLJUST
 70
     0
  9
$CMLSCALE
 40
1.0
  9
$PROXYGRAPHICS
 70
     1
  9
$MEASUREMENT
 70
     0
  0
ENDSEC
  0
SECTION
  2
CLASSES
  0
CLASS
  1
ACDBDICTIONARYWDFLT
  2
AcDbDictionaryWithDefault
  3
ObjectDBX Classes
 90
        0
280
     0
281
     0
  0
CLASS
  1
ACDBPLACEHOLDER
  2
AcDbPlaceHolder
  3
ObjectDBX Classes
 90
        0
280
     0
281
     0
  0
CLASS
  1
LAYOUT
  2
AcDbLayout
  3
ObjectDBX Classes
 90
        0
280
     0
281
     0
  0
CLASS
  1
DICTIONARYVAR
  2
AcDbDictionaryVar
  3
ObjectDBX Classes
 90
        0
280
     0
281
     0
  0
CLASS
  1
TABLESTYLE
  2
AcDbTableStyle
  3
ObjectDBX Classes
 90
     4095
280
     0
281
     0
  0
CLASS
  1
MATERIAL
  2
AcDbMaterial
  3
ObjectDBX Classes
 90
     1153
280
     0
281
     0
  0
CLASS
  1
VISUALSTYLE
  2
AcDbVisualStyle
  3
ObjectDBX Classes
 90
     4095
280
     0
281
     0
  0
CLASS
  1
SCALE
  2
AcDbScale
  3
ObjectDBX Classes
 90
     1153
280
     0
281
     0
  0
CLASS
  1
CELLSTYLEMAP
  2
AcDbCellStyleMap
  3
ObjectDBX Classes
 90
     1152
280
     0
281
     0
  0
CLASS
  1
RASTERVARIABLES
  2
AcDbRasterVariables
  3
ISM
 90
        0
280
     0
281
     0
  0
CLASS
  1
SUN
  2
AcDbSun
  3
SCENEOE
 90
     1153
280
     0
281
     0
  0
CLASS
  1
XRECORD
  2
AcDbXrecord
  3
ObjectDBX Classes
 90
        0
280
     0
281
     0
  0
CLASS
  1
LWPOLYLINE
  2
AcDbPolyline
  3
ObjectDBX Classes
 90
        0
280
     0
281
     1
  0
CLASS
  1
HATCH
  2
AcDbHatch
  3
ObjectDBX Classes
 90
        0
280
     0
281
     1
  0
CLASS
  1
DIMASSOC
  2
AcDbDimAssoc
  3
"AcDbDimAssoc|Product Desc:     AcDim ARX App For Dimension|Company:          Autodesk, Inc.|WEB Address:      www.autodesk.com"
 90
        0
280
     0
281
     0
  0
ENDSEC
  0
SECTION
  2
TABLES
  0
TABLE
  2
VPORT
  5
8
330
0
100
AcDbSymbolTable
 70
     1
  0
VPORT
  5
94
330
8
100
AcDbSymbolTableRecord
100
AcDbViewportTableRecord
  2
*ACTIVE
 70
     0
 10
0.0
 20
0.0
 11
1.0
 21
1.0
 12
282.5200725425418
 22
261.6694488178791
 13
0.0
 23
0.0
 14
0.5
 24
0.5
 15
0.5
 25
0.5
 16
0.0
 26
0.0
 36
1.0
 17
-27.66959356597997
 27
-19.53870295786189
 37
0.0
 40
200.1927766416751
 41
1.256218905472637
 42
50.0
 43
0.0
 44
0.0
 50
0.0
 51
0.0
 71
    16
 72
  1000
 73
     1
 74
     3
 75
     0
 76
     0
 77
     0
 78
     0
  0
ENDTAB
  0
TABLE
  2
LTYPE
  5
5
330
0
100
AcDbSymbolTable
 70
     1
  0
LTYPE
  5
14
330
5
100
AcDbSymbolTableRecord
100
AcDbLinetypeTableRecord
  2
BYBLOCK
 70
     0
  3

 72
    65
 73
     0
 40
0.0
  0
LTYPE
  5
15
330
5
100
AcDbSymbolTableRecord
100
AcDbLinetypeTableRecord
  2
BYLAYER
 70
     0
  3

 72
    65
 73
     0
 40
0.0
  0
LTYPE
  5
16
330
5
100
AcDbSymbolTableRecord
100
AcDbLinetypeTableRecord
  2
CONTINUOUS
 70
     0
  3
Solid line
 72
    65
 73
     0
 40
0.0
  0
ENDTAB
  0
TABLE
  2
LAYER
  5
2
330
0
100
AcDbSymbolTable
 70
     5
  0
LAYER
  5
10
330
2
100
AcDbSymbolTableRecord
100
AcDbLayerTableRecord
  2
0
 70
     0
 62
     7
  6
CONTINUOUS
  0
LAYER
  5
125
330
2
100
AcDbSymbolTableRecord
100
AcDbLayerTableRecord
  2
DEFPOINTS
 70
     0
 62
     7
  6
CONTINUOUS
  0
LAYER
  5
126
330
2
100
AcDbSymbolTableRecord
100
AcDbLayerTableRecord
  2
HLAVNÍ
 70
     0
 62
     3
  6
CONTINUOUS
  0
LAYER
  5
128
330
2
100
AcDbSymbolTableRecord
100
AcDbLayerTableRecord
  2
OBRYS
 70
     0
 62
     5
  6
CONTINUOUS
  0
LAYER
  5
129
330
2
100
AcDbSymbolTableRecord
100
AcDbLayerTableRecord
  2
KOTY
 70
     0
 62
     1
  6
CONTINUOUS
1001
ACAECLAYERSTANDARD
1000

1000

  0
ENDTAB
  0
TABLE
  2
STYLE
  5
3
330
0
100
AcDbSymbolTable
 70
     1
  0
STYLE
  5
11
330
3
100
AcDbSymbolTableRecord
100
AcDbTextStyleTableRecord
  2
STANDARD
 70
     0
 40
0.0
 41
1.0
 50
0.0
 71
     0
 42
0.2
  3
arial.ttf
  4

1001
ACAD
1000
Arial
1071
        0
  0
ENDTAB
  0
TABLE
  2
VIEW
  5
6
330
0
100
AcDbSymbolTable
 70
     0
  0
ENDTAB
  0
TABLE
  2
UCS
  5
7
330
0
100
AcDbSymbolTable
 70
     0
  0
ENDTAB
  0
TABLE
  2
APPID
  5
9
330
0
100
AcDbSymbolTable
 70
     2
  0
APPID
  5
12
330
9
100
AcDbSymbolTableRecord
100
AcDbRegAppTableRecord
  2
ACAD
 70
     0
  0
APPID
  5
12A
330
9
100
AcDbSymbolTableRecord
100
AcDbRegAppTableRecord
  2
ACAECLAYERSTANDARD
 70
     0
  0
ENDTAB
  0
TABLE
  2
DIMSTYLE
  5
A
330
0
100
AcDbSymbolTable
 70
     2
  0
DIMSTYLE
105
27
102
{ACAD_REACTORS
330
209
330
20A
330
20B
102
}
330
A
100
AcDbSymbolTableRecord
100
AcDbDimStyleTableRecord
  2
STANDARD
 70
     0
  3

  4

  5

  6

  7

 40
1.0
 41
0.18
 42
0.0625
 43
0.38
 44
0.18
 45
0.0
 46
0.0
 47
0.0
 48
0.0
140
0.18
141
0.09
142
0.0
143
25.4
144
1.0
145
0.0
146
1.0
147
0.09
 71
     0
 72
     0
 73
     1
 74
     1
 75
     0
 76
     0
 77
     0
 78
     0
170
     0
171
     2
172
     0
173
     0
174
     0
175
     0
176
     0
177
     0
178
     0
270
     2
271
     4
272
     4
273
     2
274
     2
340
11
275
     0
280
     0
281
     0
282
     0
283
     1
284
     0
285
     0
286
     0
287
     3
288
     0
  0
DIMSTYLE
105
12D
330
A
100
AcDbSymbolTableRecord
100
AcDbDimStyleTableRecord
  2
ISO-25
 70
     0
  3

  4

  5

  6

  7

 40
1.0
 41
6.0
 42
0.0
 43
3.75
 44
1.25
 45
0.0
 46
0.0
 47
0.0
 48
0.0
140
3.0
141
2.5
142
0.0
143
0.03937007874016
144
1.0
145
0.0
146
1.0
147
0.625
 71
     0
 72
     0
 73
     0
 74
     1
 75
     0
 76
     0
 77
     1
 78
     8
170
     0
171
     3
172
     1
173
     0
174
     0
175
     0
176
     5
177
     5
178
     5
270
     2
271
     4
272
     4
273
     2
274
     2
340
11
275
     0
280
     0
281
     0
282
     0
283
     1
284
     0
285
     0
286
     0
287
     3
288
     0
  0
ENDTAB
  0
TABLE
  2
BLOCK_RECORD
  5
1
330
0
100
AcDbSymbolTable
 70
    11
  0
BLOCK_RECORD
  5
1F
330
1
100
AcDbSymbolTableRecord
100
AcDbBlockTableRecord
  2
*MODEL_SPACE
  0
BLOCK_RECORD
  5
58
330
1
100
AcDbSymbolTableRecord
100
AcDbBlockTableRecord
  2
*PAPER_SPACE
  0
BLOCK_RECORD
  5
5D
330
1
100
AcDbSymbolTableRecord
100
AcDbBlockTableRecord
  2
*PAPER_SPACE0
  0
BLOCK_RECORD
  5
180
330
1
100
AcDbSymbolTableRecord
100
AcDbBlockTableRecord
  2
*D1
  0
BLOCK_RECORD
  5
18D
330
1
100
AcDbSymbolTableRecord
100
AcDbBlockTableRecord
  2
*D2
  0
BLOCK_RECORD
  5
19A
330
1
100
AcDbSymbolTableRecord
100
AcDbBlockTableRecord
  2
*D3
  0
BLOCK_RECORD
  5
238
330
1
100
AcDbSymbolTableRecord
100
AcDbBlockTableRecord
  2
*D4
  0
BLOCK_RECORD
  5
244
330
1
100
AcDbSymbolTableRecord
100
AcDbBlockTableRecord
  2
*D5
  0
BLOCK_RECORD
  5
250
330
1
100
AcDbSymbolTableRecord
100
AcDbBlockTableRecord
  2
*D6
  0
BLOCK_RECORD
  5
2FA
330
1
100
AcDbSymbolTableRecord
100
AcDbBlockTableRecord
  2
*D9
  0
BLOCK_RECORD
  5
30B
330
1
100
AcDbSymbolTableRecord
100
AcDbBlockTableRecord
  2
*D10
  0
ENDTAB
  0
ENDSEC
  0
SECTION
  2
BLOCKS
  0
BLOCK
  5
20
330
1F
100
AcDbEntity
  8
0
100
AcDbBlockBegin
  2
*MODEL_SPACE
 70
     0
 10
0.0
 20
0.0
 30
0.0
  3
*MODEL_SPACE
  1

  0
ENDBLK
  5
21
330
1F
100
AcDbEntity
  8
0
100
AcDbBlockEnd
  0
BLOCK
  5
5A
330
58
100
AcDbEntity
 67
     1
  8
0
100
AcDbBlockBegin
  2
*PAPER_SPACE
 70
     0
 10
0.0
 20
0.0
 30
0.0
  3
*PAPER_SPACE
  1

  0
ENDBLK
  5
5B
330
58
100
AcDbEntity
 67
     1
  8
0
100
AcDbBlockEnd
  0
BLOCK
  5
5F
330
5D
100
AcDbEntity
  8
0
100
AcDbBlockBegin
  2
*PAPER_SPACE0
 70
     0
 10
0.0
 20
0.0
 30
0.0
  3
*PAPER_SPACE0
  1
*PAPER_SPACE0
  0
ENDBLK
  5
60
330
5D
100
AcDbEntity
  8
0
100
AcDbBlockEnd
  0
BLOCK
  5
181
330
180
100
AcDbEntity
  8
0
100
AcDbBlockBegin
  2
*D1
 70
     1
 10
0.0
 20
0.0
 30
0.0
  3
*D1
  1
*D2
  0
LINE
  5
182
330
180
100
AcDbEntity
  8
KOTY
 62
     0
100
AcDbLine
 10
24.75976961809931
 20
27.32371213602801
 30
0.0
 11
24.75976961809931
 21
0.4866666666667425
 31
0.0
  0
LINE
  5
183
330
180
100
AcDbEntity
  8
KOTY
 62
     0
100
AcDbLine
 10
89.75976961809988
 20
27.32371213602983
 30
0.0
 11
89.75976961809988
 21
0.4866666666667425
 31
0.0
  0
LINE
  5
184
330
180
100
AcDbEntity
  8
KOTY
 62
     0
100
AcDbLine
 10
28.75976961809931
 20
0.6666666666667425
 30
0.0
 11
85.75976961809988
 21
0.6666666666667425
 31
0.0
  0
SOLID
  5
185
330
180
100
AcDbEntity
  8
KOTY
 62
     0
100
AcDbTrace
 10
28.75976961809931
 20
1.333333333333409
 30
0.0
 11
28.75976961809931
 21
0.0000000000000758
 31
0.0
 12
24.75976961809931
 22
0.6666666666667425
 32
0.0
 13
24.75976961809931
 23
0.6666666666667425
 33
0.0
  0
SOLID
  5
186
330
180
100
AcDbEntity
  8
KOTY
 62
     0
100
AcDbTrace
 10
85.75976961809988
 20
0.0000000000000758
 30
0.0
 11
85.75976961809988
 21
1.333333333333409
 31
0.0
 12
89.75976961809988
 22
0.6666666666667425
 32
0.0
 13
89.75976961809988
 23
0.6666666666667425
 33
0.0
  0
MTEXT
  5
187
330
180
100
AcDbEntity
  8
KOTY
 62
     0
100
AcDbMText
 10
57.2597696180996
 20
3.708666666666742
 30
0.0
 40
4.0
 41
0.0
 71
     5
 72
     1
  1
\A1;65
  0
POINT
  5
188
330
180
100
AcDbEntity
  8
DEFPOINTS
 62
     0
100
AcDbPoint
 10
24.75976961809931
 20
27.38621213602801
 30
0.0
  0
POINT
  5
189
330
180
100
AcDbEntity
  8
DEFPOINTS
 62
     0
100
AcDbPoint
 10
89.75976961809988
 20
27.38621213602983
 30
0.0
  0
POINT
  5
18A
330
180
100
AcDbEntity
  8
DEFPOINTS
 62
     0
100
AcDbPoint
 10
89.75976961809988
 20
0.6666666666667425
 30
0.0
  0
ENDBLK
  5
18B
330
180
100
AcDbEntity
  8
0
100
AcDbBlockEnd
  0
BLOCK
  5
18E
330
18D
100
AcDbEntity
  8
0
100
AcDbBlockBegin
  2
*D2
 70
     1
 10
0.0
 20
0.0
 30
0.0
  3
*D2
  1
*D3
  0
LINE
  5
18F
330
18D
100
AcDbEntity
  8
KOTY
 62
     0
100
AcDbLine
 10
146.9792210425495
 20
22.32371213602801
 30
0.0
 11
146.9792210425495
 21
0.4866666666667425
 31
0.0
  0
LINE
  5
190
330
18D
100
AcDbEntity
  8
KOTY
 62
     0
100
AcDbLine
 10
200.9800346273519
 20
96.8895314179249
 30
0.0
 11
200.9800346273519
 21
0.4866666666667425
 31
0.0
  0
LINE
  5
191
330
18D
100
AcDbEntity
  8
KOTY
 62
     0
100
AcDbLine
 10
150.9792210425495
 20
0.6666666666667425
 30
0.0
 11
196.9800346273519
 21
0.6666666666667425
 31
0.0
  0
SOLID
  5
192
330
18D
100
AcDbEntity
  8
KOTY
 62
     0
100
AcDbTrace
 10
150.9792210425495
 20
1.333333333333409
 30
0.0
 11
150.9792210425495
 21
0.0000000000000758
 31
0.0
 12
146.9792210425495
 22
0.6666666666667425
 32
0.0
 13
146.9792210425495
 23
0.6666666666667425
 33
0.0
  0
SOLID
  5
193
330
18D
100
AcDbEntity
  8
KOTY
 62
     0
100
AcDbTrace
 10
196.9800346273519
 20
0.0000000000000758
 30
0.0
 11
196.9800346273519
 21
1.333333333333409
 31
0.0
 12
200.9800346273519
 22
0.6666666666667425
 32
0.0
 13
200.9800346273519
 23
0.6666666666667425
 33
0.0
  0
MTEXT
  5
194
330
18D
100
AcDbEntity
  8
KOTY
 62
     0
100
AcDbMText
 10
173.9796278349507
 20
3.700666666666742
 30
0.0
 40
4.0
 41
0.0
 71
     5
 72
     1
  1
\A1;54
  0
POINT
  5
195
330
18D
100
AcDbEntity
  8
DEFPOINTS
 62
     0
100
AcDbPoint
 10
146.9792210425495
 20
22.38621213602801
 30
0.0
  0
POINT
  5
196
330
18D
100
AcDbEntity
  8
DEFPOINTS
 62
     0
100
AcDbPoint
 10
200.9800346273519
 20
96.9520314179249
 30
0.0
  0
POINT
  5
197
330
18D
100
AcDbEntity
  8
DEFPOINTS
 62
     0
100
AcDbPoint
 10
200.9800346273519
 20
0.6666666666667425
 30
0.0
  0
ENDBLK
  5
198
330
18D
100
AcDbEntity
  8
0
100
AcDbBlockEnd
  0
BLOCK
  5
19B
330
19A
100
AcDbEntity
  8
0
100
AcDbBlockBegin
  2
*D3
 70
     1
 10
0.0
 20
0.0
 30
0.0
  3
*D3
  1
*D4
  0
LINE
  5
19C
330
19A
100
AcDbEntity
  8
KOTY
 62
     0
100
AcDbLine
 10
34.69726961809931
 20
157.386212136028
 30
0.0
 11
4.819999999999782
 21
157.386212136028
 31
0.0
  0
LINE
  5
19D
330
19A
100
AcDbEntity
  8
KOTY
 62
     0
100
AcDbLine
 10
34.69726961809931
 20
17.38621213602914
 30
0.0
 11
4.819999999999773
 21
17.38621213602915
 31
0.0
  0
LINE
  5
19E
330
19A
100
AcDbEntity
  8
KOTY
 62
     0
100
AcDbLine
 10
4.999999999999782
 20
153.386212136028
 30
0.0
 11
4.999999999999773
 21
21.38621213602915
 31
0.0
  0
SOLID
  5
19F
330
19A
100
AcDbEntity
  8
KOTY
 62
     0
100
AcDbTrace
 10
5.666666666666448
 20
153.386212136028
 30
0.0
 11
4.333333333333115
 21
153.386212136028
 31
0.0
 12
4.999999999999782
 22
157.386212136028
 32
0.0
 13
4.999999999999782
 23
157.386212136028
 33
0.0
  0
SOLID
  5
1A0
330
19A
100
AcDbEntity
  8
KOTY
 62
     0
100
AcDbTrace
 10
4.333333333333106
 20
21.38621213602915
 30
0.0
 11
5.66666666666644
 21
21.38621213602915
 31
0.0
 12
4.999999999999773
 22
17.38621213602915
 32
0.0
 13
4.999999999999773
 23
17.38621213602915
 33
0.0
  0
MTEXT
  5
1A1
330
19A
100
AcDbEntity
  8
KOTY
 62
     0
100
AcDbMText
 10
1.957999999999775
 20
87.38621213602858
 30
0.0
 40
4.0
 41
0.0
 71
     5
 72
     1
  1
\A1;140
 11
6.344131569286660E-17
 21
1.0
 31
0.0
  0
POINT
  5
1A2
330
19A
100
AcDbEntity
  8
DEFPOINTS
 62
     0
100
AcDbPoint
 10
34.75976961809931
 20
157.386212136028
 30
0.0
  0
POINT
  5
1A3
330
19A
100
AcDbEntity
  8
DEFPOINTS
 62
     0
100
AcDbPoint
 10
34.75976961809931
 20
17.38621213602914
 30
0.0
  0
POINT
  5
1A4
330
19A
100
AcDbEntity
  8
DEFPOINTS
 62
     0
100
AcDbPoint
 10
4.999999999999773
 20
17.38621213602915
 30
0.0
  0
ENDBLK
  5
1A5
330
19A
100
AcDbEntity
  8
0
100
AcDbBlockEnd
  0
BLOCK
  5
239
330
238
100
AcDbEntity
  8
0
100
AcDbBlockBegin
  2
*D4
 70
     1
 10
0.0
 20
0.0
 30
0.0
  3
*D4
  1
*D5
  0
LINE
  5
23B
330
238
100
AcDbEntity
  8
KOTY
 62
     0
100
AcDbLine
 10
176.6427790433514
 20
176.2029922027343
 30
0.0
 11
176.6427790433514
 21
149.365946733373
 31
0.0
  0
LINE
  5
23C
330
238
100
AcDbEntity
  8
KOTY
 62
     0
100
AcDbLine
 10
241.642779043352
 20
176.2029922027361
 30
0.0
 11
241.642779043352
 21
149.365946733373
 31
0.0
  0
LINE
  5
23D
330
238
100
AcDbEntity
  8
KOTY
 62
     0
100
AcDbLine
 10
180.6427790433514
 20
149.545946733373
 30
0.0
 11
237.642779043352
 21
149.545946733373
 31
0.0
  0
SOLID
  5
23E
330
238
100
AcDbEntity
  8
KOTY
 62
     0
100
AcDbTrace
 10
180.6427790433514
 20
150.2126134000397
 30
0.0
 11
180.6427790433514
 21
148.8792800667063
 31
0.0
 12
176.6427790433514
 22
149.545946733373
 32
0.0
 13
176.6427790433514
 23
149.545946733373
 33
0.0
  0
SOLID
  5
23F
330
238
100
AcDbEntity
  8
KOTY
 62
     0
100
AcDbTrace
 10
237.642779043352
 20
148.8792800667063
 30
0.0
 11
237.642779043352
 21
150.2126134000397
 31
0.0
 12
241.642779043352
 22
149.545946733373
 32
0.0
 13
241.642779043352
 23
149.545946733373
 33
0.0
  0
MTEXT
  5
240
330
238
100
AcDbEntity
  8
KOTY
 62
     0
100
AcDbMText
 10
209.1427790433517
 20
152.587946733373
 30
0.0
 40
4.0
 41
0.0
 71
     5
 72
     1
  1
\A1;65
  0
POINT
  5
241
330
238
100
AcDbEntity
  8
DEFPOINTS
 62
     0
100
AcDbPoint
 10
176.6427790433514
 20
176.2654922027343
 30
0.0
  0
POINT
  5
242
330
238
100
AcDbEntity
  8
DEFPOINTS
 62
     0
100
AcDbPoint
 10
241.642779043352
 20
176.2654922027361
 30
0.0
  0
POINT
  5
243
330
238
100
AcDbEntity
  8
DEFPOINTS
 62
     0
100
AcDbPoint
 10
241.642779043352
 20
149.545946733373
 30
0.0
  0
ENDBLK
  5
23A
330
238
100
AcDbEntity
  8
0
100
AcDbBlockEnd
  0
BLOCK
  5
245
330
244
100
AcDbEntity
  8
0
100
AcDbBlockBegin
  2
*D5
 70
     1
 10
0.0
 20
0.0
 30
0.0
  3
*D5
  1
*D6
  0
LINE
  5
247
330
244
100
AcDbEntity
  8
KOTY
 62
     0
100
AcDbLine
 10
298.8622304678016
 20
171.2029922027343
 30
0.0
 11
298.8622304678016
 21
149.365946733373
 31
0.0
  0
LINE
  5
248
330
244
100
AcDbEntity
  8
KOTY
 62
     0
100
AcDbLine
 10
352.863044052604
 20
245.7688114846312
 30
0.0
 11
352.863044052604
 21
149.365946733373
 31
0.0
  0
LINE
  5
249
330
244
100
AcDbEntity
  8
KOTY
 62
     0
100
AcDbLine
 10
302.8622304678016
 20
149.545946733373
 30
0.0
 11
348.863044052604
 21
149.545946733373
 31
0.0
  0
SOLID
  5
24A
330
244
100
AcDbEntity
  8
KOTY
 62
     0
100
AcDbTrace
 10
302.8622304678016
 20
150.2126134000397
 30
0.0
 11
302.8622304678016
 21
148.8792800667063
 31
0.0
 12
298.8622304678016
 22
149.545946733373
 32
0.0
 13
298.8622304678016
 23
149.545946733373
 33
0.0
  0
SOLID
  5
24B
330
244
100
AcDbEntity
  8
KOTY
 62
     0
100
AcDbTrace
 10
348.863044052604
 20
148.8792800667063
 30
0.0
 11
348.863044052604
 21
150.2126134000397
 31
0.0
 12
352.863044052604
 22
149.545946733373
 32
0.0
 13
352.863044052604
 23
149.545946733373
 33
0.0
  0
MTEXT
  5
24C
330
244
100
AcDbEntity
  8
KOTY
 62
     0
100
AcDbMText
 10
325.8626372602028
 20
152.579946733373
 30
0.0
 40
4.0
 41
0.0
 71
     5
 72
     1
  1
\A1;54
  0
POINT
  5
24D
330
244
100
AcDbEntity
  8
DEFPOINTS
 62
     0
100
AcDbPoint
 10
298.8622304678016
 20
171.2654922027343
 30
0.0
  0
POINT
  5
24E
330
244
100
AcDbEntity
  8
DEFPOINTS
 62
     0
100
AcDbPoint
 10
352.863044052604
 20
245.8313114846312
 30
0.0
  0
POINT
  5
24F
330
244
100
AcDbEntity
  8
DEFPOINTS
 62
     0
100
AcDbPoint
 10
352.863044052604
 20
149.545946733373
 30
0.0
  0
ENDBLK
  5
246
330
244
100
AcDbEntity
  8
0
100
AcDbBlockEnd
  0
BLOCK
  5
251
330
250
100
AcDbEntity
  8
0
100
AcDbBlockBegin
  2
*D6
 70
     1
 10
0.0
 20
0.0
 30
0.0
  3
*D6
  1
*D7
  0
LINE
  5
253
330
250
100
AcDbEntity
  8
KOTY
 62
     0
100
AcDbLine
 10
186.5802790433514
 20
306.2654922027343
 30
0.0
 11
156.7030094252519
 21
306.2654922027343
 31
0.0
  0
LINE
  5
254
330
250
100
AcDbEntity
  8
KOTY
 62
     0
100
AcDbLine
 10
186.5802790433514
 20
166.2654922027354
 30
0.0
 11
156.7030094252519
 21
166.2654922027354
 31
0.0
  0
LINE
  5
255
330
250
100
AcDbEntity
  8
KOTY
 62
     0
100
AcDbLine
 10
156.8830094252519
 20
302.2654922027343
 30
0.0
 11
156.8830094252519
 21
170.2654922027354
 31
0.0
  0
SOLID
  5
256
330
250
100
AcDbEntity
  8
KOTY
 62
     0
100
AcDbTrace
 10
157.5496760919185
 20
302.2654922027343
 30
0.0
 11
156.2163427585852
 21
302.2654922027343
 31
0.0
 12
156.8830094252519
 22
306.2654922027343
 32
0.0
 13
156.8830094252519
 23
306.2654922027343
 33
0.0
  0
SOLID
  5
257
330
250
100
AcDbEntity
  8
KOTY
 62
     0
100
AcDbTrace
 10
156.2163427585852
 20
170.2654922027354
 30
0.0
 11
157.5496760919185
 21
170.2654922027354
 31
0.0
 12
156.8830094252519
 22
166.2654922027354
 32
0.0
 13
156.8830094252519
 23
166.2654922027354
 33
0.0
  0
MTEXT
  5
258
330
250
100
AcDbEntity
  8
KOTY
 62
     0
100
AcDbMText
 10
153.8410094252519
 20
236.2654922027348
 30
0.0
 40
4.0
 41
0.0
 71
     5
 72
     1
  1
\A1;140
 11
0.0
 21
1.0
 31
0.0
  0
POINT
  5
259
330
250
100
AcDbEntity
  8
DEFPOINTS
 62
     0
100
AcDbPoint
 10
186.6427790433514
 20
306.2654922027343
 30
0.0
  0
POINT
  5
25A
330
250
100
AcDbEntity
  8
DEFPOINTS
 62
     0
100
AcDbPoint
 10
186.6427790433514
 20
166.2654922027354
 30
0.0
  0
POINT
  5
25B
330
250
100
AcDbEntity
  8
DEFPOINTS
 62
     0
100
AcDbPoint
 10
156.8830094252519
 20
166.2654922027354
 30
0.0
  0
ENDBLK
  5
252
330
250
100
AcDbEntity
  8
0
100
AcDbBlockEnd
  0
BLOCK
  5
2FB
330
2FA
100
AcDbEntity
  8
0
100
AcDbBlockBegin
  2
*D9
 70
     1
 10
0.0
 20
0.0
 30
0.0
  3
*D9
  1
*D9
  0
LINE
  5
2FD
330
2FA
100
AcDbEntity
  8
0
 62
     0
100
AcDbLine
 10
228.9927692288362
 20
256.2804817485818
 30
0.0
 11
228.9927692288362
 21
258.8013262534382
 31
0.0
  0
LINE
  5
2FE
330
2FA
100
AcDbEntity
  8
0
 62
     0
100
AcDbLine
 10
241.6427790433514
 20
256.2804817485818
 30
0.0
 11
241.6427790433514
 21
258.8013262534382
 31
0.0
  0
LINE
  5
2FF
330
2FA
100
AcDbEntity
  8
0
 62
     0
100
AcDbLine
 10
229.1727692288362
 20
258.6213262534382
 30
0.0
 11
234.7935241360938
 21
258.6213262534382
 31
0.0
  0
LINE
  5
300
330
2FA
100
AcDbEntity
  8
0
 62
     0
100
AcDbLine
 10
241.4627790433514
 20
258.6213262534382
 30
0.0
 11
235.8420241360938
 21
258.6213262534382
 31
0.0
  0
SOLID
  5
301
330
2FA
100
AcDbEntity
  8
0
 62
     0
100
AcDbTrace
 10
229.1727692288362
 20
258.6513262534381
 30
0.0
 11
229.1727692288362
 21
258.5913262534382
 31
0.0
 12
228.9927692288362
 22
258.6213262534382
 32
0.0
 13
228.9927692288362
 23
258.6213262534382
 33
0.0
  0
SOLID
  5
302
330
2FA
100
AcDbEntity
  8
0
 62
     0
100
AcDbTrace
 10
241.4627790433514
 20
258.5913262534382
 30
0.0
 11
241.4627790433514
 21
258.6513262534381
 31
0.0
 12
241.6427790433514
 22
258.6213262534382
 32
0.0
 13
241.6427790433514
 23
258.6213262534382
 33
0.0
  0
MTEXT
  5
303
330
2FA
100
AcDbEntity
  8
0
 62
     0
100
AcDbMText
 10
235.3177741360938
 20
258.6213262534382
 30
0.0
 40
0.18
 41
0.0
 71
     5
 72
     1
  1
\A1;12.6500
  0
POINT
  5
304
330
2FA
100
AcDbEntity
  8
DEFPOINTS
 62
     0
100
AcDbPoint
 10
228.9927692288362
 20
256.2179817485818
 30
0.0
  0
POINT
  5
305
330
2FA
100
AcDbEntity
  8
DEFPOINTS
 62
     0
100
AcDbPoint
 10
241.6427790433514
 20
256.2179817485818
 30
0.0
  0
POINT
  5
306
330
2FA
100
AcDbEntity
  8
DEFPOINTS
 62
     0
100
AcDbPoint
 10
241.6427790433514
 20
258.6213262534382
 30
0.0
  0
ENDBLK
  5
2FC
330
2FA
100
AcDbEntity
  8
0
100
AcDbBlockEnd
  0
BLOCK
  5
30C
330
30B
100
AcDbEntity
  8
0
100
AcDbBlockBegin
  2
*D10
 70
     1
 10
0.0
 20
0.0
 30
0.0
  3
*D10
  1
*D10
  0
LINE
  5
30E
330
30B
100
AcDbEntity
  8
0
 62
     0
100
AcDbLine
 10
228.9302692288362
 20
256.1668817485818
 30
0.0
 11
226.2546210923239
 21
256.1668817485818
 31
0.0
  0
LINE
  5
30F
330
30B
100
AcDbEntity
  8
0
 62
     0
100
AcDbLine
 10
228.9932705196139
 20
245.278820088704
 30
0.0
 11
226.2546210923239
 21
245.278820088704
 31
0.0
  0
LINE
  5
310
330
30B
100
AcDbEntity
  8
0
 62
     0
100
AcDbLine
 10
226.4346210923239
 20
255.9868817485818
 30
0.0
 11
226.4346210923239
 21
250.9047409186429
 31
0.0
  0
LINE
  5
311
330
30B
100
AcDbEntity
  8
0
 62
     0
100
AcDbLine
 10
226.4346210923239
 20
245.458820088704
 30
0.0
 11
226.4346210923239
 21
250.5409609186429
 31
0.0
  0
SOLID
  5
312
330
30B
100
AcDbEntity
  8
0
 62
     0
100
AcDbTrace
 10
226.4646210923239
 20
255.9868817485818
 30
0.0
 11
226.4046210923239
 21
255.9868817485818
 31
0.0
 12
226.4346210923239
 22
256.1668817485818
 32
0.0
 13
226.4346210923239
 23
256.1668817485818
 33
0.0
  0
SOLID
  5
313
330
30B
100
AcDbEntity
  8
0
 62
     0
100
AcDbTrace
 10
226.4046210923239
 20
245.458820088704
 30
0.0
 11
226.4646210923239
 21
245.458820088704
 31
0.0
 12
226.4346210923239
 22
245.278820088704
 32
0.0
 13
226.4346210923239
 23
245.278820088704
 33
0.0
  0
MTEXT
  5
314
330
30B
100
AcDbEntity
  8
0
 62
     0
100
AcDbMText
 10
226.4346210923239
 20
250.7228509186429
 30
0.0
 40
0.18
 41
0.0
 71
     5
 72
     1
  1
\A1;10.8881
  0
POINT
  5
315
330
30B
100
AcDbEntity
  8
DEFPOINTS
 62
     0
100
AcDbPoint
 10
228.9927692288362
 20
256.1668817485818
 30
0.0
  0
POINT
  5
316
330
30B
100
AcDbEntity
  8
DEFPOINTS
 62
     0
100
AcDbPoint
 10
229.0557705196139
 20
245.278820088704
 30
0.0
  0
POINT
  5
317
330
30B
100
AcDbEntity
  8
DEFPOINTS
 62
     0
100
AcDbPoint
 10
226.4346210923239
 20
245.278820088704
 30
0.0
  0
ENDBLK
  5
30D
330
30B
100
AcDbEntity
  8
0
100
AcDbBlockEnd
  0
ENDSEC
  0
SECTION
  2
ENTITIES
  0
ARC
  5
1D5
330
1F
100
AcDbEntity
  8
OBRYS
100
AcDbCircle
 10
186.6427790433514
 20
176.2654922027343
 30
0.0
 40
10.0
100
AcDbArc
 50
180.0
 51
270.0
  0
ARC
  5
1D6
330
1F
100
AcDbEntity
  8
OBRYS
100
AcDbCircle
 10
186.6427790433514
 20
296.2654922027343
 30
0.0
 40
10.0
100
AcDbArc
 50
90.0
 51
180.0
  0
ARC
  5
1D7
330
1F
100
AcDbEntity
  8
OBRYS
100
AcDbCircle
 10
231.6427790433515
 20
296.2654922027343
 30
0.0
 40
10.0
100
AcDbArc
 50
0.0
 51
90.0
  0
ARC
  5
1D8
330
1F
100
AcDbEntity
  8
OBRYS
100
AcDbCircle
 10
227.2075602072542
 20
180.7007110388324
 30
0.0
 40
15.10121547989082
100
AcDbArc
 50
287.0795676974986
 51
342.9204323025094
  0
LINE
  5
1D9
330
1F
100
AcDbEntity
  8
OBRYS
100
AcDbLine
 10
186.6427790433514
 20
166.2654922027354
 30
0.0
 11
231.6427790433515
 21
166.2654922027354
 31
0.0
  0
LINE
  5
1DA
330
1F
100
AcDbEntity
  8
OBRYS
100
AcDbLine
 10
186.6427790433514
 20
306.2654922027343
 30
0.0
 11
231.6427790433515
 21
306.2654922027343
 31
0.0
  0
ARC
  5
1DB
330
1F
100
AcDbEntity
  8
OBRYS
100
AcDbCircle
 10
181.6427790433514
 20
249.7654922027343
 30
0.0
 40
5.0
100
AcDbArc
 50
180.0
 51
270.0
  0
ARC
  5
1DC
330
1F
100
AcDbEntity
  8
OBRYS
100
AcDbCircle
 10
234.9893950023168
 20
251.418876243769
 30
0.0
 40
6.855741971854294
100
AcDbArc
 50
283.9554736620973
 51
346.0445263378967
  0
LINE
  5
1DD
330
1F
100
AcDbEntity
  8
OBRYS
100
AcDbLine
 10
176.6427790433514
 20
296.2654922027343
 30
0.0
 11
176.6427790433514
 21
176.2654922027343
 31
0.0
  0
LINE
  5
1DE
102
{ACAD_REACTORS
102
}
330
1F
100
AcDbEntity
  8
OBRYS
100
AcDbLine
 10
241.6427790433514
 20
296.2654922027343
 30
0.0
 11
241.6427790433515
 21
176.2654922027343
 31
0.0
  0
CIRCLE
  5
1DF
330
1F
100
AcDbEntity
  8
OBRYS
100
AcDbCircle
 10
209.1427790433514
 20
274.2654922027343
 30
0.0
 40
19.0
  0
CIRCLE
  5
1E0
330
1F
100
AcDbEntity
  8
OBRYS
100
AcDbCircle
 10
199.7427790433514
 20
274.2654922027343
 30
0.0
 40
2.75
  0
CIRCLE
  5
1E1
330
1F
100
AcDbEntity
  8
OBRYS
100
AcDbCircle
 10
209.1427790433514
 20
284.2654922027343
 30
0.0
 40
2.5
  0
CIRCLE
  5
1E2
330
1F
100
AcDbEntity
  8
OBRYS
100
AcDbCircle
 10
218.5427790433513
 20
274.2654922027343
 30
0.0
 40
2.75
  0
CIRCLE
  5
1E3
330
1F
100
AcDbEntity
  8
OBRYS
100
AcDbCircle
 10
209.1427790433514
 20
263.7654922027352
 30
0.0
 40
2.0
  0
LINE
  5
1E4
330
1F
100
AcDbEntity
  8
OBRYS
100
AcDbLine
 10
209.6427790433513
 20
265.7018542656417
 30
0.0
 11
209.6427790433514
 21
261.8290005296314
 31
0.0
  0
LINE
  5
1E5
330
1F
100
AcDbEntity
  8
OBRYS
100
AcDbLine
 10
208.6427790433518
 20
261.8290005296314
 30
0.0
 11
208.6427790433518
 21
265.701983875838
 31
0.0
  0
LINE
  5
1E6
330
1F
100
AcDbEntity
  8
OBRYS
100
AcDbLine
 10
185.1427790433514
 20
172.7655381648903
 30
0.0
 11
233.1427790433511
 21
172.7655381648903
 31
0.0
  0
LINE
  5
1E7
330
1F
100
AcDbEntity
  8
OBRYS
100
AcDbLine
 10
180.1427790433514
 20
177.7655381648905
 30
0.0
 11
180.1427790433547
 21
244.9957961956486
 31
0.0
  0
LINE
  5
1E8
330
1F
100
AcDbEntity
  8
OBRYS
100
AcDbLine
 10
238.1427790433511
 20
177.7655381648894
 30
0.0
 11
238.1427790433638
 21
245.3313999954118
 31
0.0
  0
ARC
  5
1E9
330
1F
100
AcDbEntity
  8
OBRYS
100
AcDbCircle
 10
209.1427790433514
 20
368.9960270914318
 30
0.0
 40
127.2378709297349
100
AcDbArc
 50
257.5181332268287
 51
282.481866773171
  0
LINE
  5
1EA
330
1F
100
AcDbEntity
  8
OBRYS
100
AcDbLine
 10
184.1427302098025
 20
238.7385032184663
 30
0.0
 11
184.1427302098025
 21
179.5655581959094
 31
0.0
  0
LINE
  5
1EB
330
1F
100
AcDbEntity
  8
OBRYS
100
AcDbLine
 10
189.1427302098025
 20
174.5655581959094
 30
0.0
 11
229.1427738361867
 21
174.5655581959094
 31
0.0
  0
LINE
  5
1EC
330
1F
100
AcDbEntity
  8
OBRYS
100
AcDbLine
 10
234.1427738361867
 20
179.5655581959094
 30
0.0
 11
234.1427738361867
 21
238.7385032184663
 31
0.0
  0
ARC
  5
1ED
330
1F
100
AcDbEntity
  8
OBRYS
100
AcDbCircle
 10
209.1427520229946
 20
400.255836482963
 30
0.0
 40
163.4406621240094
100
AcDbArc
 50
261.2014489390696
 51
278.7985510609303
  0
LINE
  5
1EE
330
1F
100
AcDbEntity
  8
OBRYS
100
AcDbLine
 10
344.1630440526039
 20
241.8313114846312
 30
0.0
 11
348.8630440526039
 21
241.8313114846312
 31
0.0
  0
LINE
  5
1EF
330
1F
100
AcDbEntity
  8
OBRYS
100
AcDbLine
 10
348.863044052604
 20
241.8313114846312
 30
0.0
 11
348.863044052604
 21
306.2654922027343
 31
0.0
  0
ARC
  5
1F0
330
1F
100
AcDbEntity
  8
OBRYS
100
AcDbCircle
 10
338.1272707128924
 20
172.3012655424463
 30
0.0
 40
6.124000834391959
100
AcDbArc
 50
279.7374393740046
 51
350.262560626003
  0
LINE
  5
1F1
330
1F
100
AcDbEntity
  8
OBRYS
100
AcDbLine
 10
344.1630440526039
 20
171.2654922027343
 30
0.0
 11
344.1630440526039
 21
241.8313114846312
 31
0.0
  0
LINE
  5
1F2
330
1F
100
AcDbEntity
  8
OBRYS
100
AcDbLine
 10
298.8622304678016
 20
171.2654922027343
 30
0.0
 11
298.8622304678016
 21
301.2654922027343
 31
0.0
  0
LINE
  5
1F3
330
1F
100
AcDbEntity
  8
OBRYS
100
AcDbLine
 10
298.8622304678016
 20
299.7654922027343
 30
0.0
 11
280.1622304678016
 21
299.7654922027343
 31
0.0
  0
LINE
  5
1F4
330
1F
100
AcDbEntity
  8
OBRYS
100
AcDbLine
 10
280.1622304678016
 20
299.7654922027343
 30
0.0
 11
280.1622304678016
 21
263.4654922027354
 31
0.0
  0
LINE
  5
1F5
330
1F
100
AcDbEntity
  8
OBRYS
100
AcDbLine
 10
280.1622304678016
 20
263.4654922027354
 30
0.0
 11
298.8622304678016
 21
263.4654922027354
 31
0.0
  0
LINE
  5
1F6
330
1F
100
AcDbEntity
  8
OBRYS
100
AcDbLine
 10
280.1622304678016
 20
284.1154922027337
 30
0.0
 11
270.1622304678016
 21
284.1154922027337
 31
0.0
  0
LINE
  5
1F7
330
1F
100
AcDbEntity
  8
OBRYS
100
AcDbLine
 10
270.1622304678016
 20
279.1154922027346
 30
0.0
 11
280.1622304678016
 21
279.1154922027346
 31
0.0
  0
LINE
  5
1F8
330
1F
100
AcDbEntity
  8
OBRYS
100
AcDbLine
 10
270.1622304678016
 20
284.1154922027337
 30
0.0
 11
265.1622304678016
 21
284.1154922027337
 31
0.0
  0
LINE
  5
1F9
330
1F
100
AcDbEntity
  8
OBRYS
100
AcDbLine
 10
270.1622304678016
 20
279.1154922027346
 30
0.0
 11
265.1622304678016
 21
279.1154922027346
 31
0.0
  0
ARC
  5
1FA
330
1F
100
AcDbEntity
  8
OBRYS
100
AcDbCircle
 10
267.6622304678016
 20
281.6154922027346
 30
0.0
 40
3.535533905932737
100
AcDbArc
 50
135.0000000000013
 51
224.9999999999908
  0
LINE
  5
1FB
330
1F
100
AcDbEntity
  8
OBRYS
100
AcDbLine
 10
320.1630304678017
 20
306.2654922027343
 30
0.0
 11
320.1630304678017
 21
166.2654922027354
 31
0.0
  0
LINE
  5
1FC
330
1F
100
AcDbEntity
  8
OBRYS
100
AcDbLine
 10
352.863044052604
 20
302.2654922027343
 30
0.0
 11
352.863044052604
 21
245.8313114846312
 31
0.0
  0
ARC
  5
1FD
330
1F
100
AcDbEntity
  8
OBRYS
100
AcDbCircle
 10
348.863044052604
 20
302.2654922027343
 30
0.0
 40
3.999999999999999
100
AcDbArc
 50
0.0
 51
90.0
  0
ARC
  5
1FE
330
1F
100
AcDbEntity
  8
OBRYS
100
AcDbCircle
 10
348.863044052604
 20
245.8313114846312
 30
0.0
 40
4.000000000000001
100
AcDbArc
 50
269.9999999999984
 51
0.0
  0
LINE
  5
1FF
330
1F
100
AcDbEntity
  8
OBRYS
100
AcDbLine
 10
303.8622304678016
 20
306.2654922027343
 30
0.0
 11
348.863044052604
 21
306.2654922027343
 31
0.0
  0
LINE
  5
200
330
1F
100
AcDbEntity
  8
OBRYS
100
AcDbLine
 10
303.8622304678017
 20
166.2654922027343
 30
0.0
 11
339.1630440526046
 21
166.2654922027345
 31
0.0
  0
ARC
  5
201
330
1F
100
AcDbEntity
  8
OBRYS
100
AcDbCircle
 10
303.8622304678016
 20
171.2654922027343
 30
0.0
 40
5.000000000000003
100
AcDbArc
 50
180.0
 51
270.0
  0
ARC
  5
202
330
1F
100
AcDbEntity
  8
OBRYS
100
AcDbCircle
 10
303.8622304678016
 20
301.2654922027343
 30
0.0
 40
5.0
100
AcDbArc
 50
90.0
 51
180.0
  0
LINE
  5
203
330
1F
100
AcDbEntity
  8
OBRYS
100
AcDbLine
 10
280.1622304678016
 20
290.3654922027337
 30
0.0
 11
298.8622304678016
 21
290.3654922027337
 31
0.0
  0
LINE
  5
204
330
1F
100
AcDbEntity
  8
OBRYS
100
AcDbLine
 10
280.1622304678016
 20
272.8654922027346
 30
0.0
 11
298.8622304678016
 21
272.8654922027346
 31
0.0
  0
ARC
  5
205
330
1F
100
AcDbEntity
  8
OBRYS
100
AcDbCircle
 10
185.1427790433514
 20
177.7655381648903
 30
0.0
 40
5.000000000000002
100
AcDbArc
 50
179.9999999999974
 51
270.0
  0
ARC
  5
206
330
1F
100
AcDbEntity
  8
OBRYS
100
AcDbCircle
 10
233.1427790433511
 20
177.7655381648903
 30
0.0
 40
4.999999999999998
100
AcDbArc
 50
270.0
 51
359.9999999999895
  0
ARC
  5
207
330
1F
100
AcDbEntity
  8
OBRYS
100
AcDbCircle
 10
189.1427302098025
 20
179.5655581959094
 30
0.0
 40
5.0
100
AcDbArc
 50
180.0
 51
270.0
  0
ARC
  5
208
330
1F
100
AcDbEntity
  8
OBRYS
100
AcDbCircle
 10
229.1427738361867
 20
179.5655581959094
 30
0.0
 40
5.0
100
AcDbArc
 50
270.0
 51
0.0
  0
DIMENSION
  5
209
330
1F
100
AcDbEntity
  8
KOTY
100
AcDbDimension
  2
*D4
 10
241.642779043352
 20
149.545946733373
 30
0.0
 11
209.1427790433517
 21
152.587946733373
 31
0.0
 70
    32
  3
STANDARD
100
AcDbAlignedDimension
 13
176.6427790433514
 23
176.2654922027343
 33
0.0
 14
241.642779043352
 24
176.2654922027361
 34
0.0
100
AcDbRotatedDimension
1001
ACAD
1000
DSTYLE
1002
{
1070
   271
1070
     0
1070
   278
1070
    44
1070
   140
1040
4.0
1070
    73
1070
     0
1070
    77
1070
     1
1070
   147
1040
1.0
1070
    41
1040
4.0
1002
}
  0
DIMENSION
  5
20A
330
1F
100
AcDbEntity
  8
KOTY
100
AcDbDimension
  2
*D5
 10
352.863044052604
 20
149.545946733373
 30
0.0
 11
325.8626372602028
 21
152.579946733373
 31
0.0
 70
    32
  3
STANDARD
100
AcDbAlignedDimension
 13
298.8622304678016
 23
171.2654922027343
 33
0.0
 14
352.863044052604
 24
245.8313114846312
 34
0.0
100
AcDbRotatedDimension
1001
ACAD
1000
DSTYLE
1002
{
1070
   271
1070
     0
1070
   278
1070
    44
1070
   140
1040
4.0
1070
    73
1070
     0
1070
    77
1070
     1
1070
   147
1040
1.0
1070
    41
1040
4.0
1002
}
  0
DIMENSION
  5
20B
330
1F
100
AcDbEntity
  8
KOTY
100
AcDbDimension
  2
*D6
 10
156.8830094252519
 20
166.2654922027354
 30
0.0
 11
153.8410094252519
 21
236.2654922027348
 31
0.0
 70
    32
  3
STANDARD
100
AcDbAlignedDimension
 13
186.6427790433514
 23
306.2654922027343
 33
0.0
 14
186.6427790433514
 24
166.2654922027354
 34
0.0
 50
90.0
100
AcDbRotatedDimension
1001
ACAD
1000
DSTYLE
1002
{
1070
   271
1070
     0
1070
   278
1070
    44
1070
   140
1040
4.0
1070
    73
1070
     0
1070
    77
1070
     1
1070
   147
1040
1.0
1070
    41
1040
4.0
1002
}
  0
LINE
  5
20C
330
1F
100
AcDbEntity
  8
OBRYS
100
AcDbLine
 10
190.4929124135112
 20
190.7653849670725
 30
0.0
 11
200.2931086443921
 21
190.7653063451016
 31
0.0
  0
LINE
  5
20D
330
1F
100
AcDbEntity
  8
OBRYS
100
AcDbLine
 10
189.1427794928418
 20
192.9154690594175
 30
0.0
 11
201.6429639515223
 21
192.9154690594175
 31
0.0
  0
LINE
  5
20E
330
1F
100
AcDbEntity
  8
OBRYS
100
AcDbLine
 10
216.9931124135113
 20
190.7653849670725
 30
0.0
 11
226.7933086443921
 21
190.7653063451016
 31
0.0
  0
LINE
  5
20F
330
1F
100
AcDbEntity
  8
OBRYS
100
AcDbLine
 10
215.642979492842
 20
192.9154690594175
 30
0.0
 11
228.1431639515224
 21
192.9154690594175
 31
0.0
  0
LINE
  5
210
330
1F
100
AcDbEntity
  8
OBRYS
100
AcDbLine
 10
190.4929124135112
 20
190.7653849670725
 30
0.0
 11
190.4929124135112
 21
182.4656331787834
 31
0.0
  0
LINE
  5
211
330
1F
100
AcDbEntity
  8
OBRYS
100
AcDbLine
 10
190.4929124135112
 20
182.4656331787834
 30
0.0
 11
192.0931592664097
 21
182.4656331787834
 31
0.0
  0
LINE
  5
212
330
1F
100
AcDbEntity
  8
OBRYS
100
AcDbLine
 10
192.0931592664097
 20
182.4656331787834
 30
0.0
 11
192.0931592664097
 21
180.7654785568124
 31
0.0
  0
LINE
  5
213
330
1F
100
AcDbEntity
  8
OBRYS
100
AcDbLine
 10
193.2923970048253
 20
180.7654785568124
 30
0.0
 11
193.2923970048253
 21
178.7656006276245
 31
0.0
  0
LINE
  5
214
330
1F
100
AcDbEntity
  8
OBRYS
100
AcDbLine
 10
201.4927577883655
 20
178.2653727631666
 30
0.0
 11
189.2926411464501
 21
178.2653727631666
 31
0.0
  0
LINE
  5
215
330
1F
100
AcDbEntity
  8
OBRYS
100
AcDbLine
 10
189.2926411464501
 20
178.2653727631666
 30
0.0
 11
189.2926411464501
 21
192.7652628962605
 31
0.0
  0
LINE
  5
216
330
1F
100
AcDbEntity
  8
OBRYS
100
AcDbLine
 10
192.0931592664097
 20
180.7654785568124
 30
0.0
 11
193.2923970048253
 21
180.7654785568124
 31
0.0
  0
LINE
  5
217
330
1F
100
AcDbEntity
  8
OBRYS
100
AcDbLine
 10
197.4930019299903
 20
179.4654717754535
 30
0.0
 11
193.2923970048253
 21
179.4654717754535
 31
0.0
  0
LINE
  5
218
330
1F
100
AcDbEntity
  8
OBRYS
100
AcDbLine
 10
198.692928687503
 20
181.5656019832615
 30
0.0
 11
192.0931592664097
 21
181.5656019832615
 31
0.0
  0
LINE
  5
219
330
1F
100
AcDbEntity
  8
OBRYS
100
AcDbLine
 10
200.292831030853
 20
182.4656331787834
 30
0.0
 11
200.2931594957713
 21
190.7653063446937
 31
0.0
  0
LINE
  5
21A
330
1F
100
AcDbEntity
  8
OBRYS
100
AcDbLine
 10
198.692928687503
 20
182.4656331787834
 30
0.0
 11
200.292831030853
 21
182.4656331787834
 31
0.0
  0
LINE
  5
21B
330
1F
100
AcDbEntity
  8
OBRYS
100
AcDbLine
 10
198.692928687503
 20
180.7654785568124
 30
0.0
 11
198.692928687503
 21
182.4656331787834
 31
0.0
  0
LINE
  5
21C
330
1F
100
AcDbEntity
  8
OBRYS
100
AcDbLine
 10
201.4927577883655
 20
178.2653727631666
 30
0.0
 11
201.4927577883655
 21
192.7652628962605
 31
0.0
  0
LINE
  5
21D
330
1F
100
AcDbEntity
  8
OBRYS
100
AcDbLine
 10
197.4930019299903
 20
180.7654785568124
 30
0.0
 11
198.692928687503
 21
180.7654785568124
 31
0.0
  0
LINE
  5
21E
330
1F
100
AcDbEntity
  8
OBRYS
100
AcDbLine
 10
197.4930019299903
 20
178.7656006276245
 30
0.0
 11
197.4930019299903
 21
180.7654785568124
 31
0.0
  0
LINE
  5
21F
330
1F
100
AcDbEntity
  8
OBRYS
100
AcDbLine
 10
197.4930019299903
 20
178.7656006276245
 30
0.0
 11
193.2923970048253
 21
178.7656006276245
 31
0.0
  0
LINE
  5
220
330
1F
100
AcDbEntity
  8
OBRYS
100
AcDbLine
 10
201.4927577883655
 20
192.7652628962605
 30
0.0
 11
189.2926411464501
 21
192.7652628962605
 31
0.0
  0
LINE
  5
221
330
1F
100
AcDbEntity
  8
OBRYS
100
AcDbLine
 10
189.1427794928418
 20
192.9154690594175
 30
0.0
 11
189.1427794928418
 21
178.1155111095586
 31
0.0
  0
LINE
  5
222
330
1F
100
AcDbEntity
  8
OBRYS
100
AcDbLine
 10
201.6429639515223
 20
178.1155111095586
 30
0.0
 11
201.6429639515223
 21
192.9154690594175
 31
0.0
  0
LINE
  5
223
330
1F
100
AcDbEntity
  8
OBRYS
100
AcDbLine
 10
189.1427794928418
 20
178.1155111095586
 30
0.0
 11
201.6429639515223
 21
178.1155111095586
 31
0.0
  0
LINE
  5
224
330
1F
100
AcDbEntity
  8
OBRYS
100
AcDbLine
 10
216.9930963695117
 20
190.7653849672012
 30
0.0
 11
216.9931124135113
 21
182.4656331787834
 31
0.0
  0
LINE
  5
225
330
1F
100
AcDbEntity
  8
OBRYS
100
AcDbLine
 10
216.9931124135113
 20
182.4656331787834
 30
0.0
 11
218.5933592664097
 21
182.4656331787834
 31
0.0
  0
LINE
  5
226
330
1F
100
AcDbEntity
  8
OBRYS
100
AcDbLine
 10
218.5933592664097
 20
182.4656331787834
 30
0.0
 11
218.5933592664097
 21
180.7654785568124
 31
0.0
  0
LINE
  5
227
330
1F
100
AcDbEntity
  8
OBRYS
100
AcDbLine
 10
219.7925970048253
 20
180.7654785568124
 30
0.0
 11
219.7925970048253
 21
178.7656006276245
 31
0.0
  0
LINE
  5
228
330
1F
100
AcDbEntity
  8
OBRYS
100
AcDbLine
 10
227.9929577883655
 20
178.2653727631666
 30
0.0
 11
215.7928411464502
 21
178.2653727631666
 31
0.0
  0
LINE
  5
229
330
1F
100
AcDbEntity
  8
OBRYS
100
AcDbLine
 10
215.7928411464502
 20
178.2653727631666
 30
0.0
 11
215.7928411464502
 21
192.7652628962605
 31
0.0
  0
LINE
  5
22A
330
1F
100
AcDbEntity
  8
OBRYS
100
AcDbLine
 10
218.5933592664097
 20
180.7654785568124
 30
0.0
 11
219.7925970048253
 21
180.7654785568124
 31
0.0
  0
LINE
  5
22B
330
1F
100
AcDbEntity
  8
OBRYS
100
AcDbLine
 10
223.9932019299904
 20
179.4654717754535
 30
0.0
 11
219.7925970048253
 21
179.4654717754535
 31
0.0
  0
LINE
  5
22C
330
1F
100
AcDbEntity
  8
OBRYS
100
AcDbLine
 10
225.1931286875031
 20
181.5656019832615
 30
0.0
 11
218.5933592664097
 21
181.5656019832615
 31
0.0
  0
LINE
  5
22D
330
1F
100
AcDbEntity
  8
OBRYS
100
AcDbLine
 10
226.7930310308532
 20
182.4656331787834
 30
0.0
 11
226.7933086443921
 21
190.7653063451016
 31
0.0
  0
LINE
  5
22E
330
1F
100
AcDbEntity
  8
OBRYS
100
AcDbLine
 10
225.1931286875031
 20
182.4656331787834
 30
0.0
 11
226.7930310308532
 21
182.4656331787834
 31
0.0
  0
LINE
  5
22F
330
1F
100
AcDbEntity
  8
OBRYS
100
AcDbLine
 10
225.1931286875031
 20
180.7654785568124
 30
0.0
 11
225.1931286875031
 21
182.4656331787834
 31
0.0
  0
LINE
  5
230
330
1F
100
AcDbEntity
  8
OBRYS
100
AcDbLine
 10
227.9929577883655
 20
178.2653727631666
 30
0.0
 11
227.9929577883655
 21
192.7652628962605
 31
0.0
  0
LINE
  5
231
330
1F
100
AcDbEntity
  8
OBRYS
100
AcDbLine
 10
223.9932019299904
 20
180.7654785568124
 30
0.0
 11
225.1931286875031
 21
180.7654785568124
 31
0.0
  0
LINE
  5
232
330
1F
100
AcDbEntity
  8
OBRYS
100
AcDbLine
 10
223.9932019299904
 20
178.7656006276245
 30
0.0
 11
223.9932019299904
 21
180.7654785568124
 31
0.0
  0
LINE
  5
233
330
1F
100
AcDbEntity
  8
OBRYS
100
AcDbLine
 10
223.9932019299904
 20
178.7656006276245
 30
0.0
 11
219.7925970048253
 21
178.7656006276245
 31
0.0
  0
LINE
  5
234
330
1F
100
AcDbEntity
  8
OBRYS
100
AcDbLine
 10
227.9929577883655
 20
192.7652628962605
 30
0.0
 11
215.7928411464502
 21
192.7652628962605
 31
0.0
  0
LINE
  5
235
330
1F
100
AcDbEntity
  8
OBRYS
100
AcDbLine
 10
215.642979492842
 20
192.9154690594175
 30
0.0
 11
215.642979492842
 21
178.1155111095586
 31
0.0
  0
LINE
  5
236
330
1F
100
AcDbEntity
  8
OBRYS
100
AcDbLine
 10
228.1431639515224
 20
178.1155111095586
 30
0.0
 11
228.1431639515224
 21
192.9154690594175
 31
0.0
  0
LINE
  5
237
330
1F
100
AcDbEntity
  8
OBRYS
100
AcDbLine
 10
215.642979492842
 20
178.1155111095586
 30
0.0
 11
228.1431639515224
 21
178.1155111095586
 31
0.0
  0
CIRCLE
  5
2F6
102
{ACAD_REACTORS
102
}
330
1F
100
AcDbEntity
  8
OBRYS
100
AcDbCircle
 10
228.9927692288362
 20
256.1668817485818
 30
0.0
 40
2.15
  0
VIEWPORT
  5
25C
330
58
100
AcDbEntity
 67
     1
  8
0
100
AcDbViewport
 10
0.0
 20
0.0
 30
0.0
 40
8.976
 41
6.936000000000001
 68
     1
 69
     1
1001
ACAD
1000
MVIEW
1002
{
1070
    16
1010
0.0
1020
0.0
1030
0.0
1010
0.0
1020
0.0
1030
1.0
1040
0.0
1040
6.936000000000001
1040
5.25
1040
4.0
1040
50.0
1040
0.0
1040
0.0
1070
     0
1070
   100
1070
     0
1070
     3
1070
     0
1070
     0
1070
     0
1070
     0
1040
0.0
1040
0.0
1040
0.0
1040
0.5
1040
0.5
1040
0.0
1040
0.0
1070
     0
1002
{
1002
}
1002
}
  0
VIEWPORT
  5
25D
330
58
100
AcDbEntity
 67
     1
  8
0
100
AcDbViewport
 10
5.25
 20
4.0
 30
0.0
 40
8.4
 41
6.4
 68
     2
 69
     2
1001
ACAD
1000
MVIEW
1002
{
1070
    16
1010
0.0
1020
0.0
1030
0.0
1010
0.0
1020
0.0
1030
1.0
1040
0.0
1040
160.5339363787485
1040
252.3270267389279
1040
227.5723861347203
1040
50.0
1040
0.0
1040
0.0
1070
     0
1070
   100
1070
     0
1070
     3
1070
     0
1070
     0
1070
     0
1070
     0
1040
0.0
1040
0.0
1040
0.0
1040
0.5
1040
0.5
1040
0.0
1040
0.0
1070
     0
1002
{
1002
}
1002
}
  0
ENDSEC
  0
SECTION
  2
OBJECTS
  0
DICTIONARY
  5
C
330
0
100
AcDbDictionary
  3
ACAD_DETAILVIEWSTYLE
350
122
  3
ACAD_GROUP
350
D
  3
ACAD_IMAGE_VARS
350
DC
  3
ACAD_MLINESTYLE
350
17
  3
ACAD_SCALELIST
350
260
  3
ACAD_SECTIONVIEWSTYLE
350
123
  3
ACDBVARIABLEDICTIONARY
350
66
  3
APPDATA
350
E1
  3
DWGPROPS
350
318
  0
DICTIONARY
  5
122
102
{ACAD_REACTORS
330
C
102
}
330
C
100
AcDbDictionary
  0
DICTIONARY
  5
D
102
{ACAD_REACTORS
330
C
102
}
330
C
100
AcDbDictionary
  0
RASTERVARIABLES
  5
DC
102
{ACAD_REACTORS
330
C
102
}
330
C
100
AcDbRasterVariables
 90
        0
 70
     1
 71
     1
 72
     5
  0
DICTIONARY
  5
17
102
{ACAD_REACTORS
330
C
102
}
330
C
100
AcDbDictionary
  3
STANDARD
350
18
  0
DICTIONARY
  5
260
102
{ACAD_REACTORS
330
C
102
}
330
C
100
AcDbDictionary
  0
DICTIONARY
  5
123
102
{ACAD_REACTORS
330
C
102
}
330
C
100
AcDbDictionary
  0
DICTIONARY
  5
66
102
{ACAD_REACTORS
330
C
102
}
330
C
100
AcDbDictionary
  3
DIMASSOC
350
67
  3
HIDETEXT
350
6B
  0
DICTIONARY
  5
E1
102
{ACAD_REACTORS
330
C
102
}
330
C
100
AcDbDictionary
  0
XRECORD
  5
318
102
{ACAD_REACTORS
330
C
102
}
330
C
100
AcDbXrecord
  1
DWGPROPS COOKIE
  2

  3

  4

  6

  7

  8
jaromir.podrabsky
  9

300
=
301
=
302
=
303
=
304
=
305
=
306
=
307
=
308
=
309
=
 40
0.0
 41
2452643.063384259
 42
2456764.287395949
  1

 90
        0
  0
MLINESTYLE
  5
18
102
{ACAD_REACTORS
330
17
102
}
330
17
100
AcDbMlineStyle
  2
STANDARD
 70
     0
  3

 62
   256
 51
90.0
 52
90.0
 71
     2
 49
0.5
 62
   256
  6
BYLAYER
 49
-0.5
 62
   256
  6
BYLAYER
  0
DICTIONARYVAR
  5
67
102
{ACAD_REACTORS
330
66
102
}
330
66
100
DictionaryVariables
280
     0
  1
2
  0
DICTIONARYVAR
  5
6B
102
{ACAD_REACTORS
330
66
102
}
330
66
100
DictionaryVariables
280
     0
  1
1
  0
ENDSEC
  0
EOF
