  0
SECTION
  2
HEADER
  9
$ACADVER
  1
AC1014
  9
$ACADMAINTVER
 70
     9
  9
$DWGCODEPAGE
  3
ANSI_1250
  9
$INSBASE
 10
0.0
 20
0.0
 30
0.0
  9
$EXTMIN
 10
157.3809205945083
 20
93.0010944728498
 30
0.0
  9
$EXTMAX
 10
358.4529552218605
 20
250.3873066088777
 30
0.0
  9
$LIMMIN
 10
0.0
 20
0.0
  9
$LIMMAX
 10
12.0
 20
9.0
  9
$ORTHOMODE
 70
     0
  9
$REGENMODE
 70
     1
  9
$FILLMODE
 70
     1
  9
$QTEXTMODE
 70
     0
  9
$MIRRTEXT
 70
     0
  9
$DRAGMODE
 70
     2
  9
$LTSCALE
 40
1.0
  9
$OSMODE
 70
 15359
  9
$ATTMODE
 70
     1
  9
$TEXTSIZE
 40
0.2
  9
$TRACEWID
 40
0.05
  9
$TEXTSTYLE
  7
STANDARD
  9
$CLAYER
  8
0
  9
$CELTYPE
  6
BYLAYER
  9
$CECOLOR
 62
   256
  9
$CELTSCALE
 40
1.0
  9
$DELOBJ
 70
     1
  9
$DISPSILH
 70
     0
  9
$DIMSCALE
 40
1.0
  9
$DIMASZ
 40
0.18
  9
$DIMEXO
 40
0.0625
  9
$DIMDLI
 40
0.38
  9
$DIMRND
 40
0.0
  9
$DIMDLE
 40
0.0
  9
$DIMEXE
 40
0.18
  9
$DIMTP
 40
0.0
  9
$DIMTM
 40
0.0
  9
$DIMTXT
 40
0.18
  9
$DIMCEN
 40
0.09
  9
$DIMTSZ
 40
0.0
  9
$DIMTOL
 70
     0
  9
$DIMLIM
 70
     0
  9
$DIMTIH
 70
     1
  9
$DIMTOH
 70
     1
  9
$DIMSE1
 70
     0
  9
$DIMSE2
 70
     0
  9
$DIMTAD
 70
     0
  9
$DIMZIN
 70
     0
  9
$DIMBLK
  1

  9
$DIMASO
 70
     1
  9
$DIMSHO
 70
     1
  9
$DIMPOST
  1

  9
$DIMAPOST
  1

  9
$DIMALT
 70
     0
  9
$DIMALTD
 70
     2
  9
$DIMALTF
 40
25.4
  9
$DIMLFAC
 40
1.0
  9
$DIMTOFL
 70
     0
  9
$DIMTVP
 40
0.0
  9
$DIMTIX
 70
     0
  9
$DIMSOXD
 70
     0
  9
$DIMSAH
 70
     0
  9
$DIMBLK1
  1

  9
$DIMBLK2
  1

  9
$DIMSTYLE
  2
STANDARD
  9
$DIMCLRD
 70
     0
  9
$DIMCLRE
 70
     0
  9
$DIMCLRT
 70
     0
  9
$DIMTFAC
 40
1.0
  9
$DIMGAP
 40
0.09
  9
$DIMJUST
 70
     0
  9
$DIMSD1
 70
     0
  9
$DIMSD2
 70
     0
  9
$DIMTOLJ
 70
     1
  9
$DIMTZIN
 70
     0
  9
$DIMALTZ
 70
     0
  9
$DIMALTTZ
 70
     0
  9
$DIMFIT
 70
     5
  9
$DIMUPT
 70
     0
  9
$DIMUNIT
 70
     2
  9
$DIMDEC
 70
     4
  9
$DIMTDEC
 70
     4
  9
$DIMALTU
 70
     2
  9
$DIMALTTD
 70
     2
  9
$DIMTXSTY
  7
STANDARD
  9
$DIMAUNIT
 70
     0
  9
$LUNITS
 70
     2
  9
$LUPREC
 70
     4
  9
$SKETCHINC
 40
0.1
  9
$FILLETRAD
 40
0.0
  9
$AUNITS
 70
     0
  9
$AUPREC
 70
     0
  9
$MENU
  1
.
  9
$ELEVATION
 40
0.0
  9
$PELEVATION
 40
0.0
  9
$THICKNESS
 40
0.0
  9
$LIMCHECK
 70
     0
  9
$CHAMFERA
 40
0.0
  9
$CHAMFERB
 40
0.0
  9
$CHAMFERC
 40
0.0
  9
$CHAMFERD
 40
0.0
  9
$SKPOLY
 70
     0
  9
$TDCREATE
 40
2452643.146717593
  9
$TDUPDATE
 40
2456765.533969595
  9
$TDINDWG
 40
0.0007241088
  9
$TDUSRTIMER
 40
2456765.450162986
  9
$USRTIMER
 70
     1
  9
$ANGBASE
 50
0.0
  9
$ANGDIR
 70
     0
  9
$PDMODE
 70
     0
  9
$PDSIZE
 40
0.0
  9
$PLINEWID
 40
0.0
  9
$COORDS
 70
     2
  9
$SPLFRAME
 70
     0
  9
$SPLINETYPE
 70
     6
  9
$SPLINESEGS
 70
     8
  9
$ATTDIA
 70
     0
  9
$ATTREQ
 70
     1
  9
$HANDLING
 70
     1
  9
$HANDSEED
  5
262
  9
$SURFTAB1
 70
     6
  9
$SURFTAB2
 70
     6
  9
$SURFTYPE
 70
     6
  9
$SURFU
 70
     6
  9
$SURFV
 70
     6
  9
$UCSNAME
  2

  9
$UCSORG
 10
0.0
 20
0.0
 30
0.0
  9
$UCSXDIR
 10
1.0
 20
0.0
 30
0.0
  9
$UCSYDIR
 10
0.0
 20
1.0
 30
0.0
  9
$PUCSNAME
  2

  9
$PUCSORG
 10
0.0
 20
0.0
 30
0.0
  9
$PUCSXDIR
 10
1.0
 20
0.0
 30
0.0
  9
$PUCSYDIR
 10
0.0
 20
1.0
 30
0.0
  9
$USERI1
 70
     0
  9
$USERI2
 70
     0
  9
$USERI3
 70
     0
  9
$USERI4
 70
     0
  9
$USERI5
 70
     0
  9
$USERR1
 40
0.0
  9
$USERR2
 40
0.0
  9
$USERR3
 40
0.0
  9
$USERR4
 40
0.0
  9
$USERR5
 40
0.0
  9
$WORLDVIEW
 70
     1
  9
$SHADEDGE
 70
     3
  9
$SHADEDIF
 70
    70
  9
$TILEMODE
 70
     0
  9
$MAXACTVP
 70
    64
  9
$PINSBASE
 10
0.0
 20
0.0
 30
0.0
  9
$PLIMCHECK
 70
     0
  9
$PEXTMIN
 10
1.05
 20
0.7999999999999998
 30
0.0
  9
$PEXTMAX
 10
9.45
 20
7.2
 30
0.0
  9
$PLIMMIN
 10
0.8500000000000006
 20
0.5999999999999998
  9
$PLIMMAX
 10
9.650000000000002
 20
7.4
  9
$UNITMODE
 70
     0
  9
$VISRETAIN
 70
     1
  9
$PLINEGEN
 70
     0
  9
$PSLTSCALE
 70
     1
  9
$TREEDEPTH
 70
  3020
  9
$PICKSTYLE
 70
     0
  9
$CMLSTYLE
  2
STANDARD
  9
$CMLJUST
 70
     0
  9
$CMLSCALE
 40
1.0
  9
$PROXYGRAPHICS
 70
     1
  9
$MEASUREMENT
 70
     0
  0
ENDSEC
  0
SECTION
  2
CLASSES
  0
CLASS
  1
ACDBDICTIONARYWDFLT
  2
AcDbDictionaryWithDefault
  3
ObjectDBX Classes
 90
        0
280
     0
281
     0
  0
CLASS
  1
ACDBPLACEHOLDER
  2
AcDbPlaceHolder
  3
ObjectDBX Classes
 90
        0
280
     0
281
     0
  0
CLASS
  1
LAYOUT
  2
AcDbLayout
  3
ObjectDBX Classes
 90
        0
280
     0
281
     0
  0
CLASS
  1
DICTIONARYVAR
  2
AcDbDictionaryVar
  3
ObjectDBX Classes
 90
        0
280
     0
281
     0
  0
CLASS
  1
TABLESTYLE
  2
AcDbTableStyle
  3
ObjectDBX Classes
 90
     4095
280
     0
281
     0
  0
CLASS
  1
MATERIAL
  2
AcDbMaterial
  3
ObjectDBX Classes
 90
     1153
280
     0
281
     0
  0
CLASS
  1
VISUALSTYLE
  2
AcDbVisualStyle
  3
ObjectDBX Classes
 90
     4095
280
     0
281
     0
  0
CLASS
  1
SCALE
  2
AcDbScale
  3
ObjectDBX Classes
 90
     1153
280
     0
281
     0
  0
CLASS
  1
CELLSTYLEMAP
  2
AcDbCellStyleMap
  3
ObjectDBX Classes
 90
     1152
280
     0
281
     0
  0
CLASS
  1
RASTERVARIABLES
  2
AcDbRasterVariables
  3
ISM
 90
        0
280
     0
281
     0
  0
CLASS
  1
SUN
  2
AcDbSun
  3
SCENEOE
 90
     1153
280
     0
281
     0
  0
CLASS
  1
XRECORD
  2
AcDbXrecord
  3
ObjectDBX Classes
 90
        0
280
     0
281
     0
  0
CLASS
  1
LWPOLYLINE
  2
AcDbPolyline
  3
ObjectDBX Classes
 90
        0
280
     0
281
     1
  0
CLASS
  1
HATCH
  2
AcDbHatch
  3
ObjectDBX Classes
 90
        0
280
     0
281
     1
  0
ENDSEC
  0
SECTION
  2
TABLES
  0
TABLE
  2
VPORT
  5
8
330
0
100
AcDbSymbolTable
 70
     1
  0
VPORT
  5
94
330
8
100
AcDbSymbolTableRecord
100
AcDbViewportTableRecord
  2
*ACTIVE
 70
     0
 10
0.0
 20
0.0
 11
1.0
 21
1.0
 12
287.4747565356417
 22
191.0765521446348
 13
0.0
 23
0.0
 14
0.5
 24
0.5
 15
0.5
 25
0.5
 16
0.0
 26
0.0
 36
1.0
 17
-27.66959356597988
 27
-19.53870295786203
 37
0.0
 40
200.1927766416754
 41
1.260923845193508
 42
50.0
 43
0.0
 44
0.0
 50
0.0
 51
0.0
 71
    16
 72
  1000
 73
     1
 74
     3
 75
     0
 76
     0
 77
     0
 78
     0
  0
ENDTAB
  0
TABLE
  2
LTYPE
  5
5
330
0
100
AcDbSymbolTable
 70
     1
  0
LTYPE
  5
14
330
5
100
AcDbSymbolTableRecord
100
AcDbLinetypeTableRecord
  2
BYBLOCK
 70
     0
  3

 72
    65
 73
     0
 40
0.0
  0
LTYPE
  5
15
330
5
100
AcDbSymbolTableRecord
100
AcDbLinetypeTableRecord
  2
BYLAYER
 70
     0
  3

 72
    65
 73
     0
 40
0.0
  0
LTYPE
  5
16
330
5
100
AcDbSymbolTableRecord
100
AcDbLinetypeTableRecord
  2
CONTINUOUS
 70
     0
  3
Solid line
 72
    65
 73
     0
 40
0.0
  0
ENDTAB
  0
TABLE
  2
LAYER
  5
2
330
0
100
AcDbSymbolTable
 70
     5
  0
LAYER
  5
10
330
2
100
AcDbSymbolTableRecord
100
AcDbLayerTableRecord
  2
0
 70
     0
 62
     7
  6
CONTINUOUS
  0
LAYER
  5
125
330
2
100
AcDbSymbolTableRecord
100
AcDbLayerTableRecord
  2
DEFPOINTS
 70
     0
 62
     7
  6
CONTINUOUS
  0
LAYER
  5
126
330
2
100
AcDbSymbolTableRecord
100
AcDbLayerTableRecord
  2
POMOCNÁ
 70
     0
 62
     5
  6
CONTINUOUS
  0
LAYER
  5
128
330
2
100
AcDbSymbolTableRecord
100
AcDbLayerTableRecord
  2
KOTY
 70
     0
 62
     1
  6
CONTINUOUS
1001
ACAECLAYERSTANDARD
1000

1000

  0
LAYER
  5
12A
330
2
100
AcDbSymbolTableRecord
100
AcDbLayerTableRecord
  2
OBRYS
 70
     0
 62
     5
  6
CONTINUOUS
  0
ENDTAB
  0
TABLE
  2
STYLE
  5
3
330
0
100
AcDbSymbolTable
 70
     1
  0
STYLE
  5
11
330
3
100
AcDbSymbolTableRecord
100
AcDbTextStyleTableRecord
  2
STANDARD
 70
     0
 40
0.0
 41
1.0
 50
0.0
 71
     0
 42
0.2
  3
arial.ttf
  4

1001
ACAD
1000
Arial
1071
        0
  0
ENDTAB
  0
TABLE
  2
VIEW
  5
6
330
0
100
AcDbSymbolTable
 70
     0
  0
ENDTAB
  0
TABLE
  2
UCS
  5
7
330
0
100
AcDbSymbolTable
 70
     0
  0
ENDTAB
  0
TABLE
  2
APPID
  5
9
330
0
100
AcDbSymbolTable
 70
     2
  0
APPID
  5
12
330
9
100
AcDbSymbolTableRecord
100
AcDbRegAppTableRecord
  2
ACAD
 70
     0
  0
APPID
  5
129
330
9
100
AcDbSymbolTableRecord
100
AcDbRegAppTableRecord
  2
ACAECLAYERSTANDARD
 70
     0
  0
ENDTAB
  0
TABLE
  2
DIMSTYLE
  5
A
330
0
100
AcDbSymbolTable
 70
     1
  0
DIMSTYLE
105
27
102
{ACAD_REACTORS
330
1E6
330
1E7
330
1E8
102
}
330
A
100
AcDbSymbolTableRecord
100
AcDbDimStyleTableRecord
  2
STANDARD
 70
     0
  3

  4

  5

  6

  7

 40
1.0
 41
0.18
 42
0.0625
 43
0.38
 44
0.18
 45
0.0
 46
0.0
 47
0.0
 48
0.0
140
0.18
141
0.09
142
0.0
143
25.4
144
1.0
145
0.0
146
1.0
147
0.09
 71
     0
 72
     0
 73
     1
 74
     1
 75
     0
 76
     0
 77
     0
 78
     0
170
     0
171
     2
172
     0
173
     0
174
     0
175
     0
176
     0
177
     0
178
     0
270
     2
271
     4
272
     4
273
     2
274
     2
340
11
275
     0
280
     0
281
     0
282
     0
283
     1
284
     0
285
     0
286
     0
287
     3
288
     0
  0
ENDTAB
  0
TABLE
  2
BLOCK_RECORD
  5
1
330
0
100
AcDbSymbolTable
 70
     7
  0
BLOCK_RECORD
  5
1F
330
1
100
AcDbSymbolTableRecord
100
AcDbBlockTableRecord
  2
*MODEL_SPACE
  0
BLOCK_RECORD
  5
58
330
1
100
AcDbSymbolTableRecord
100
AcDbBlockTableRecord
  2
*PAPER_SPACE
  0
BLOCK_RECORD
  5
5D
330
1
100
AcDbSymbolTableRecord
100
AcDbBlockTableRecord
  2
*PAPER_SPACE0
  0
BLOCK_RECORD
  5
17F
330
1
100
AcDbSymbolTableRecord
100
AcDbBlockTableRecord
  2
*D1
  0
BLOCK_RECORD
  5
18C
330
1
100
AcDbSymbolTableRecord
100
AcDbBlockTableRecord
  2
*D2
  0
BLOCK_RECORD
  5
199
330
1
100
AcDbSymbolTableRecord
100
AcDbBlockTableRecord
  2
*D3
  0
BLOCK_RECORD
  5
1F3
330
1
100
AcDbSymbolTableRecord
100
AcDbBlockTableRecord
  2
*D4
  0
BLOCK_RECORD
  5
1FF
330
1
100
AcDbSymbolTableRecord
100
AcDbBlockTableRecord
  2
*D5
  0
BLOCK_RECORD
  5
20B
330
1
100
AcDbSymbolTableRecord
100
AcDbBlockTableRecord
  2
*D6
  0
ENDTAB
  0
ENDSEC
  0
SECTION
  2
BLOCKS
  0
BLOCK
  5
20
330
1F
100
AcDbEntity
  8
0
100
AcDbBlockBegin
  2
*MODEL_SPACE
 70
     0
 10
0.0
 20
0.0
 30
0.0
  3
*MODEL_SPACE
  1

  0
ENDBLK
  5
21
330
1F
100
AcDbEntity
  8
0
100
AcDbBlockEnd
  0
BLOCK
  5
5A
330
58
100
AcDbEntity
 67
     1
  8
0
100
AcDbBlockBegin
  2
*PAPER_SPACE
 70
     0
 10
0.0
 20
0.0
 30
0.0
  3
*PAPER_SPACE
  1

  0
ENDBLK
  5
5B
330
58
100
AcDbEntity
 67
     1
  8
0
100
AcDbBlockEnd
  0
BLOCK
  5
5F
330
5D
100
AcDbEntity
  8
0
100
AcDbBlockBegin
  2
*PAPER_SPACE0
 70
     0
 10
0.0
 20
0.0
 30
0.0
  3
*PAPER_SPACE0
  1
*PAPER_SPACE0
  0
ENDBLK
  5
60
330
5D
100
AcDbEntity
  8
0
100
AcDbBlockEnd
  0
BLOCK
  5
180
330
17F
100
AcDbEntity
  8
0
100
AcDbBlockBegin
  2
*D1
 70
     1
 10
0.0
 20
0.0
 30
0.0
  3
*D1
  1
*D14
  0
LINE
  5
181
330
17F
100
AcDbEntity
  8
KOTY
 62
     0
100
AcDbLine
 10
24.85176961809951
 20
27.32371213602795
 30
0.0
 11
24.85176961809951
 21
0.4866666666666856
 31
0.0
  0
LINE
  5
182
330
17F
100
AcDbEntity
  8
KOTY
 62
     0
100
AcDbLine
 10
89.85176961810002
 20
27.32371213602966
 30
0.0
 11
89.85176961810002
 21
0.4866666666666856
 31
0.0
  0
LINE
  5
183
330
17F
100
AcDbEntity
  8
KOTY
 62
     0
100
AcDbLine
 10
28.85176961809951
 20
0.6666666666666856
 30
0.0
 11
85.85176961810002
 21
0.6666666666666856
 31
0.0
  0
SOLID
  5
184
330
17F
100
AcDbEntity
  8
KOTY
 62
     0
100
AcDbTrace
 10
28.85176961809951
 20
1.333333333333352
 30
0.0
 11
28.85176961809951
 21
0.000000000000019
 31
0.0
 12
24.85176961809951
 22
0.6666666666666856
 32
0.0
 13
24.85176961809951
 23
0.6666666666666856
 33
0.0
  0
SOLID
  5
185
330
17F
100
AcDbEntity
  8
KOTY
 62
     0
100
AcDbTrace
 10
85.85176961810002
 20
0.000000000000019
 30
0.0
 11
85.85176961810002
 21
1.333333333333352
 31
0.0
 12
89.85176961810002
 22
0.6666666666666856
 32
0.0
 13
89.85176961810002
 23
0.6666666666666856
 33
0.0
  0
MTEXT
  5
186
330
17F
100
AcDbEntity
  8
KOTY
 62
     0
100
AcDbMText
 10
57.35176961809977
 20
3.708666666666685
 30
0.0
 40
4.0
 41
0.0
 71
     5
 72
     1
  1
\A1;65
  0
POINT
  5
187
330
17F
100
AcDbEntity
  8
DEFPOINTS
 62
     0
100
AcDbPoint
 10
24.85176961809951
 20
27.38621213602795
 30
0.0
  0
POINT
  5
188
330
17F
100
AcDbEntity
  8
DEFPOINTS
 62
     0
100
AcDbPoint
 10
89.85176961810002
 20
27.38621213602966
 30
0.0
  0
POINT
  5
189
330
17F
100
AcDbEntity
  8
DEFPOINTS
 62
     0
100
AcDbPoint
 10
89.85176961810002
 20
0.6666666666666856
 30
0.0
  0
ENDBLK
  5
18A
330
17F
100
AcDbEntity
  8
0
100
AcDbBlockEnd
  0
BLOCK
  5
18D
330
18C
100
AcDbEntity
  8
0
100
AcDbBlockBegin
  2
*D2
 70
     1
 10
0.0
 20
0.0
 30
0.0
  3
*D2
  1
*D15
  0
LINE
  5
18E
330
18C
100
AcDbEntity
  8
KOTY
 62
     0
100
AcDbLine
 10
147.0712210425497
 20
22.32371213602795
 30
0.0
 11
147.0712210425497
 21
0.4866666666666856
 31
0.0
  0
LINE
  5
18F
330
18C
100
AcDbEntity
  8
KOTY
 62
     0
100
AcDbLine
 10
201.0720346273521
 20
96.8895314179249
 30
0.0
 11
201.0720346273521
 21
0.4866666666666856
 31
0.0
  0
LINE
  5
190
330
18C
100
AcDbEntity
  8
KOTY
 62
     0
100
AcDbLine
 10
151.0712210425497
 20
0.6666666666666856
 30
0.0
 11
197.0720346273521
 21
0.6666666666666856
 31
0.0
  0
SOLID
  5
191
330
18C
100
AcDbEntity
  8
KOTY
 62
     0
100
AcDbTrace
 10
151.0712210425497
 20
1.333333333333352
 30
0.0
 11
151.0712210425497
 21
0.000000000000019
 31
0.0
 12
147.0712210425497
 22
0.6666666666666856
 32
0.0
 13
147.0712210425497
 23
0.6666666666666856
 33
0.0
  0
SOLID
  5
192
330
18C
100
AcDbEntity
  8
KOTY
 62
     0
100
AcDbTrace
 10
197.0720346273521
 20
0.000000000000019
 30
0.0
 11
197.0720346273521
 21
1.333333333333352
 31
0.0
 12
201.0720346273521
 22
0.6666666666666856
 32
0.0
 13
201.0720346273521
 23
0.6666666666666856
 33
0.0
  0
MTEXT
  5
193
330
18C
100
AcDbEntity
  8
KOTY
 62
     0
100
AcDbMText
 10
174.0716278349509
 20
3.700666666666685
 30
0.0
 40
4.0
 41
0.0
 71
     5
 72
     1
  1
\A1;54
  0
POINT
  5
194
330
18C
100
AcDbEntity
  8
DEFPOINTS
 62
     0
100
AcDbPoint
 10
147.0712210425497
 20
22.38621213602795
 30
0.0
  0
POINT
  5
195
330
18C
100
AcDbEntity
  8
DEFPOINTS
 62
     0
100
AcDbPoint
 10
201.0720346273521
 20
96.9520314179249
 30
0.0
  0
POINT
  5
196
330
18C
100
AcDbEntity
  8
DEFPOINTS
 62
     0
100
AcDbPoint
 10
201.0720346273521
 20
0.6666666666666856
 30
0.0
  0
ENDBLK
  5
197
330
18C
100
AcDbEntity
  8
0
100
AcDbBlockEnd
  0
BLOCK
  5
19A
330
199
100
AcDbEntity
  8
0
100
AcDbBlockBegin
  2
*D3
 70
     1
 10
0.0
 20
0.0
 30
0.0
  3
*D3
  1
*D16
  0
LINE
  5
19B
330
199
100
AcDbEntity
  8
KOTY
 62
     0
100
AcDbLine
 10
34.78926961809951
 20
157.3862121360279
 30
0.0
 11
4.911999999999923
 21
157.3862121360279
 31
0.0
  0
LINE
  5
19C
330
199
100
AcDbEntity
  8
KOTY
 62
     0
100
AcDbLine
 10
34.78926961809951
 20
17.38621213602909
 30
0.0
 11
4.911999999999914
 21
17.38621213602909
 31
0.0
  0
LINE
  5
19D
330
199
100
AcDbEntity
  8
KOTY
 62
     0
100
AcDbLine
 10
5.091999999999922
 20
153.3862121360279
 30
0.0
 11
5.091999999999913
 21
21.38621213602909
 31
0.0
  0
SOLID
  5
19E
330
199
100
AcDbEntity
  8
KOTY
 62
     0
100
AcDbTrace
 10
5.758666666666589
 20
153.3862121360279
 30
0.0
 11
4.425333333333255
 21
153.3862121360279
 31
0.0
 12
5.091999999999922
 22
157.3862121360279
 32
0.0
 13
5.091999999999922
 23
157.3862121360279
 33
0.0
  0
SOLID
  5
19F
330
199
100
AcDbEntity
  8
KOTY
 62
     0
100
AcDbTrace
 10
4.425333333333247
 20
21.38621213602909
 30
0.0
 11
5.75866666666658
 21
21.38621213602909
 31
0.0
 12
5.091999999999913
 22
17.38621213602909
 32
0.0
 13
5.091999999999913
 23
17.38621213602909
 33
0.0
  0
MTEXT
  5
1A0
330
199
100
AcDbEntity
  8
KOTY
 62
     0
100
AcDbMText
 10
2.049999999999916
 20
87.38621213602849
 30
0.0
 40
4.0
 41
0.0
 71
     5
 72
     1
  1
\A1;140
 11
6.344131569286663E-17
 21
1.0
 31
0.0
  0
POINT
  5
1A1
330
199
100
AcDbEntity
  8
DEFPOINTS
 62
     0
100
AcDbPoint
 10
34.85176961809951
 20
157.3862121360279
 30
0.0
  0
POINT
  5
1A2
330
199
100
AcDbEntity
  8
DEFPOINTS
 62
     0
100
AcDbPoint
 10
34.85176961809951
 20
17.38621213602909
 30
0.0
  0
POINT
  5
1A3
330
199
100
AcDbEntity
  8
DEFPOINTS
 62
     0
100
AcDbPoint
 10
5.091999999999913
 20
17.38621213602909
 30
0.0
  0
ENDBLK
  5
1A4
330
199
100
AcDbEntity
  8
0
100
AcDbBlockEnd
  0
BLOCK
  5
1F4
330
1F3
100
AcDbEntity
  8
0
100
AcDbBlockBegin
  2
*D4
 70
     1
 10
0.0
 20
0.0
 30
0.0
  3
*D4
  1
*D5
  0
LINE
  5
1F6
330
1F3
100
AcDbEntity
  8
KOTY
 62
     0
100
AcDbLine
 10
182.2326902126079
 20
120.3248066088777
 30
0.0
 11
182.2326902126079
 21
93.48776113951646
 31
0.0
  0
LINE
  5
1F7
330
1F3
100
AcDbEntity
  8
KOTY
 62
     0
100
AcDbLine
 10
247.2326902126084
 20
120.3248066088794
 30
0.0
 11
247.2326902126084
 21
93.48776113951646
 31
0.0
  0
LINE
  5
1F8
330
1F3
100
AcDbEntity
  8
KOTY
 62
     0
100
AcDbLine
 10
186.2326902126079
 20
93.66776113951647
 30
0.0
 11
243.2326902126084
 21
93.66776113951647
 31
0.0
  0
SOLID
  5
1F9
330
1F3
100
AcDbEntity
  8
KOTY
 62
     0
100
AcDbTrace
 10
186.2326902126079
 20
94.33442780618314
 30
0.0
 11
186.2326902126079
 21
93.0010944728498
 31
0.0
 12
182.2326902126079
 22
93.66776113951647
 32
0.0
 13
182.2326902126079
 23
93.66776113951647
 33
0.0
  0
SOLID
  5
1FA
330
1F3
100
AcDbEntity
  8
KOTY
 62
     0
100
AcDbTrace
 10
243.2326902126084
 20
93.0010944728498
 30
0.0
 11
243.2326902126084
 21
94.33442780618314
 31
0.0
 12
247.2326902126084
 22
93.66776113951647
 32
0.0
 13
247.2326902126084
 23
93.66776113951647
 33
0.0
  0
MTEXT
  5
1FB
330
1F3
100
AcDbEntity
  8
KOTY
 62
     0
100
AcDbMText
 10
214.7326902126082
 20
96.70976113951647
 30
0.0
 40
4.0
 41
0.0
 71
     5
 72
     1
  1
\A1;65
  0
POINT
  5
1FC
330
1F3
100
AcDbEntity
  8
DEFPOINTS
 62
     0
100
AcDbPoint
 10
182.2326902126079
 20
120.3873066088777
 30
0.0
  0
POINT
  5
1FD
330
1F3
100
AcDbEntity
  8
DEFPOINTS
 62
     0
100
AcDbPoint
 10
247.2326902126084
 20
120.3873066088794
 30
0.0
  0
POINT
  5
1FE
330
1F3
100
AcDbEntity
  8
DEFPOINTS
 62
     0
100
AcDbPoint
 10
247.2326902126084
 20
93.66776113951647
 30
0.0
  0
ENDBLK
  5
1F5
330
1F3
100
AcDbEntity
  8
0
100
AcDbBlockEnd
  0
BLOCK
  5
200
330
1FF
100
AcDbEntity
  8
0
100
AcDbBlockBegin
  2
*D5
 70
     1
 10
0.0
 20
0.0
 30
0.0
  3
*D5
  1
*D6
  0
LINE
  5
202
330
1FF
100
AcDbEntity
  8
KOTY
 62
     0
100
AcDbLine
 10
304.4521416370581
 20
115.3248066088777
 30
0.0
 11
304.4521416370581
 21
93.48776113951646
 31
0.0
  0
LINE
  5
203
330
1FF
100
AcDbEntity
  8
KOTY
 62
     0
100
AcDbLine
 10
358.4529552218605
 20
189.8906258907747
 30
0.0
 11
358.4529552218605
 21
93.48776113951646
 31
0.0
  0
LINE
  5
204
330
1FF
100
AcDbEntity
  8
KOTY
 62
     0
100
AcDbLine
 10
308.4521416370581
 20
93.66776113951647
 30
0.0
 11
354.4529552218605
 21
93.66776113951647
 31
0.0
  0
SOLID
  5
205
330
1FF
100
AcDbEntity
  8
KOTY
 62
     0
100
AcDbTrace
 10
308.4521416370581
 20
94.33442780618314
 30
0.0
 11
308.4521416370581
 21
93.0010944728498
 31
0.0
 12
304.4521416370581
 22
93.66776113951647
 32
0.0
 13
304.4521416370581
 23
93.66776113951647
 33
0.0
  0
SOLID
  5
206
330
1FF
100
AcDbEntity
  8
KOTY
 62
     0
100
AcDbTrace
 10
354.4529552218605
 20
93.0010944728498
 30
0.0
 11
354.4529552218605
 21
94.33442780618314
 31
0.0
 12
358.4529552218605
 22
93.66776113951647
 32
0.0
 13
358.4529552218605
 23
93.66776113951647
 33
0.0
  0
MTEXT
  5
207
330
1FF
100
AcDbEntity
  8
KOTY
 62
     0
100
AcDbMText
 10
331.4525484294593
 20
96.70176113951648
 30
0.0
 40
4.0
 41
0.0
 71
     5
 72
     1
  1
\A1;54
  0
POINT
  5
208
330
1FF
100
AcDbEntity
  8
DEFPOINTS
 62
     0
100
AcDbPoint
 10
304.4521416370581
 20
115.3873066088777
 30
0.0
  0
POINT
  5
209
330
1FF
100
AcDbEntity
  8
DEFPOINTS
 62
     0
100
AcDbPoint
 10
358.4529552218605
 20
189.9531258907747
 30
0.0
  0
POINT
  5
20A
330
1FF
100
AcDbEntity
  8
DEFPOINTS
 62
     0
100
AcDbPoint
 10
358.4529552218605
 20
93.66776113951647
 30
0.0
  0
ENDBLK
  5
201
330
1FF
100
AcDbEntity
  8
0
100
AcDbBlockEnd
  0
BLOCK
  5
20C
330
20B
100
AcDbEntity
  8
0
100
AcDbBlockBegin
  2
*D6
 70
     1
 10
0.0
 20
0.0
 30
0.0
  3
*D6
  1
*D7
  0
LINE
  5
20E
330
20B
100
AcDbEntity
  8
KOTY
 62
     0
100
AcDbLine
 10
192.1701902126079
 20
250.3873066088777
 30
0.0
 11
162.2929205945083
 21
250.3873066088777
 31
0.0
  0
LINE
  5
20F
330
20B
100
AcDbEntity
  8
KOTY
 62
     0
100
AcDbLine
 10
192.1701902126079
 20
110.3873066088789
 30
0.0
 11
162.2929205945083
 21
110.3873066088789
 31
0.0
  0
LINE
  5
210
330
20B
100
AcDbEntity
  8
KOTY
 62
     0
100
AcDbLine
 10
162.4729205945083
 20
246.3873066088777
 30
0.0
 11
162.4729205945083
 21
114.3873066088789
 31
0.0
  0
SOLID
  5
211
330
20B
100
AcDbEntity
  8
KOTY
 62
     0
100
AcDbTrace
 10
163.139587261175
 20
246.3873066088777
 30
0.0
 11
161.8062539278417
 21
246.3873066088777
 31
0.0
 12
162.4729205945083
 22
250.3873066088777
 32
0.0
 13
162.4729205945083
 23
250.3873066088777
 33
0.0
  0
SOLID
  5
212
330
20B
100
AcDbEntity
  8
KOTY
 62
     0
100
AcDbTrace
 10
161.8062539278417
 20
114.3873066088789
 30
0.0
 11
163.139587261175
 21
114.3873066088789
 31
0.0
 12
162.4729205945083
 22
110.3873066088789
 32
0.0
 13
162.4729205945083
 23
110.3873066088789
 33
0.0
  0
MTEXT
  5
213
330
20B
100
AcDbEntity
  8
KOTY
 62
     0
100
AcDbMText
 10
159.4309205945083
 20
180.3873066088783
 30
0.0
 40
4.0
 41
0.0
 71
     5
 72
     1
  1
\A1;140
 11
0.0
 21
1.0
 31
0.0
  0
POINT
  5
214
330
20B
100
AcDbEntity
  8
DEFPOINTS
 62
     0
100
AcDbPoint
 10
192.2326902126079
 20
250.3873066088777
 30
0.0
  0
POINT
  5
215
330
20B
100
AcDbEntity
  8
DEFPOINTS
 62
     0
100
AcDbPoint
 10
192.2326902126079
 20
110.3873066088789
 30
0.0
  0
POINT
  5
216
330
20B
100
AcDbEntity
  8
DEFPOINTS
 62
     0
100
AcDbPoint
 10
162.4729205945083
 20
110.3873066088789
 30
0.0
  0
ENDBLK
  5
20D
330
20B
100
AcDbEntity
  8
0
100
AcDbBlockEnd
  0
ENDSEC
  0
SECTION
  2
ENTITIES
  0
ARC
  5
1B2
330
1F
100
AcDbEntity
  8
OBRYS
100
AcDbCircle
 10
192.2326902126079
 20
120.3873066088777
 30
0.0
 40
10.0
100
AcDbArc
 50
180.0
 51
270.0
  0
ARC
  5
1B3
330
1F
100
AcDbEntity
  8
OBRYS
100
AcDbCircle
 10
192.2326902126079
 20
240.3873066088777
 30
0.0
 40
10.0
100
AcDbArc
 50
90.0
 51
180.0
  0
ARC
  5
1B4
330
1F
100
AcDbEntity
  8
OBRYS
100
AcDbCircle
 10
237.232690212608
 20
240.3873066088777
 30
0.0
 40
10.0
100
AcDbArc
 50
0.0
 51
90.0
  0
ARC
  5
1B5
330
1F
100
AcDbEntity
  8
OBRYS
100
AcDbCircle
 10
232.7974713765107
 20
124.8225254449758
 30
0.0
 40
15.10121547989082
100
AcDbArc
 50
287.0795676974984
 51
342.9204323025094
  0
LINE
  5
1B6
330
1F
100
AcDbEntity
  8
OBRYS
100
AcDbLine
 10
192.2326902126079
 20
110.3873066088789
 30
0.0
 11
237.232690212608
 21
110.3873066088789
 31
0.0
  0
LINE
  5
1B7
330
1F
100
AcDbEntity
  8
OBRYS
100
AcDbLine
 10
192.2326902126079
 20
250.3873066088777
 30
0.0
 11
237.232690212608
 21
250.3873066088777
 31
0.0
  0
ARC
  5
1B8
330
1F
100
AcDbEntity
  8
OBRYS
100
AcDbCircle
 10
187.2326902126079
 20
193.8873066088777
 30
0.0
 40
5.0
100
AcDbArc
 50
180.0
 51
270.0
  0
ARC
  5
1B9
330
1F
100
AcDbEntity
  8
OBRYS
100
AcDbCircle
 10
240.5793061715732
 20
195.5406906499128
 30
0.0
 40
6.855741971854294
100
AcDbArc
 50
283.9554736620973
 51
346.0445263378954
  0
LINE
  5
1BA
330
1F
100
AcDbEntity
  8
OBRYS
100
AcDbLine
 10
182.2326902126079
 20
240.3873066088777
 30
0.0
 11
182.2326902126079
 21
120.3873066088777
 31
0.0
  0
LINE
  5
1BB
330
1F
100
AcDbEntity
  8
OBRYS
100
AcDbLine
 10
247.2326902126079
 20
240.3873066088777
 30
0.0
 11
247.232690212608
 21
120.3873066088777
 31
0.0
  0
CIRCLE
  5
1BC
330
1F
100
AcDbEntity
  8
OBRYS
100
AcDbCircle
 10
214.7326902126079
 20
218.3873066088777
 30
0.0
 40
19.0
  0
CIRCLE
  5
1BD
330
1F
100
AcDbEntity
  8
OBRYS
100
AcDbCircle
 10
205.3326902126079
 20
218.3873066088777
 30
0.0
 40
2.75
  0
CIRCLE
  5
1BE
330
1F
100
AcDbEntity
  8
OBRYS
100
AcDbCircle
 10
214.7326902126079
 20
228.3873066088777
 30
0.0
 40
2.5
  0
CIRCLE
  5
1BF
330
1F
100
AcDbEntity
  8
OBRYS
100
AcDbCircle
 10
224.1326902126078
 20
218.3873066088777
 30
0.0
 40
2.75
  0
CIRCLE
  5
1C0
330
1F
100
AcDbEntity
  8
OBRYS
100
AcDbCircle
 10
214.7326902126079
 20
207.8873066088789
 30
0.0
 40
2.0
  0
LINE
  5
1C1
330
1F
100
AcDbEntity
  8
OBRYS
100
AcDbLine
 10
215.2326902126078
 20
209.8236686717852
 30
0.0
 11
215.2326902126079
 21
205.9508149357749
 31
0.0
  0
LINE
  5
1C2
330
1F
100
AcDbEntity
  8
OBRYS
100
AcDbLine
 10
214.2326902126082
 20
205.9508149357749
 30
0.0
 11
214.2326902126082
 21
209.8237982819817
 31
0.0
  0
LINE
  5
1C3
330
1F
100
AcDbEntity
  8
OBRYS
100
AcDbLine
 10
190.7326902126079
 20
116.8873525710338
 30
0.0
 11
238.7326902126075
 21
116.8873525710338
 31
0.0
  0
LINE
  5
1C4
330
1F
100
AcDbEntity
  8
OBRYS
100
AcDbLine
 10
185.7326902126079
 20
121.8873525710339
 30
0.0
 11
185.7326902126112
 21
189.1176106017921
 31
0.0
  0
LINE
  5
1C5
330
1F
100
AcDbEntity
  8
OBRYS
100
AcDbLine
 10
243.7326902126075
 20
121.8873525710327
 30
0.0
 11
243.7326902126203
 21
189.4532144015554
 31
0.0
  0
ARC
  5
1C6
330
1F
100
AcDbEntity
  8
OBRYS
100
AcDbCircle
 10
214.7326902126079
 20
313.1178414975755
 30
0.0
 40
127.2378709297349
100
AcDbArc
 50
257.5181332268288
 51
282.481866773171
  0
LINE
  5
1C7
330
1F
100
AcDbEntity
  8
OBRYS
100
AcDbLine
 10
189.732641379059
 20
182.8603176246096
 30
0.0
 11
189.732641379059
 21
123.6873726020528
 31
0.0
  0
LINE
  5
1C8
330
1F
100
AcDbEntity
  8
OBRYS
100
AcDbLine
 10
194.732641379059
 20
118.6873726020528
 30
0.0
 11
234.7326850054432
 21
118.6873726020528
 31
0.0
  0
LINE
  5
1C9
330
1F
100
AcDbEntity
  8
OBRYS
100
AcDbLine
 10
239.7326850054432
 20
123.6873726020528
 30
0.0
 11
239.7326850054432
 21
182.8603176246096
 31
0.0
  0
ARC
  5
1CA
330
1F
100
AcDbEntity
  8
OBRYS
100
AcDbCircle
 10
214.7326631922511
 20
344.3776508891067
 30
0.0
 40
163.4406621240094
100
AcDbArc
 50
261.2014489390696
 51
278.7985510609303
  0
LINE
  5
1CB
330
1F
100
AcDbEntity
  8
OBRYS
100
AcDbLine
 10
349.7529552218604
 20
185.9531258907747
 30
0.0
 11
354.4529552218603
 21
185.9531258907747
 31
0.0
  0
LINE
  5
1CC
330
1F
100
AcDbEntity
  8
OBRYS
100
AcDbLine
 10
354.4529552218605
 20
185.9531258907747
 30
0.0
 11
354.4529552218605
 21
250.3873066088777
 31
0.0
  0
ARC
  5
1CD
330
1F
100
AcDbEntity
  8
OBRYS
100
AcDbCircle
 10
343.7171818821488
 20
116.4230799485896
 30
0.0
 40
6.124000834391959
100
AcDbArc
 50
279.7374393740046
 51
350.262560626003
  0
LINE
  5
1CE
330
1F
100
AcDbEntity
  8
OBRYS
100
AcDbLine
 10
349.7529552218604
 20
115.3873066088777
 30
0.0
 11
349.7529552218604
 21
185.9531258907747
 31
0.0
  0
LINE
  5
1CF
330
1F
100
AcDbEntity
  8
OBRYS
100
AcDbLine
 10
304.4521416370581
 20
115.3873066088777
 30
0.0
 11
304.4521416370581
 21
245.3873066088777
 31
0.0
  0
LINE
  5
1D0
330
1F
100
AcDbEntity
  8
OBRYS
100
AcDbLine
 10
304.4521416370581
 20
243.8873066088777
 30
0.0
 11
285.752141637058
 21
243.8873066088777
 31
0.0
  0
LINE
  5
1D1
330
1F
100
AcDbEntity
  8
OBRYS
100
AcDbLine
 10
285.752141637058
 20
243.8873066088777
 30
0.0
 11
285.752141637058
 21
207.587306608879
 31
0.0
  0
LINE
  5
1D2
330
1F
100
AcDbEntity
  8
OBRYS
100
AcDbLine
 10
285.752141637058
 20
207.587306608879
 30
0.0
 11
304.4521416370581
 21
207.587306608879
 31
0.0
  0
LINE
  5
1D3
330
1F
100
AcDbEntity
  8
OBRYS
100
AcDbLine
 10
285.752141637058
 20
228.2373066088772
 30
0.0
 11
275.752141637058
 21
228.2373066088772
 31
0.0
  0
LINE
  5
1D4
330
1F
100
AcDbEntity
  8
OBRYS
100
AcDbLine
 10
275.752141637058
 20
223.2373066088784
 30
0.0
 11
285.752141637058
 21
223.2373066088784
 31
0.0
  0
LINE
  5
1D5
330
1F
100
AcDbEntity
  8
OBRYS
100
AcDbLine
 10
275.752141637058
 20
228.2373066088772
 30
0.0
 11
270.752141637058
 21
228.2373066088772
 31
0.0
  0
LINE
  5
1D6
330
1F
100
AcDbEntity
  8
OBRYS
100
AcDbLine
 10
275.752141637058
 20
223.2373066088784
 30
0.0
 11
270.752141637058
 21
223.2373066088784
 31
0.0
  0
ARC
  5
1D7
330
1F
100
AcDbEntity
  8
OBRYS
100
AcDbCircle
 10
273.252141637058
 20
225.7373066088784
 30
0.0
 40
3.535533905932737
100
AcDbArc
 50
135.0000000000052
 51
224.9999999999948
  0
LINE
  5
1D8
330
1F
100
AcDbEntity
  8
OBRYS
100
AcDbLine
 10
325.7529416370582
 20
250.3873066088777
 30
0.0
 11
325.7529416370582
 21
110.3873066088789
 31
0.0
  0
LINE
  5
1D9
330
1F
100
AcDbEntity
  8
OBRYS
100
AcDbLine
 10
358.4529552218605
 20
246.3873066088777
 30
0.0
 11
358.4529552218605
 21
189.9531258907747
 31
0.0
  0
ARC
  5
1DA
330
1F
100
AcDbEntity
  8
OBRYS
100
AcDbCircle
 10
354.4529552218605
 20
246.3873066088777
 30
0.0
 40
3.999999999999999
100
AcDbArc
 50
0.0
 51
90.0
  0
ARC
  5
1DB
330
1F
100
AcDbEntity
  8
OBRYS
100
AcDbCircle
 10
354.4529552218605
 20
189.9531258907747
 30
0.0
 40
4.000000000000001
100
AcDbArc
 50
269.9999999999984
 51
0.0
  0
LINE
  5
1DC
330
1F
100
AcDbEntity
  8
OBRYS
100
AcDbLine
 10
309.4521416370581
 20
250.3873066088777
 30
0.0
 11
354.4529552218605
 21
250.3873066088777
 31
0.0
  0
LINE
  5
1DD
330
1F
100
AcDbEntity
  8
OBRYS
100
AcDbLine
 10
309.4521416370582
 20
110.3873066088777
 30
0.0
 11
344.7529552218611
 21
110.3873066088779
 31
0.0
  0
ARC
  5
1DE
330
1F
100
AcDbEntity
  8
OBRYS
100
AcDbCircle
 10
309.4521416370581
 20
115.3873066088777
 30
0.0
 40
5.000000000000003
100
AcDbArc
 50
180.0
 51
270.0
  0
ARC
  5
1DF
330
1F
100
AcDbEntity
  8
OBRYS
100
AcDbCircle
 10
309.4521416370581
 20
245.3873066088777
 30
0.0
 40
5.0
100
AcDbArc
 50
90.0
 51
180.0
  0
LINE
  5
1E0
330
1F
100
AcDbEntity
  8
OBRYS
100
AcDbLine
 10
285.752141637058
 20
234.4873066088772
 30
0.0
 11
304.4521416370581
 21
234.4873066088772
 31
0.0
  0
LINE
  5
1E1
330
1F
100
AcDbEntity
  8
OBRYS
100
AcDbLine
 10
285.752141637058
 20
216.9873066088784
 30
0.0
 11
304.4521416370581
 21
216.9873066088784
 31
0.0
  0
ARC
  5
1E2
330
1F
100
AcDbEntity
  8
OBRYS
100
AcDbCircle
 10
190.7326902126079
 20
121.8873525710338
 30
0.0
 40
5.000000000000002
100
AcDbArc
 50
179.9999999999974
 51
270.0
  0
ARC
  5
1E3
330
1F
100
AcDbEntity
  8
OBRYS
100
AcDbCircle
 10
238.7326902126075
 20
121.8873525710338
 30
0.0
 40
4.999999999999998
100
AcDbArc
 50
270.0
 51
359.9999999999895
  0
ARC
  5
1E4
330
1F
100
AcDbEntity
  8
OBRYS
100
AcDbCircle
 10
194.732641379059
 20
123.6873726020528
 30
0.0
 40
5.0
100
AcDbArc
 50
180.0
 51
270.0
  0
ARC
  5
1E5
330
1F
100
AcDbEntity
  8
OBRYS
100
AcDbCircle
 10
234.7326850054432
 20
123.6873726020528
 30
0.0
 40
5.0
100
AcDbArc
 50
270.0
 51
0.0
  0
DIMENSION
  5
1E6
330
1F
100
AcDbEntity
  8
KOTY
100
AcDbDimension
  2
*D4
 10
247.2326902126084
 20
93.66776113951647
 30
0.0
 11
214.7326902126082
 21
96.70976113951647
 31
0.0
 70
    32
  3
STANDARD
100
AcDbAlignedDimension
 13
182.2326902126079
 23
120.3873066088777
 33
0.0
 14
247.2326902126084
 24
120.3873066088794
 34
0.0
100
AcDbRotatedDimension
1001
ACAD
1000
DSTYLE
1002
{
1070
   271
1070
     0
1070
   278
1070
    44
1070
   140
1040
4.0
1070
    73
1070
     0
1070
    77
1070
     1
1070
   147
1040
1.0
1070
    41
1040
4.0
1002
}
  0
DIMENSION
  5
1E7
330
1F
100
AcDbEntity
  8
KOTY
100
AcDbDimension
  2
*D5
 10
358.4529552218605
 20
93.66776113951647
 30
0.0
 11
331.4525484294593
 21
96.70176113951648
 31
0.0
 70
    32
  3
STANDARD
100
AcDbAlignedDimension
 13
304.4521416370581
 23
115.3873066088777
 33
0.0
 14
358.4529552218605
 24
189.9531258907747
 34
0.0
100
AcDbRotatedDimension
1001
ACAD
1000
DSTYLE
1002
{
1070
   271
1070
     0
1070
   278
1070
    44
1070
   140
1040
4.0
1070
    73
1070
     0
1070
    77
1070
     1
1070
   147
1040
1.0
1070
    41
1040
4.0
1002
}
  0
DIMENSION
  5
1E8
330
1F
100
AcDbEntity
  8
KOTY
100
AcDbDimension
  2
*D6
 10
162.4729205945083
 20
110.3873066088789
 30
0.0
 11
159.4309205945083
 21
180.3873066088783
 31
0.0
 70
    32
  3
STANDARD
100
AcDbAlignedDimension
 13
192.2326902126079
 23
250.3873066088777
 33
0.0
 14
192.2326902126079
 24
110.3873066088789
 34
0.0
 50
90.0
100
AcDbRotatedDimension
1001
ACAD
1000
DSTYLE
1002
{
1070
   271
1070
     0
1070
   278
1070
    44
1070
   140
1040
4.0
1070
    73
1070
     0
1070
    77
1070
     1
1070
   147
1040
1.0
1070
    41
1040
4.0
1002
}
  0
CIRCLE
  5
1E9
330
1F
100
AcDbEntity
  8
OBRYS
100
AcDbCircle
 10
200.9827828914386
 20
147.6373014467239
 30
0.0
 40
2.0
  0
CIRCLE
  5
1EA
330
1F
100
AcDbEntity
  8
OBRYS
100
AcDbCircle
 10
227.4829828914386
 20
147.6373014467239
 30
0.0
 40
2.0
  0
CIRCLE
  5
1EB
330
1F
100
AcDbEntity
  8
POMOCNÁ
100
AcDbCircle
 10
200.9827828914385
 20
129.6373044906314
 30
0.0
 40
5.0
  0
CIRCLE
  5
1EC
330
1F
100
AcDbEntity
  8
POMOCNÁ
100
AcDbCircle
 10
200.9827828914385
 20
129.6373044906314
 30
0.0
 40
1.0
  0
CIRCLE
  5
1ED
330
1F
100
AcDbEntity
  8
POMOCNÁ
100
AcDbCircle
 10
200.9827828914385
 20
129.6373044906314
 30
0.0
 40
3.0
  0
CIRCLE
  5
1EE
330
1F
100
AcDbEntity
  8
POMOCNÁ
100
AcDbCircle
 10
200.9827828914385
 20
129.6373044906314
 30
0.0
 40
3.399999999999999
  0
CIRCLE
  5
1EF
330
1F
100
AcDbEntity
  8
POMOCNÁ
100
AcDbCircle
 10
227.4829828914387
 20
129.6373044906314
 30
0.0
 40
5.0
  0
CIRCLE
  5
1F0
330
1F
100
AcDbEntity
  8
POMOCNÁ
100
AcDbCircle
 10
227.4829828914387
 20
129.6373044906314
 30
0.0
 40
1.0
  0
CIRCLE
  5
1F1
330
1F
100
AcDbEntity
  8
POMOCNÁ
100
AcDbCircle
 10
227.4829828914387
 20
129.6373044906314
 30
0.0
 40
3.0
  0
CIRCLE
  5
1F2
330
1F
100
AcDbEntity
  8
POMOCNÁ
100
AcDbCircle
 10
227.4829828914387
 20
129.6373044906314
 30
0.0
 40
3.399999999999999
  0
VIEWPORT
  5
217
330
58
100
AcDbEntity
 67
     1
  8
0
100
AcDbViewport
 10
0.0
 20
0.0
 30
0.0
 40
8.976
 41
6.936000000000001
 68
     1
 69
     1
1001
ACAD
1000
MVIEW
1002
{
1070
    16
1010
0.0
1020
0.0
1030
0.0
1010
0.0
1020
0.0
1030
1.0
1040
0.0
1040
6.936000000000001
1040
5.25
1040
4.0
1040
50.0
1040
0.0
1040
0.0
1070
     0
1070
   100
1070
     0
1070
     3
1070
     0
1070
     0
1070
     0
1070
     0
1040
0.0
1040
0.0
1040
0.0
1040
0.5
1040
0.5
1040
0.0
1040
0.0
1070
     0
1002
{
1002
}
1002
}
  0
VIEWPORT
  5
218
330
58
100
AcDbEntity
 67
     1
  8
0
100
AcDbViewport
 10
5.25
 20
4.0
 30
0.0
 40
8.4
 41
6.4
 68
     2
 69
     2
1001
ACAD
1000
MVIEW
1002
{
1070
    16
1010
0.0
1020
0.0
1030
0.0
1010
0.0
1020
0.0
1030
1.0
1040
0.0
1040
160.5339363787485
1040
257.9169379081844
1040
171.6942005408638
1040
50.0
1040
0.0
1040
0.0
1070
     0
1070
   100
1070
     0
1070
     3
1070
     0
1070
     0
1070
     0
1070
     0
1040
0.0
1040
0.0
1040
0.0
1040
0.5
1040
0.5
1040
0.0
1040
0.0
1070
     0
1002
{
1002
}
1002
}
  0
ENDSEC
  0
SECTION
  2
OBJECTS
  0
DICTIONARY
  5
C
330
0
100
AcDbDictionary
  3
ACAD_DETAILVIEWSTYLE
350
122
  3
ACAD_GROUP
350
D
  3
ACAD_IMAGE_VARS
350
DC
  3
ACAD_MLINESTYLE
350
17
  3
ACAD_SCALELIST
350
21B
  3
ACAD_SECTIONVIEWSTYLE
350
123
  3
ACDBVARIABLEDICTIONARY
350
66
  3
APPDATA
350
E1
  3
DWGPROPS
350
261
  0
DICTIONARY
  5
122
102
{ACAD_REACTORS
330
C
102
}
330
C
100
AcDbDictionary
  0
DICTIONARY
  5
D
102
{ACAD_REACTORS
330
C
102
}
330
C
100
AcDbDictionary
  0
RASTERVARIABLES
  5
DC
102
{ACAD_REACTORS
330
C
102
}
330
C
100
AcDbRasterVariables
 90
        0
 70
     1
 71
     1
 72
     5
  0
DICTIONARY
  5
17
102
{ACAD_REACTORS
330
C
102
}
330
C
100
AcDbDictionary
  3
STANDARD
350
18
  0
DICTIONARY
  5
21B
102
{ACAD_REACTORS
330
C
102
}
330
C
100
AcDbDictionary
  0
DICTIONARY
  5
123
102
{ACAD_REACTORS
330
C
102
}
330
C
100
AcDbDictionary
  0
DICTIONARY
  5
66
102
{ACAD_REACTORS
330
C
102
}
330
C
100
AcDbDictionary
  3
DIMASSOC
350
67
  3
HIDETEXT
350
6B
  0
DICTIONARY
  5
E1
102
{ACAD_REACTORS
330
C
102
}
330
C
100
AcDbDictionary
  0
XRECORD
  5
261
102
{ACAD_REACTORS
330
C
102
}
330
C
100
AcDbXrecord
  1
DWGPROPS COOKIE
  2

  3

  4

  6

  7

  8
jaromir.podrabsky
  9

300
=
301
=
302
=
303
=
304
=
305
=
306
=
307
=
308
=
309
=
 40
0.0
 41
2452643.063384259
 42
2456765.450636262
  1

 90
        0
  0
MLINESTYLE
  5
18
102
{ACAD_REACTORS
330
17
102
}
330
17
100
AcDbMlineStyle
  2
STANDARD
 70
     0
  3

 62
   256
 51
90.0
 52
90.0
 71
     2
 49
0.5
 62
   256
  6
BYLAYER
 49
-0.5
 62
   256
  6
BYLAYER
  0
DICTIONARYVAR
  5
67
102
{ACAD_REACTORS
330
66
102
}
330
66
100
DictionaryVariables
280
     0
  1
2
  0
DICTIONARYVAR
  5
6B
102
{ACAD_REACTORS
330
66
102
}
330
66
100
DictionaryVariables
280
     0
  1
1
  0
ENDSEC
  0
EOF
