  0
SECTION
  2
HEADER
  9
$ACADVER
  1
AC1014
  9
$ACADMAINTVER
 70
     9
  9
$DWGCODEPAGE
  3
ANSI_1250
  9
$INSBASE
 10
0.0
 20
0.0
 30
0.0
  9
$EXTMIN
 10
87.50851241046324
 20
44.99486064564417
 30
0.0
  9
$EXTMAX
 10
232.8600168351523
 20
111.7606940333321
 30
0.0000000000000066
  9
$LIMMIN
 10
0.0
 20
0.0
  9
$LIMMAX
 10
12.0
 20
9.0
  9
$ORTHOMODE
 70
     0
  9
$REGENMODE
 70
     1
  9
$FILLMODE
 70
     1
  9
$QTEXTMODE
 70
     0
  9
$MIRRTEXT
 70
     0
  9
$DRAGMODE
 70
     2
  9
$LTSCALE
 40
1.0
  9
$OSMODE
 70
 15359
  9
$ATTMODE
 70
     1
  9
$TEXTSIZE
 40
0.2
  9
$TRACEWID
 40
0.05
  9
$TEXTSTYLE
  7
STANDARD
  9
$CLAYER
  8
KOTY
  9
$CELTYPE
  6
BYLAYER
  9
$CECOLOR
 62
   256
  9
$CELTSCALE
 40
1.0
  9
$DELOBJ
 70
     1
  9
$DISPSILH
 70
     0
  9
$DIMSCALE
 40
1.0
  9
$DIMASZ
 40
0.18
  9
$DIMEXO
 40
0.0625
  9
$DIMDLI
 40
0.38
  9
$DIMRND
 40
0.0
  9
$DIMDLE
 40
0.0
  9
$DIMEXE
 40
0.18
  9
$DIMTP
 40
0.0
  9
$DIMTM
 40
0.0
  9
$DIMTXT
 40
0.18
  9
$DIMCEN
 40
0.09
  9
$DIMTSZ
 40
0.0
  9
$DIMTOL
 70
     0
  9
$DIMLIM
 70
     0
  9
$DIMTIH
 70
     1
  9
$DIMTOH
 70
     1
  9
$DIMSE1
 70
     0
  9
$DIMSE2
 70
     0
  9
$DIMTAD
 70
     0
  9
$DIMZIN
 70
     0
  9
$DIMBLK
  1

  9
$DIMASO
 70
     1
  9
$DIMSHO
 70
     1
  9
$DIMPOST
  1

  9
$DIMAPOST
  1

  9
$DIMALT
 70
     0
  9
$DIMALTD
 70
     2
  9
$DIMALTF
 40
25.4
  9
$DIMLFAC
 40
1.0
  9
$DIMTOFL
 70
     0
  9
$DIMTVP
 40
0.0
  9
$DIMTIX
 70
     0
  9
$DIMSOXD
 70
     0
  9
$DIMSAH
 70
     0
  9
$DIMBLK1
  1

  9
$DIMBLK2
  1

  9
$DIMSTYLE
  2
STANDARD
  9
$DIMCLRD
 70
     0
  9
$DIMCLRE
 70
     0
  9
$DIMCLRT
 70
     0
  9
$DIMTFAC
 40
1.0
  9
$DIMGAP
 40
0.09
  9
$DIMJUST
 70
     0
  9
$DIMSD1
 70
     0
  9
$DIMSD2
 70
     0
  9
$DIMTOLJ
 70
     1
  9
$DIMTZIN
 70
     0
  9
$DIMALTZ
 70
     0
  9
$DIMALTTZ
 70
     0
  9
$DIMFIT
 70
     5
  9
$DIMUPT
 70
     0
  9
$DIMUNIT
 70
     2
  9
$DIMDEC
 70
     4
  9
$DIMTDEC
 70
     4
  9
$DIMALTU
 70
     2
  9
$DIMALTTD
 70
     2
  9
$DIMTXSTY
  7
STANDARD
  9
$DIMAUNIT
 70
     0
  9
$LUNITS
 70
     2
  9
$LUPREC
 70
     4
  9
$SKETCHINC
 40
0.1
  9
$FILLETRAD
 40
0.0
  9
$AUNITS
 70
     0
  9
$AUPREC
 70
     0
  9
$MENU
  1
.
  9
$ELEVATION
 40
0.0
  9
$PELEVATION
 40
0.0
  9
$THICKNESS
 40
0.0
  9
$LIMCHECK
 70
     0
  9
$CHAMFERA
 40
0.0
  9
$CHAMFERB
 40
0.0
  9
$CHAMFERC
 40
0.0
  9
$CHAMFERD
 40
0.0
  9
$SKPOLY
 70
     0
  9
$TDCREATE
 40
2452643.146717593
  9
$TDUPDATE
 40
2456783.44502706
  9
$TDINDWG
 40
0.0147667824
  9
$TDUSRTIMER
 40
2456783.359738414
  9
$USRTIMER
 70
     1
  9
$ANGBASE
 50
0.0
  9
$ANGDIR
 70
     0
  9
$PDMODE
 70
     0
  9
$PDSIZE
 40
0.0
  9
$PLINEWID
 40
0.0
  9
$COORDS
 70
     2
  9
$SPLFRAME
 70
     0
  9
$SPLINETYPE
 70
     6
  9
$SPLINESEGS
 70
     8
  9
$ATTDIA
 70
     0
  9
$ATTREQ
 70
     1
  9
$HANDLING
 70
     1
  9
$HANDSEED
  5
41D
  9
$SURFTAB1
 70
     6
  9
$SURFTAB2
 70
     6
  9
$SURFTYPE
 70
     6
  9
$SURFU
 70
     6
  9
$SURFV
 70
     6
  9
$UCSNAME
  2

  9
$UCSORG
 10
0.0
 20
0.0
 30
0.0
  9
$UCSXDIR
 10
1.0
 20
0.0
 30
0.0
  9
$UCSYDIR
 10
0.0
 20
1.0
 30
0.0
  9
$PUCSNAME
  2

  9
$PUCSORG
 10
0.0
 20
0.0
 30
0.0
  9
$PUCSXDIR
 10
1.0
 20
0.0
 30
0.0
  9
$PUCSYDIR
 10
0.0
 20
1.0
 30
0.0
  9
$USERI1
 70
     0
  9
$USERI2
 70
     0
  9
$USERI3
 70
     0
  9
$USERI4
 70
     0
  9
$USERI5
 70
     0
  9
$USERR1
 40
0.0
  9
$USERR2
 40
0.0
  9
$USERR3
 40
0.0
  9
$USERR4
 40
0.0
  9
$USERR5
 40
0.0
  9
$WORLDVIEW
 70
     1
  9
$SHADEDGE
 70
     3
  9
$SHADEDIF
 70
    70
  9
$TILEMODE
 70
     0
  9
$MAXACTVP
 70
    64
  9
$PINSBASE
 10
0.0
 20
0.0
 30
0.0
  9
$PLIMCHECK
 70
     0
  9
$PEXTMIN
 10
1.05
 20
0.7999999999999998
 30
0.0
  9
$PEXTMAX
 10
9.45
 20
7.2
 30
0.0
  9
$PLIMMIN
 10
0.8500000000000006
 20
0.5999999999999998
  9
$PLIMMAX
 10
9.650000000000002
 20
7.4
  9
$UNITMODE
 70
     0
  9
$VISRETAIN
 70
     1
  9
$PLINEGEN
 70
     0
  9
$PSLTSCALE
 70
     1
  9
$TREEDEPTH
 70
  3020
  9
$PICKSTYLE
 70
     0
  9
$CMLSTYLE
  2
STANDARD
  9
$CMLJUST
 70
     0
  9
$CMLSCALE
 40
1.0
  9
$PROXYGRAPHICS
 70
     1
  9
$MEASUREMENT
 70
     0
  0
ENDSEC
  0
SECTION
  2
CLASSES
  0
CLASS
  1
ACDBDICTIONARYWDFLT
  2
AcDbDictionaryWithDefault
  3
ObjectDBX Classes
 90
        0
280
     0
281
     0
  0
CLASS
  1
ACDBPLACEHOLDER
  2
AcDbPlaceHolder
  3
ObjectDBX Classes
 90
        0
280
     0
281
     0
  0
CLASS
  1
LAYOUT
  2
AcDbLayout
  3
ObjectDBX Classes
 90
        0
280
     0
281
     0
  0
CLASS
  1
DICTIONARYVAR
  2
AcDbDictionaryVar
  3
ObjectDBX Classes
 90
        0
280
     0
281
     0
  0
CLASS
  1
TABLESTYLE
  2
AcDbTableStyle
  3
ObjectDBX Classes
 90
     4095
280
     0
281
     0
  0
CLASS
  1
MATERIAL
  2
AcDbMaterial
  3
ObjectDBX Classes
 90
     1153
280
     0
281
     0
  0
CLASS
  1
VISUALSTYLE
  2
AcDbVisualStyle
  3
ObjectDBX Classes
 90
     4095
280
     0
281
     0
  0
CLASS
  1
SCALE
  2
AcDbScale
  3
ObjectDBX Classes
 90
     1153
280
     0
281
     0
  0
CLASS
  1
CELLSTYLEMAP
  2
AcDbCellStyleMap
  3
ObjectDBX Classes
 90
     1152
280
     0
281
     0
  0
CLASS
  1
RASTERVARIABLES
  2
AcDbRasterVariables
  3
ISM
 90
        0
280
     0
281
     0
  0
CLASS
  1
SUN
  2
AcDbSun
  3
SCENEOE
 90
     1153
280
     0
281
     0
  0
CLASS
  1
DIMASSOC
  2
AcDbDimAssoc
  3
"AcDbDimAssoc|Product Desc:     AcDim ARX App For Dimension|Company:          Autodesk, Inc.|WEB Address:      www.autodesk.com"
 90
        0
280
     0
281
     0
  0
CLASS
  1
XRECORD
  2
AcDbXrecord
  3
ObjectDBX Classes
 90
        0
280
     0
281
     0
  0
CLASS
  1
LWPOLYLINE
  2
AcDbPolyline
  3
ObjectDBX Classes
 90
        0
280
     0
281
     1
  0
CLASS
  1
HATCH
  2
AcDbHatch
  3
ObjectDBX Classes
 90
        0
280
     0
281
     1
  0
ENDSEC
  0
SECTION
  2
TABLES
  0
TABLE
  2
VPORT
  5
8
330
0
100
AcDbSymbolTable
 70
     1
  0
VPORT
  5
94
330
8
100
AcDbSymbolTableRecord
100
AcDbViewportTableRecord
  2
*ACTIVE
 70
     0
 10
0.0
 20
0.0
 11
1.0
 21
1.0
 12
244.7607951317882
 22
77.21518608209891
 13
0.0
 23
0.0
 14
0.5
 24
0.5
 15
0.5
 25
0.5
 16
0.0
 26
0.0
 36
1.0
 17
-27.6695935659798
 27
-19.53870295786191
 37
0.0
 40
251.4968853356046
 41
1.260923845193508
 42
50.0
 43
0.0
 44
0.0
 50
0.0
 51
0.0
 71
    16
 72
  1000
 73
     1
 74
     3
 75
     0
 76
     0
 77
     0
 78
     0
  0
ENDTAB
  0
TABLE
  2
LTYPE
  5
5
330
0
100
AcDbSymbolTable
 70
     1
  0
LTYPE
  5
14
330
5
100
AcDbSymbolTableRecord
100
AcDbLinetypeTableRecord
  2
BYBLOCK
 70
     0
  3

 72
    65
 73
     0
 40
0.0
  0
LTYPE
  5
15
330
5
100
AcDbSymbolTableRecord
100
AcDbLinetypeTableRecord
  2
BYLAYER
 70
     0
  3
Solid line
 72
    65
 73
     0
 40
0.0
  0
LTYPE
  5
16
330
5
100
AcDbSymbolTableRecord
100
AcDbLinetypeTableRecord
  2
CONTINUOUS
 70
     0
  3
Solid line
 72
    65
 73
     0
 40
0.0
  0
ENDTAB
  0
TABLE
  2
LAYER
  5
2
102
{ACAD_XDICTIONARY
360
345
102
}
330
0
100
AcDbSymbolTable
 70
     5
  0
LAYER
  5
10
330
2
100
AcDbSymbolTableRecord
100
AcDbLayerTableRecord
  2
0
 70
     0
 62
     7
  6
CONTINUOUS
  0
LAYER
  5
125
330
2
100
AcDbSymbolTableRecord
100
AcDbLayerTableRecord
  2
1
 70
     0
 62
     7
  6
CONTINUOUS
  0
LAYER
  5
348
330
2
100
AcDbSymbolTableRecord
100
AcDbLayerTableRecord
  2
KOTY
 70
     0
 62
     1
  6
CONTINUOUS
1001
ACAECLAYERSTANDARD
1000

1000

  0
LAYER
  5
34A
330
2
100
AcDbSymbolTableRecord
100
AcDbLayerTableRecord
  2
OBRYS
 70
     0
 62
     5
  6
CONTINUOUS
1001
ACAECLAYERSTANDARD
1000

1000

  0
LAYER
  5
34F
330
2
100
AcDbSymbolTableRecord
100
AcDbLayerTableRecord
  2
DEFPOINTS
 70
     0
 62
     7
  6
CONTINUOUS
  0
ENDTAB
  0
TABLE
  2
STYLE
  5
3
330
0
100
AcDbSymbolTable
 70
     1
  0
STYLE
  5
11
330
3
100
AcDbSymbolTableRecord
100
AcDbTextStyleTableRecord
  2
STANDARD
 70
     0
 40
0.0
 41
1.0
 50
0.0
 71
     0
 42
0.2
  3
arial.ttf
  4

1001
ACAD
1000
Arial
1071
        0
  0
ENDTAB
  0
TABLE
  2
VIEW
  5
6
330
0
100
AcDbSymbolTable
 70
     0
  0
ENDTAB
  0
TABLE
  2
UCS
  5
7
330
0
100
AcDbSymbolTable
 70
     0
  0
ENDTAB
  0
TABLE
  2
APPID
  5
9
330
0
100
AcDbSymbolTable
 70
     2
  0
APPID
  5
12
330
9
100
AcDbSymbolTableRecord
100
AcDbRegAppTableRecord
  2
ACAD
 70
     0
  0
APPID
  5
349
330
9
100
AcDbSymbolTableRecord
100
AcDbRegAppTableRecord
  2
ACAECLAYERSTANDARD
 70
     0
  0
ENDTAB
  0
TABLE
  2
DIMSTYLE
  5
A
330
0
100
AcDbSymbolTable
 70
     1
  0
DIMSTYLE
105
27
102
{ACAD_REACTORS
330
350
330
360
330
370
102
}
330
A
100
AcDbSymbolTableRecord
100
AcDbDimStyleTableRecord
  2
STANDARD
 70
     0
  3

  4

  5

  6

  7

 40
1.0
 41
0.18
 42
0.0625
 43
0.38
 44
0.18
 45
0.0
 46
0.0
 47
0.0
 48
0.0
140
0.18
141
0.09
142
0.0
143
25.4
144
1.0
145
0.0
146
1.0
147
0.09
 71
     0
 72
     0
 73
     1
 74
     1
 75
     0
 76
     0
 77
     0
 78
     0
170
     0
171
     2
172
     0
173
     0
174
     0
175
     0
176
     0
177
     0
178
     0
270
     2
271
     4
272
     4
273
     2
274
     2
340
11
275
     0
280
     0
281
     0
282
     0
283
     1
284
     0
285
     0
286
     0
287
     3
288
     0
  0
ENDTAB
  0
TABLE
  2
BLOCK_RECORD
  5
1
330
0
100
AcDbSymbolTable
 70
     7
  0
BLOCK_RECORD
  5
1F
330
1
100
AcDbSymbolTableRecord
100
AcDbBlockTableRecord
  2
*MODEL_SPACE
  0
BLOCK_RECORD
  5
58
330
1
100
AcDbSymbolTableRecord
100
AcDbBlockTableRecord
  2
*PAPER_SPACE
  0
BLOCK_RECORD
  5
5D
330
1
100
AcDbSymbolTableRecord
100
AcDbBlockTableRecord
  2
*PAPER_SPACE0
  0
BLOCK_RECORD
  5
353
330
1
100
AcDbSymbolTableRecord
100
AcDbBlockTableRecord
  2
*D1
  0
BLOCK_RECORD
  5
363
330
1
100
AcDbSymbolTableRecord
100
AcDbBlockTableRecord
  2
*D2
  0
BLOCK_RECORD
  5
373
330
1
100
AcDbSymbolTableRecord
100
AcDbBlockTableRecord
  2
*D3
  0
BLOCK_RECORD
  5
3FC
330
1
100
AcDbSymbolTableRecord
100
AcDbBlockTableRecord
  2
*D5
  0
BLOCK_RECORD
  5
40F
330
1
100
AcDbSymbolTableRecord
100
AcDbBlockTableRecord
  2
*D6
  0
ENDTAB
  0
ENDSEC
  0
SECTION
  2
BLOCKS
  0
BLOCK
  5
20
330
1F
100
AcDbEntity
  8
0
100
AcDbBlockBegin
  2
*MODEL_SPACE
 70
     0
 10
0.0
 20
0.0
 30
0.0
  3
*MODEL_SPACE
  1

  0
ENDBLK
  5
21
330
1F
100
AcDbEntity
  8
0
100
AcDbBlockEnd
  0
BLOCK
  5
5A
330
58
100
AcDbEntity
 67
     1
  8
0
100
AcDbBlockBegin
  2
*PAPER_SPACE
 70
     0
 10
0.0
 20
0.0
 30
0.0
  3
*PAPER_SPACE
  1

  0
ENDBLK
  5
5B
330
58
100
AcDbEntity
 67
     1
  8
0
100
AcDbBlockEnd
  0
BLOCK
  5
5F
330
5D
100
AcDbEntity
  8
0
100
AcDbBlockBegin
  2
*PAPER_SPACE0
 70
     0
 10
0.0
 20
0.0
 30
0.0
  3
*PAPER_SPACE0
  1
*PAPER_SPACE0
  0
ENDBLK
  5
60
330
5D
100
AcDbEntity
  8
0
100
AcDbBlockEnd
  0
BLOCK
  5
354
330
353
100
AcDbEntity
  8
0
100
AcDbBlockBegin
  2
*D1
 70
     1
 10
0.0
 20
0.0
 30
0.0
  3
*D1
  1
*D2
  0
LINE
  5
356
330
353
100
AcDbEntity
  8
KOTY
 62
     0
100
AcDbLine
 10
100.8486954065769
 20
65.77243035657698
 30
0.0
 11
100.8486954065769
 21
48.49088167456775
 31
0.0
  0
LINE
  5
357
330
353
100
AcDbEntity
  8
KOTY
 62
     0
100
AcDbLine
 10
153.348695549438
 20
64.84160503333256
 30
0.0
 11
153.348695549438
 21
48.49088167456775
 31
0.0
  0
LINE
  5
358
330
353
100
AcDbEntity
  8
KOTY
 62
     0
100
AcDbLine
 10
103.8486954065769
 20
48.67088167456775
 30
0.0
 11
150.348695549438
 21
48.67088167456775
 31
0.0
  0
SOLID
  5
359
330
353
100
AcDbEntity
  8
KOTY
 62
     0
100
AcDbTrace
 10
103.8486954065769
 20
49.17088167456775
 30
0.0
 11
103.8486954065769
 21
48.17088167456775
 31
0.0
 12
100.8486954065769
 22
48.67088167456775
 32
0.0
 13
100.8486954065769
 23
48.67088167456775
 33
0.0
  0
SOLID
  5
35A
330
353
100
AcDbEntity
  8
KOTY
 62
     0
100
AcDbTrace
 10
150.348695549438
 20
48.17088167456775
 30
0.0
 11
150.348695549438
 21
49.17088167456775
 31
0.0
 12
153.348695549438
 22
48.67088167456775
 32
0.0
 13
153.348695549438
 23
48.67088167456775
 33
0.0
  0
MTEXT
  5
35B
330
353
100
AcDbEntity
  8
KOTY
 62
     0
100
AcDbMText
 10
127.0986954780075
 20
51.47238167456775
 30
0.0
 40
3.0
 41
0.0
 71
     5
 72
     1
  1
\A1;52,5
  0
POINT
  5
35C
330
353
100
AcDbEntity
  8
DEFPOINTS
 62
     0
100
AcDbPoint
 10
100.8486954065769
 20
65.83493035657698
 30
0.0
  0
POINT
  5
35D
330
353
100
AcDbEntity
  8
DEFPOINTS
 62
     0
100
AcDbPoint
 10
153.348695549438
 20
64.90410503333256
 30
0.0
  0
POINT
  5
35E
330
353
100
AcDbEntity
  8
DEFPOINTS
 62
     0
100
AcDbPoint
 10
153.348695549438
 20
48.67088167456775
 30
0.0
  0
ENDBLK
  5
355
330
353
100
AcDbEntity
  8
0
100
AcDbBlockEnd
  0
BLOCK
  5
364
330
363
100
AcDbEntity
  8
0
100
AcDbBlockBegin
  2
*D2
 70
     1
 10
0.0
 20
0.0
 30
0.0
  3
*D2
  1
*D3
  0
LINE
  5
366
330
363
100
AcDbEntity
  8
KOTY
 62
     0
100
AcDbLine
 10
197.2600168351522
 20
64.44159007314488
 30
0.0
 11
197.2600168351522
 21
45.31486064564417
 31
0.0
  0
LINE
  5
367
330
363
100
AcDbEntity
  8
KOTY
 62
     0
100
AcDbLine
 10
232.8600168351523
 20
64.44159007314488
 30
0.0
 11
232.8600168351523
 21
45.31486064564417
 31
0.0
  0
LINE
  5
368
330
363
100
AcDbEntity
  8
KOTY
 62
     0
100
AcDbLine
 10
200.2600168351522
 20
45.49486064564417
 30
0.0
 11
229.8600168351523
 21
45.49486064564417
 31
0.0
  0
SOLID
  5
369
330
363
100
AcDbEntity
  8
KOTY
 62
     0
100
AcDbTrace
 10
200.2600168351522
 20
45.99486064564417
 30
0.0
 11
200.2600168351522
 21
44.99486064564417
 31
0.0
 12
197.2600168351522
 22
45.49486064564417
 32
0.0
 13
197.2600168351522
 23
45.49486064564417
 33
0.0
  0
SOLID
  5
36A
330
363
100
AcDbEntity
  8
KOTY
 62
     0
100
AcDbTrace
 10
229.8600168351523
 20
44.99486064564417
 30
0.0
 11
229.8600168351523
 21
45.99486064564417
 31
0.0
 12
232.8600168351523
 22
45.49486064564417
 32
0.0
 13
232.8600168351523
 23
45.49486064564417
 33
0.0
  0
MTEXT
  5
36B
330
363
100
AcDbEntity
  8
KOTY
 62
     0
100
AcDbMText
 10
215.0600168351523
 20
48.29636064564416
 30
0.0
 40
3.0
 41
0.0
 71
     5
 72
     1
  1
\A1;35,6
  0
POINT
  5
36C
330
363
100
AcDbEntity
  8
DEFPOINTS
 62
     0
100
AcDbPoint
 10
197.2600168351522
 20
64.50409007314488
 30
0.0
  0
POINT
  5
36D
330
363
100
AcDbEntity
  8
DEFPOINTS
 62
     0
100
AcDbPoint
 10
232.8600168351523
 20
64.50409007314488
 30
0.0
  0
POINT
  5
36E
330
363
100
AcDbEntity
  8
DEFPOINTS
 62
     0
100
AcDbPoint
 10
232.8600168351523
 20
45.49486064564417
 30
0.0
  0
ENDBLK
  5
365
330
363
100
AcDbEntity
  8
0
100
AcDbBlockEnd
  0
BLOCK
  5
374
330
373
100
AcDbEntity
  8
0
100
AcDbBlockBegin
  2
*D3
 70
     1
 10
0.0
 20
0.0
 30
0.0
  3
*D3
  1
*D4
  0
LINE
  5
376
330
373
100
AcDbEntity
  8
KOTY
 62
     0
100
AcDbLine
 10
102.7864111024297
 20
109.2608840029814
 30
0.0
 11
91.37651241046323
 21
109.2608840029814
 31
0.0
  0
LINE
  5
377
330
373
100
AcDbEntity
  8
KOTY
 62
     0
100
AcDbLine
 10
102.7861954065769
 20
64.26088446190349
 30
0.0
 11
91.37651241046323
 21
64.26088446190349
 31
0.0
  0
LINE
  5
378
330
373
100
AcDbEntity
  8
KOTY
 62
     0
100
AcDbLine
 10
91.55651241046324
 20
106.2608840029814
 30
0.0
 11
91.55651241046324
 21
67.26088446190349
 31
0.0
  0
SOLID
  5
379
330
373
100
AcDbEntity
  8
KOTY
 62
     0
100
AcDbTrace
 10
92.05651241046324
 20
106.2608840029814
 30
0.0
 11
91.05651241046324
 21
106.2608840029814
 31
0.0
 12
91.55651241046324
 22
109.2608840029814
 32
0.0
 13
91.55651241046324
 23
109.2608840029814
 33
0.0
  0
SOLID
  5
37A
330
373
100
AcDbEntity
  8
KOTY
 62
     0
100
AcDbTrace
 10
91.05651241046324
 20
67.26088446190349
 30
0.0
 11
92.05651241046324
 21
67.26088446190349
 31
0.0
 12
91.55651241046324
 22
64.26088446190349
 32
0.0
 13
91.55651241046324
 23
64.26088446190349
 33
0.0
  0
MTEXT
  5
37B
330
373
100
AcDbEntity
  8
KOTY
 62
     0
100
AcDbMText
 10
89.03101241046325
 20
86.76088423244244
 30
0.0
 40
3.0
 41
0.0
 71
     5
 72
     1
  1
\A1;45
 11
0.0
 21
1.0
 31
0.0
  0
POINT
  5
37C
330
373
100
AcDbEntity
  8
DEFPOINTS
 62
     0
100
AcDbPoint
 10
102.8489111024297
 20
109.2608840029814
 30
0.0
  0
POINT
  5
37D
330
373
100
AcDbEntity
  8
DEFPOINTS
 62
     0
100
AcDbPoint
 10
102.8486954065769
 20
64.26088446190349
 30
0.0
  0
POINT
  5
37E
330
373
100
AcDbEntity
  8
DEFPOINTS
 62
     0
100
AcDbPoint
 10
91.55651241046324
 20
64.26088446190349
 30
0.0
  0
ENDBLK
  5
375
330
373
100
AcDbEntity
  8
0
100
AcDbBlockEnd
  0
BLOCK
  5
3FD
330
3FC
100
AcDbEntity
  8
0
100
AcDbBlockBegin
  2
*D5
 70
     1
 10
0.0
 20
0.0
 30
0.0
  3
*D5
  1
*D5
  0
LINE
  5
3FF
330
3FC
100
AcDbEntity
  8
KOTY
 62
     0
100
AcDbLine
 10
212.9958848317263
 20
88.34270411036464
 30
0.0
 11
212.9958848317263
 21
86.93841820308842
 31
0.0
  0
LINE
  5
400
330
3FC
100
AcDbEntity
  8
KOTY
 62
     0
100
AcDbLine
 10
197.2958488577577
 20
107.6243390333321
 30
0.0
 11
197.2958488577577
 21
86.93841820308842
 31
0.0
  0
LINE
  5
401
330
3FC
100
AcDbEntity
  8
KOTY
 62
     0
100
AcDbLine
 10
212.8158848317263
 20
87.11841820308842
 30
0.0
 11
205.670116844742
 21
87.11841820308842
 31
0.0
  0
LINE
  5
402
330
3FC
100
AcDbEntity
  8
KOTY
 62
     0
100
AcDbLine
 10
197.4758488577577
 20
87.11841820308842
 30
0.0
 11
204.621616844742
 21
87.11841820308842
 31
0.0
  0
SOLID
  5
403
330
3FC
100
AcDbEntity
  8
KOTY
 62
     0
100
AcDbTrace
 10
212.8158848317263
 20
87.08841820308842
 30
0.0
 11
212.8158848317263
 21
87.14841820308843
 31
0.0
 12
212.9958848317263
 22
87.11841820308842
 32
0.0
 13
212.9958848317263
 23
87.11841820308842
 33
0.0
  0
SOLID
  5
404
330
3FC
100
AcDbEntity
  8
KOTY
 62
     0
100
AcDbTrace
 10
197.4758488577577
 20
87.14841820308843
 30
0.0
 11
197.4758488577577
 21
87.08841820308842
 31
0.0
 12
197.2958488577577
 22
87.11841820308842
 32
0.0
 13
197.2958488577577
 23
87.11841820308842
 33
0.0
  0
MTEXT
  5
405
330
3FC
100
AcDbEntity
  8
KOTY
 62
     0
100
AcDbMText
 10
205.145866844742
 20
87.11841820308842
 30
0.0
 40
0.18
 41
0.0
 71
     5
 72
     1
  1
\A1;15.7000
  0
POINT
  5
406
330
3FC
100
AcDbEntity
  8
DEFPOINTS
 62
     0
100
AcDbPoint
 10
212.9958848317263
 20
88.40520411036464
 30
0.0
  0
POINT
  5
407
330
3FC
100
AcDbEntity
  8
DEFPOINTS
 62
     0
100
AcDbPoint
 10
197.2958488577577
 20
107.6868390333321
 30
0.0
  0
POINT
  5
408
330
3FC
100
AcDbEntity
  8
DEFPOINTS
 62
     0
100
AcDbPoint
 10
197.2958488577577
 20
87.11841820308842
 30
0.0
  0
ENDBLK
  5
3FE
330
3FC
100
AcDbEntity
  8
0
100
AcDbBlockEnd
  0
BLOCK
  5
410
330
40F
100
AcDbEntity
  8
0
100
AcDbBlockBegin
  2
*D6
 70
     1
 10
0.0
 20
0.0
 30
0.0
  3
*D6
  1
*D6
  0
LINE
  5
412
330
40F
100
AcDbEntity
  8
KOTY
 62
     0
100
AcDbLine
 10
213.0583848317263
 20
89.79580411036464
 30
0.0
 11
215.3769086069164
 21
89.79580411036464
 31
0.0
  0
LINE
  5
413
330
40F
100
AcDbEntity
  8
KOTY
 62
     0
100
AcDbLine
 10
198.8873782551428
 20
109.195794180434
 30
0.0
 11
215.3769086069164
 21
109.195794180434
 31
0.0
  0
LINE
  5
414
330
40F
100
AcDbEntity
  8
KOTY
 62
     0
100
AcDbLine
 10
215.1969086069164
 20
89.97580411036465
 30
0.0
 11
215.1969086069164
 21
99.31390914539932
 31
0.0
  0
LINE
  5
415
330
40F
100
AcDbEntity
  8
KOTY
 62
     0
100
AcDbLine
 10
215.1969086069164
 20
109.015794180434
 30
0.0
 11
215.1969086069164
 21
99.67768914539934
 31
0.0
  0
SOLID
  5
416
330
40F
100
AcDbEntity
  8
KOTY
 62
     0
100
AcDbTrace
 10
215.1669086069164
 20
89.97580411036465
 30
0.0
 11
215.2269086069164
 21
89.97580411036465
 31
0.0
 12
215.1969086069164
 22
89.79580411036464
 32
0.0
 13
215.1969086069164
 23
89.79580411036464
 33
0.0
  0
SOLID
  5
417
330
40F
100
AcDbEntity
  8
KOTY
 62
     0
100
AcDbTrace
 10
215.2269086069164
 20
109.015794180434
 30
0.0
 11
215.1669086069164
 21
109.015794180434
 31
0.0
 12
215.1969086069164
 22
109.195794180434
 32
0.0
 13
215.1969086069164
 23
109.195794180434
 33
0.0
  0
MTEXT
  5
418
330
40F
100
AcDbEntity
  8
KOTY
 62
     0
100
AcDbMText
 10
215.1969086069164
 20
99.49579914539933
 30
0.0
 40
0.18
 41
0.0
 71
     5
 72
     1
  1
\A1;19.4000
  0
POINT
  5
419
330
40F
100
AcDbEntity
  8
DEFPOINTS
 62
     0
100
AcDbPoint
 10
212.9958848317263
 20
89.79580411036464
 30
0.0
  0
POINT
  5
41A
330
40F
100
AcDbEntity
  8
DEFPOINTS
 62
     0
100
AcDbPoint
 10
198.8248782551428
 20
109.195794180434
 30
0.0
  0
POINT
  5
41B
330
40F
100
AcDbEntity
  8
DEFPOINTS
 62
     0
100
AcDbPoint
 10
215.1969086069164
 20
109.195794180434
 30
0.0
  0
ENDBLK
  5
411
330
40F
100
AcDbEntity
  8
0
100
AcDbBlockEnd
  0
ENDSEC
  0
SECTION
  2
ENTITIES
  0
LINE
  5
247
330
1F
100
AcDbEntity
  8
OBRYS
  6
CONTINUOUS
100
AcDbLine
 10
153.844332549438
 20
73.5573560333321
 30
0.0000000000000062
 11
158.253058549438
 21
73.59583003333208
 31
0.0000000000000062
  0
LINE
  5
248
330
1F
100
AcDbEntity
  8
OBRYS
  6
CONTINUOUS
100
AcDbLine
 10
158.253058549438
 20
76.4259390333321
 30
0.0000000000000062
 11
153.844332549438
 21
76.46441303333208
 31
0.0000000000000062
  0
LINE
  5
249
330
1F
100
AcDbEntity
  8
OBRYS
  6
CONTINUOUS
100
AcDbLine
 10
153.844332549438
 20
97.0573560333321
 30
0.0000000000000062
 11
158.253058549438
 21
97.09583003333208
 31
0.0000000000000062
  0
LINE
  5
24A
330
1F
100
AcDbEntity
  8
OBRYS
  6
CONTINUOUS
100
AcDbLine
 10
158.253058549438
 20
99.9259390333321
 30
0.0000000000000062
 11
153.844332549438
 21
99.96441303333208
 31
0.0000000000000062
  0
LINE
  5
24B
330
1F
100
AcDbEntity
  8
OBRYS
  6
CONTINUOUS
100
AcDbLine
 10
153.698695549438
 20
63.20889103333209
 30
0.0000000000000062
 11
161.145609549438
 21
63.20889103333209
 31
0.0000000000000062
  0
LINE
  5
24C
330
1F
100
AcDbEntity
  8
OBRYS
  6
CONTINUOUS
100
AcDbLine
 10
161.191025549438
 20
110.3128780333321
 30
0.0000000000000062
 11
153.698695549438
 21
110.3128780333321
 31
0.0000000000000062
  0
LINE
  5
24D
330
1F
100
AcDbEntity
  8
OBRYS
  6
CONTINUOUS
100
AcDbLine
 10
152.748695549438
 20
109.0176790333321
 30
0.0000000000000062
 11
123.1486954065769
 21
109.0176788506621
 31
0.0000000000000062
  0
LINE
  5
24E
330
1F
100
AcDbEntity
  8
OBRYS
  6
CONTINUOUS
100
AcDbLine
 10
123.1486966880848
 20
64.50392090757472
 30
0.0000000000000062
 11
152.748695549438
 21
64.50409003333209
 31
0.0000000000000062
  0
LINE
  5
24F
330
1F
100
AcDbEntity
  8
OBRYS
  6
CONTINUOUS
100
AcDbLine
 10
102.8486954065769
 20
64.26088446190349
 30
0.0000000000000062
 11
102.8489111024297
 21
109.2608840029814
 31
0.0000000000000062
  0
LINE
  5
250
330
1F
100
AcDbEntity
  8
OBRYS
  6
CONTINUOUS
100
AcDbLine
 10
153.348695549438
 20
108.6176640333321
 30
0.0000000000000062
 11
153.348695549438
 21
64.90410503333209
 31
0.0000000000000062
  0
LINE
  5
251
330
1F
100
AcDbEntity
  8
OBRYS
  6
CONTINUOUS
100
AcDbLine
 10
153.844332549438
 20
76.46441303333208
 30
0.0000000000000062
 11
153.844332549438
 21
73.5573560333321
 31
0.0000000000000062
  0
LINE
  5
252
330
1F
100
AcDbEntity
  8
OBRYS
  6
CONTINUOUS
100
AcDbLine
 10
153.844332549438
 20
99.96441303333208
 30
0.0000000000000062
 11
153.844332549438
 21
97.0573560333321
 31
0.0000000000000062
  0
LINE
  5
253
330
1F
100
AcDbEntity
  8
OBRYS
  6
CONTINUOUS
100
AcDbLine
 10
156.281687549438
 20
87.16032803333209
 30
0.0000000000000062
 11
156.083432549438
 21
87.16032803333209
 31
0.0000000000000062
  0
LINE
  5
254
330
1F
100
AcDbEntity
  8
OBRYS
  6
CONTINUOUS
100
AcDbLine
 10
158.253058549438
 20
76.4259390333321
 30
0.0000000000000062
 11
158.253058549438
 21
73.59583003333208
 31
0.0000000000000062
  0
LINE
  5
255
330
1F
100
AcDbEntity
  8
OBRYS
  6
CONTINUOUS
100
AcDbLine
 10
158.253058549438
 20
99.9259390333321
 30
0.0000000000000062
 11
158.253058549438
 21
97.09583003333208
 31
0.0000000000000062
  0
LINE
  5
256
330
1F
100
AcDbEntity
  8
OBRYS
  6
CONTINUOUS
100
AcDbLine
 10
158.748695549438
 20
74.0958110333321
 30
0.0000000000000062
 11
158.748695549438
 21
75.92595803333208
 31
0.0000000000000062
  0
LINE
  5
257
330
1F
100
AcDbEntity
  8
OBRYS
  6
CONTINUOUS
100
AcDbLine
 10
158.748695549438
 20
97.5958110333321
 30
0.0000000000000062
 11
158.748695549438
 21
99.42595803333208
 31
0.0000000000000062
  0
LINE
  5
258
330
1F
100
AcDbEntity
  8
OBRYS
  6
CONTINUOUS
100
AcDbLine
 10
160.8541319704351
 20
64.93073903623426
 30
0.0000000000000062
 11
154.1545524239469
 21
64.92066364568768
 31
0.0000000000000062
  0
LINE
  5
259
330
1F
100
AcDbEntity
  8
OBRYS
  6
CONTINUOUS
100
AcDbLine
 10
154.1543567019007
 20
65.0508080218666
 30
0.0000000000000062
 11
160.8543491253287
 21
65.06088403333209
 31
0.0000000000000062
  0
LINE
  5
25A
330
1F
100
AcDbEntity
  8
OBRYS
  6
CONTINUOUS
100
AcDbLine
 10
153.698695549438
 20
66.45282603333209
 30
0.0000000000000062
 11
153.698695549438
 21
63.20889103333209
 31
0.0000000000000062
  0
LINE
  5
25B
330
1F
100
AcDbEntity
  8
OBRYS
  6
CONTINUOUS
100
AcDbLine
 10
161.158639549438
 20
66.46088403333209
 30
0.0000000000000062
 11
153.687381549438
 21
66.46088403333209
 31
0.0000000000000062
  0
LINE
  5
25C
330
1F
100
AcDbEntity
  8
OBRYS
  6
CONTINUOUS
100
AcDbLine
 10
153.687381549438
 20
65.66088403333208
 30
0.0000000000000062
 11
153.687381549438
 21
66.46088403333209
 31
0.0000000000000062
  0
LINE
  5
25D
330
1F
100
AcDbEntity
  8
OBRYS
  6
CONTINUOUS
100
AcDbLine
 10
161.249484549438
 20
63.2746540333321
 30
0.0000000000000062
 11
161.249484549438
 21
63.37935303333208
 31
0.0000000000000062
  0
LINE
  5
25E
330
1F
100
AcDbEntity
  8
OBRYS
  6
CONTINUOUS
100
AcDbLine
 10
161.198695549438
 20
63.37935303333208
 30
0.0000000000000062
 11
161.249484549438
 21
63.37935303333208
 31
0.0000000000000062
  0
LINE
  5
25F
330
1F
100
AcDbEntity
  8
OBRYS
  6
CONTINUOUS
100
AcDbLine
 10
161.198695549438
 20
63.2746540333321
 30
0.0000000000000062
 11
161.249484549438
 21
63.2746540333321
 31
0.0000000000000062
  0
LINE
  5
260
330
1F
100
AcDbEntity
  8
OBRYS
  6
CONTINUOUS
100
AcDbLine
 10
161.198695549438
 20
63.2260890333321
 30
0.0000000000000062
 11
161.198695549438
 21
63.2746540333321
 31
0.0000000000000062
  0
LINE
  5
261
330
1F
100
AcDbEntity
  8
OBRYS
  6
CONTINUOUS
100
AcDbLine
 10
153.348712549438
 20
65.66088403333208
 30
0.0000000000000062
 11
153.687381549438
 21
65.66088403333208
 31
0.0000000000000062
  0
LINE
  5
262
330
1F
100
AcDbEntity
  8
OBRYS
  6
CONTINUOUS
100
AcDbLine
 10
161.158639549438
 20
66.46088403333209
 30
0.0000000000000062
 11
161.179192549438
 21
66.46088403333209
 31
0.0000000000000062
  0
LINE
  5
263
330
1F
100
AcDbEntity
  8
OBRYS
  6
CONTINUOUS
100
AcDbLine
 10
162.091640549438
 20
64.35150103333208
 30
0.0000000000000062
 11
161.637713549438
 21
64.22994503333209
 31
0.0000000000000062
  0
LINE
  5
264
330
1F
100
AcDbEntity
  8
OBRYS
  6
CONTINUOUS
100
AcDbLine
 10
162.091640549438
 20
64.35150103333208
 30
0.0000000000000062
 11
162.298695549438
 21
63.57923103333209
 31
0.0000000000000062
  0
LINE
  5
265
330
1F
100
AcDbEntity
  8
OBRYS
  6
CONTINUOUS
100
AcDbLine
 10
162.298695549438
 20
63.57923103333209
 30
0.0000000000000062
 11
161.844768549438
 21
63.45767503333209
 31
0.0000000000000062
  0
LINE
  5
266
330
1F
100
AcDbEntity
  8
OBRYS
  6
CONTINUOUS
100
AcDbLine
 10
161.844768549438
 20
63.45767503333209
 30
0.0000000000000062
 11
161.844768549438
 21
63.35297703333208
 31
0.0000000000000062
  0
LINE
  5
267
330
1F
100
AcDbEntity
  8
OBRYS
  6
CONTINUOUS
100
AcDbLine
 10
161.198695549438
 20
64.1788650333321
 30
0.0000000000000062
 11
161.249484549438
 21
64.1788650333321
 31
0.0000000000000062
  0
LINE
  5
268
330
1F
100
AcDbEntity
  8
OBRYS
  6
CONTINUOUS
100
AcDbLine
 10
162.298695549438
 20
63.57923103333209
 30
0.0000000000000062
 11
162.298695549438
 21
63.47453203333208
 31
0.0000000000000062
  0
LINE
  5
269
330
1F
100
AcDbEntity
  8
OBRYS
  6
CONTINUOUS
100
AcDbLine
 10
162.298695549438
 20
63.47453203333208
 30
0.0000000000000062
 11
161.844768549438
 21
63.35297703333208
 31
0.0000000000000062
  0
LINE
  5
26A
330
1F
100
AcDbEntity
  8
OBRYS
  6
CONTINUOUS
100
AcDbLine
 10
162.091640549438
 20
65.48814403333208
 30
0.0000000000000062
 11
162.298695549438
 21
66.26088403333208
 31
0.0000000000000062
  0
LINE
  5
26B
330
1F
100
AcDbEntity
  8
OBRYS
  6
CONTINUOUS
100
AcDbLine
 10
161.637713549438
 20
65.60977303333209
 30
0.0000000000000062
 11
162.091640549438
 21
65.48814403333208
 31
0.0000000000000062
  0
LINE
  5
26C
330
1F
100
AcDbEntity
  8
OBRYS
  6
CONTINUOUS
100
AcDbLine
 10
162.298695549438
 20
66.26088403333208
 30
0.0000000000000062
 11
161.844768549438
 21
66.38251403333209
 31
0.0000000000000062
  0
LINE
  5
26D
330
1F
100
AcDbEntity
  8
OBRYS
  6
CONTINUOUS
100
AcDbLine
 10
161.249484549438
 20
66.46088403333209
 30
0.0000000000000062
 11
161.179192549438
 21
66.46088403333209
 31
0.0000000000000062
  0
LINE
  5
26E
330
1F
100
AcDbEntity
  8
OBRYS
  6
CONTINUOUS
100
AcDbLine
 10
161.179191549438
 20
65.66088403333208
 30
0.0000000000000062
 11
161.249484549438
 21
65.66088403333208
 31
0.0000000000000062
  0
LINE
  5
26F
330
1F
100
AcDbEntity
  8
OBRYS
  6
CONTINUOUS
100
AcDbLine
 10
153.698695549438
 20
63.20889103333209
 30
0.0000000000000062
 11
153.698695549438
 21
63.2097440333321
 31
0.0000000000000062
  0
LINE
  5
270
330
1F
100
AcDbEntity
  8
OBRYS
  6
CONTINUOUS
100
AcDbLine
 10
161.179191549438
 20
66.46088403333209
 30
0.0000000000000062
 11
153.348695549438
 21
66.46088403333209
 31
0.0000000000000062
  0
LINE
  5
271
330
1F
100
AcDbEntity
  8
OBRYS
  6
CONTINUOUS
100
AcDbLine
 10
161.078695549438
 20
65.5965650333321
 30
0.0000000000000062
 11
161.078695549438
 21
66.31080603333209
 31
0.0000000000000062
  0
LINE
  5
272
330
1F
100
AcDbEntity
  8
OBRYS
  6
CONTINUOUS
100
AcDbLine
 10
161.078695549438
 20
64.38505003333208
 30
0.0000000000000062
 11
161.078695549438
 21
63.67080903333209
 31
0.0000000000000062
  0
LINE
  5
273
330
1F
100
AcDbEntity
  8
OBRYS
  6
CONTINUOUS
100
AcDbLine
 10
161.179191549438
 20
65.66088403333208
 30
0.0000000000000062
 11
161.179191549438
 21
66.46088403333209
 31
0.0000000000000062
  0
LINE
  5
274
330
1F
100
AcDbEntity
  8
OBRYS
  6
CONTINUOUS
100
AcDbLine
 10
161.174714549438
 20
64.32109603333208
 30
0.0000000000000062
 11
161.174714549438
 21
63.52158303333209
 31
0.0000000000000062
  0
LINE
  5
275
330
1F
100
AcDbEntity
  8
OBRYS
  6
CONTINUOUS
100
AcDbLine
 10
161.198695549438
 20
64.31031903333209
 30
0.0000000000000062
 11
161.198695549438
 21
63.37935303333208
 31
0.0000000000000062
  0
LINE
  5
276
330
1F
100
AcDbEntity
  8
OBRYS
  6
CONTINUOUS
100
AcDbLine
 10
161.198695549438
 20
66.46088403333209
 30
0.0000000000000062
 11
161.198695549438
 21
65.66088403333208
 31
0.0000000000000062
  0
LINE
  5
277
330
1F
100
AcDbEntity
  8
OBRYS
  6
CONTINUOUS
100
AcDbLine
 10
162.091640549438
 20
65.48814403333208
 30
0.0000000000000062
 11
162.298695549438
 21
66.26088403333208
 31
0.0000000000000062
  0
LINE
  5
278
330
1F
100
AcDbEntity
  8
OBRYS
  6
CONTINUOUS
100
AcDbLine
 10
153.698695549438
 20
63.20889103333209
 30
0.0000000000000062
 11
153.698695549438
 21
63.2097440333321
 31
0.0000000000000062
  0
LINE
  5
279
330
1F
100
AcDbEntity
  8
OBRYS
  6
CONTINUOUS
100
AcDbLine
 10
153.698695549438
 20
107.0689430333321
 30
0.0000000000000062
 11
153.698695549438
 21
110.3120250333321
 31
0.0000000000000062
  0
LINE
  5
27A
330
1F
100
AcDbEntity
  8
OBRYS
  6
CONTINUOUS
100
AcDbLine
 10
154.1495141268333
 20
108.4608839831494
 30
0.0
 11
160.8495141268369
 21
108.4608838792376
 31
0.0
  0
LINE
  5
27B
330
1F
100
AcDbEntity
  8
OBRYS
  6
CONTINUOUS
100
AcDbLine
 10
161.2494845494385
 20
107.0608840333321
 30
0.0000000000000062
 11
153.348695549438
 21
107.0608840333321
 31
0.0000000000000062
  0
LINE
  5
27C
330
1F
100
AcDbEntity
  8
OBRYS
  6
CONTINUOUS
100
AcDbLine
 10
160.849513983849
 20
108.601038888234
 30
0.0000000000000061
 11
154.1495139838528
 21
108.6010316837713
 31
0.0000000000000061
  0
LINE
  5
27D
330
1F
100
AcDbEntity
  8
OBRYS
  6
CONTINUOUS
100
AcDbLine
 10
161.078695549438
 20
107.9574130333321
 30
0.0000000000000062
 11
161.078695549438
 21
107.2861170333321
 31
0.0000000000000062
  0
LINE
  5
27E
330
1F
100
AcDbEntity
  8
OBRYS
  6
CONTINUOUS
100
AcDbLine
 10
161.078695549438
 20
109.1045100333321
 30
0.0000000000000062
 11
161.078695549438
 21
109.7758060333321
 31
0.0000000000000062
  0
LINE
  5
27F
330
1F
100
AcDbEntity
  8
OBRYS
  6
CONTINUOUS
100
AcDbLine
 10
161.191875549438
 20
109.2006730333321
 30
0.0000000000000062
 11
161.191875549438
 21
110.0001860333321
 31
0.0000000000000062
  0
LINE
  5
280
330
1F
100
AcDbEntity
  8
OBRYS
  6
CONTINUOUS
100
AcDbLine
 10
161.194360549438
 20
107.8608840333321
 30
0.0000000000000062
 11
161.194360549438
 21
107.0608840333321
 31
0.0000000000000062
  0
LINE
  5
281
330
1F
100
AcDbEntity
  8
OBRYS
  6
CONTINUOUS
100
AcDbLine
 10
153.687381549438
 20
107.8608840333321
 30
0.0000000000000062
 11
153.687381549438
 21
107.0608840333321
 31
0.0000000000000062
  0
LINE
  5
282
330
1F
100
AcDbEntity
  8
OBRYS
  6
CONTINUOUS
100
AcDbLine
 10
161.249484549438
 20
110.1424150333321
 30
0.0000000000000062
 11
161.249484549438
 21
110.2471150333321
 31
0.0000000000000062
  0
LINE
  5
283
330
1F
100
AcDbEntity
  8
OBRYS
  6
CONTINUOUS
100
AcDbLine
 10
161.198695549438
 20
110.2471150333321
 30
0.0000000000000062
 11
161.249484549438
 21
110.2471150333321
 31
0.0000000000000062
  0
LINE
  5
284
330
1F
100
AcDbEntity
  8
OBRYS
  6
CONTINUOUS
100
AcDbLine
 10
161.198695549438
 20
110.1424150333321
 30
0.0000000000000062
 11
161.249484549438
 21
110.1424150333321
 31
0.0000000000000062
  0
LINE
  5
285
330
1F
100
AcDbEntity
  8
OBRYS
  6
CONTINUOUS
100
AcDbLine
 10
161.198695549438
 20
110.3049870333321
 30
0.0000000000000062
 11
161.198695549438
 21
110.2471150333321
 31
0.0000000000000062
  0
LINE
  5
286
330
1F
100
AcDbEntity
  8
OBRYS
  6
CONTINUOUS
100
AcDbLine
 10
161.198695549438
 20
110.1424150333321
 30
0.0000000000000062
 11
161.198695549438
 21
109.2064320333321
 31
0.0000000000000062
  0
LINE
  5
287
330
1F
100
AcDbEntity
  8
OBRYS
  6
CONTINUOUS
100
AcDbLine
 10
153.348712549438
 20
107.8608840333321
 30
0.0000000000000062
 11
153.687381549438
 21
107.8608840333321
 31
0.0000000000000062
  0
LINE
  5
288
330
1F
100
AcDbEntity
  8
OBRYS
  6
CONTINUOUS
100
AcDbLine
 10
161.198695549438
 20
107.8608840333321
 30
0.0000000000000062
 11
161.198695549438
 21
107.0608840333321
 31
0.0000000000000062
  0
LINE
  5
289
330
1F
100
AcDbEntity
  8
OBRYS
  6
CONTINUOUS
100
AcDbLine
 10
162.091640549438
 20
109.1702670333321
 30
0.0000000000000062
 11
162.298695549438
 21
109.9425370333321
 31
0.0000000000000062
  0
LINE
  5
28A
330
1F
100
AcDbEntity
  8
OBRYS
  6
CONTINUOUS
100
AcDbLine
 10
162.091640549438
 20
109.1702670333321
 30
0.0000000000000062
 11
161.637713549438
 21
109.2918220333321
 31
0.0000000000000062
  0
LINE
  5
28B
330
1F
100
AcDbEntity
  8
OBRYS
  6
CONTINUOUS
100
AcDbLine
 10
162.298695549438
 20
109.9425370333321
 30
0.0000000000000062
 11
161.844768549438
 21
110.0640920333321
 31
0.0000000000000062
  0
LINE
  5
28C
330
1F
100
AcDbEntity
  8
OBRYS
  6
CONTINUOUS
100
AcDbLine
 10
161.198695549438
 20
109.3429030333321
 30
0.0000000000000062
 11
161.249484549438
 21
109.3429030333321
 31
0.0000000000000062
  0
LINE
  5
28D
330
1F
100
AcDbEntity
  8
OBRYS
  6
CONTINUOUS
100
AcDbLine
 10
161.844768549438
 20
110.1687920333321
 30
0.0000000000000062
 11
161.844768549438
 21
110.0640920333321
 31
0.0000000000000062
  0
LINE
  5
28E
330
1F
100
AcDbEntity
  8
OBRYS
  6
CONTINUOUS
100
AcDbLine
 10
162.298695549438
 20
109.9425370333321
 30
0.0000000000000062
 11
162.298695549438
 21
110.0472370333321
 31
0.0000000000000062
  0
LINE
  5
28F
330
1F
100
AcDbEntity
  8
OBRYS
  6
CONTINUOUS
100
AcDbLine
 10
162.298695549438
 20
110.0472370333321
 30
0.0000000000000062
 11
161.844768549438
 21
110.1687920333321
 31
0.0000000000000062
  0
LINE
  5
290
330
1F
100
AcDbEntity
  8
OBRYS
  6
CONTINUOUS
100
AcDbLine
 10
161.637713549438
 20
107.9119960333321
 30
0.0000000000000062
 11
162.091640549438
 21
108.0336250333321
 31
0.0000000000000062
  0
LINE
  5
291
330
1F
100
AcDbEntity
  8
OBRYS
  6
CONTINUOUS
100
AcDbLine
 10
162.298695549438
 20
107.2608840333321
 30
0.0000000000000062
 11
161.844768549438
 21
107.1392550333321
 31
0.0000000000000062
  0
LINE
  5
292
330
1F
100
AcDbEntity
  8
OBRYS
  6
CONTINUOUS
100
AcDbLine
 10
162.091640549438
 20
108.0336250333321
 30
0.0000000000000062
 11
162.298695549438
 21
107.2608840333321
 31
0.0000000000000062
  0
LINE
  5
293
330
1F
100
AcDbEntity
  8
OBRYS
  6
CONTINUOUS
100
AcDbLine
 10
161.194360549438
 20
107.8608840333321
 30
0.0000000000000062
 11
161.249484549438
 21
107.8608840333321
 31
0.0000000000000062
  0
LINE
  5
294
330
1F
100
AcDbEntity
  8
OBRYS
  6
CONTINUOUS
100
AcDbLine
 10
153.698695549438
 20
110.3128780333321
 30
0.0000000000000062
 11
153.698695549438
 21
110.3120250333321
 31
0.0000000000000062
  0
LINE
  5
295
330
1F
100
AcDbEntity
  8
OBRYS
  6
CONTINUOUS
100
AcDbLine
 10
153.148695549438
 20
64.9040900333321
 30
0.0000000000000062
 11
153.148695549438
 21
108.6176640333321
 31
0.0000000000000062
  0
LINE
  5
296
330
1F
100
AcDbEntity
  8
OBRYS
  6
CONTINUOUS
100
AcDbLine
 10
152.753931470737
 20
109.2538571871706
 30
0.0000000000000062
 11
152.748695549438
 21
109.0176790333321
 31
0.0000000000000062
  0
LINE
  5
297
330
1F
100
AcDbEntity
  8
OBRYS
  6
CONTINUOUS
100
AcDbLine
 10
152.7490117511305
 20
64.26786909394227
 30
0.0000000000000062
 11
152.748695549438
 21
64.50409003333209
 31
0.0000000000000062
  0
LINE
  5
298
330
1F
100
AcDbEntity
  8
OBRYS
  6
CONTINUOUS
100
AcDbLine
 10
153.348695549438
 20
108.6176640333321
 30
0.0000000000000062
 11
153.148695549438
 21
108.6176640333321
 31
0.0000000000000062
  0
LINE
  5
299
330
1F
100
AcDbEntity
  8
OBRYS
  6
CONTINUOUS
100
AcDbLine
 10
153.348695549438
 20
64.90410503333209
 30
0.0000000000000062
 11
153.148695549438
 21
64.90410503333209
 31
0.0000000000000062
  0
LINE
  5
29A
330
1F
100
AcDbEntity
  8
OBRYS
  6
CONTINUOUS
100
AcDbLine
 10
102.848695549438
 20
107.6960230333321
 30
0.0000000000000062
 11
102.194382549438
 21
107.6846020333321
 31
0.0000000000000062
  0
LINE
  5
29B
330
1F
100
AcDbEntity
  8
OBRYS
  6
CONTINUOUS
100
AcDbLine
 10
102.3225153397435
 20
109.1866100122157
 30
0.0000000000000062
 11
102.848695549438
 21
109.1957950333321
 31
0.0000000000000062
  0
LINE
  5
29C
330
1F
100
AcDbEntity
  8
OBRYS
  6
CONTINUOUS
100
AcDbLine
 10
102.194382549438
 20
65.8371670333321
 30
0.0000000000000062
 11
102.848695549438
 21
65.82574603333208
 31
0.0000000000000062
  0
LINE
  5
29D
330
1F
100
AcDbEntity
  8
OBRYS
  6
CONTINUOUS
100
AcDbLine
 10
102.848695549438
 20
64.32597403333207
 30
0.0000000000000062
 11
102.3225153397434
 21
64.33515905444855
 31
0.0000000000000062
  0
LINE
  5
29E
330
1F
100
AcDbEntity
  8
OBRYS
  6
CONTINUOUS
100
AcDbLine
 10
123.162658549438
 20
62.66088403333208
 30
0.0000000000000062
 11
123.1486954065769
 21
64.50409007314488
 31
0.0000000000000062
  0
LINE
  5
29F
330
1F
100
AcDbEntity
  8
OBRYS
  6
CONTINUOUS
100
AcDbLine
 10
143.498695549438
 20
62.66088403333208
 30
0.0000000000000062
 11
123.162658549438
 21
62.66088403333208
 31
0.0000000000000062
  0
LINE
  5
2A0
330
1F
100
AcDbEntity
  8
OBRYS
  6
CONTINUOUS
100
AcDbLine
 10
143.498695549438
 20
62.66088403333208
 30
0.0000000000000062
 11
143.5126577443705
 21
64.26660589377704
 31
0.0000000000000062
  0
LINE
  5
2A1
330
1F
100
AcDbEntity
  8
OBRYS
  6
CONTINUOUS
100
AcDbLine
 10
143.498695549438
 20
110.8608840333321
 30
0.0000000000000062
 11
123.162658549438
 21
110.8608840333321
 31
0.0000000000000062
  0
LINE
  5
2A2
330
1F
100
AcDbEntity
  8
OBRYS
  6
CONTINUOUS
100
AcDbLine
 10
123.162658549438
 20
110.8608840333321
 30
0.0000000000000062
 11
123.1486954065769
 21
109.0176788506621
 31
0.0000000000000062
  0
LINE
  5
2A3
330
1F
100
AcDbEntity
  8
OBRYS
  6
CONTINUOUS
100
AcDbLine
 10
143.498695549438
 20
110.8608840333321
 30
0.0000000000000062
 11
143.5126577432463
 21
109.2551583934994
 31
0.0000000000000062
  0
LINE
  5
2A4
330
1F
100
AcDbEntity
  8
OBRYS
  6
CONTINUOUS
100
AcDbLine
 10
151.948695549438
 20
110.8608840333321
 30
0.0000000000000062
 11
146.998695549438
 21
110.8608840333321
 31
0.0000000000000062
  0
LINE
  5
2A5
330
1F
100
AcDbEntity
  8
OBRYS
  6
CONTINUOUS
100
AcDbLine
 10
146.998695549438
 20
110.8608840333321
 30
0.0000000000000062
 11
146.9847316744099
 21
109.2546695123444
 31
0.0000000000000062
  0
LINE
  5
2A6
330
1F
100
AcDbEntity
  8
OBRYS
  6
CONTINUOUS
100
AcDbLine
 10
151.948695549438
 20
110.8608840333321
 30
0.0000000000000062
 11
151.9486945759959
 21
109.253970567574
 31
0.0000000000000062
  0
LINE
  5
2A7
330
1F
100
AcDbEntity
  8
OBRYS
  6
CONTINUOUS
100
AcDbLine
 10
151.948695549438
 20
62.66088403333208
 30
0.0000000000000062
 11
146.998695549438
 21
62.66088403333208
 31
0.0000000000000062
  0
LINE
  5
2A8
330
1F
100
AcDbEntity
  8
OBRYS
  6
CONTINUOUS
100
AcDbLine
 10
146.998695549438
 20
62.66088403333208
 30
0.0000000000000062
 11
146.9847316756353
 21
64.26709441563563
 31
0.0000000000000062
  0
LINE
  5
2A9
330
1F
100
AcDbEntity
  8
OBRYS
  6
CONTINUOUS
100
AcDbLine
 10
151.948695549438
 20
62.66088403333208
 30
0.0000000000000062
 11
151.9486945773659
 21
64.26779284672625
 31
0.0000000000000062
  0
LINE
  5
2AA
330
1F
100
AcDbEntity
  8
OBRYS
  6
CONTINUOUS
100
AcDbLine
 10
146.987996549438
 20
109.6349100333321
 30
0.0000000000000062
 11
143.509553549438
 21
109.6166970333321
 31
0.0000000000000062
  0
LINE
  5
2AB
330
1F
100
AcDbEntity
  8
OBRYS
  6
CONTINUOUS
100
AcDbLine
 10
146.998695549438
 20
110.8608840333321
 30
0.0000000000000062
 11
143.498695549438
 21
110.8608840333321
 31
0.0000000000000062
  0
LINE
  5
2AC
330
1F
100
AcDbEntity
  8
OBRYS
  6
CONTINUOUS
100
AcDbLine
 10
146.987996549438
 20
63.88685903333209
 30
0.0000000000000062
 11
143.509553549438
 21
63.90507203333209
 31
0.0000000000000062
  0
LINE
  5
2AD
330
1F
100
AcDbEntity
  8
OBRYS
  6
CONTINUOUS
100
AcDbLine
 10
143.498695549438
 20
62.66088403333208
 30
0.0000000000000062
 11
146.998695549438
 21
62.66088403333208
 31
0.0000000000000062
  0
LINE
  5
2AE
330
1F
100
AcDbEntity
  8
OBRYS
  6
CONTINUOUS
100
AcDbLine
 10
147.341792549438
 20
61.86991003333208
 30
0.0000000000000062
 11
147.348695549438
 21
62.66088403333208
 31
0.0000000000000062
  0
LINE
  5
2AF
330
1F
100
AcDbEntity
  8
OBRYS
  6
CONTINUOUS
100
AcDbLine
 10
134.870510549438
 20
61.76107503333208
 30
0.0000000000000062
 11
147.341792549438
 21
61.86991003333208
 31
0.0000000000000062
  0
LINE
  5
2B0
330
1F
100
AcDbEntity
  8
OBRYS
  6
CONTINUOUS
100
AcDbLine
 10
134.870510549438
 20
61.76107503333208
 30
0.0000000000000062
 11
134.862658549438
 21
62.66088403333208
 31
0.0000000000000062
  0
LINE
  5
2B1
330
1F
100
AcDbEntity
  8
OBRYS
  6
CONTINUOUS
100
AcDbLine
 10
147.341792549438
 20
111.6518590333321
 30
0.0000000000000062
 11
134.870510549438
 21
111.7606940333321
 31
0.0000000000000062
  0
LINE
  5
2B2
330
1F
100
AcDbEntity
  8
OBRYS
  6
CONTINUOUS
100
AcDbLine
 10
147.341792549438
 20
111.6518590333321
 30
0.0000000000000062
 11
147.348695549438
 21
110.8608840333321
 31
0.0000000000000062
  0
LINE
  5
2B3
330
1F
100
AcDbEntity
  8
OBRYS
  6
CONTINUOUS
100
AcDbLine
 10
134.870510549438
 20
111.7606940333321
 30
0.0000000000000062
 11
134.862658549438
 21
110.8608840333321
 31
0.0000000000000062
  0
LINE
  5
2B4
330
1F
100
AcDbEntity
  8
OBRYS
  6
CONTINUOUS
100
AcDbLine
 10
153.677323549438
 20
87.18132603333208
 30
0.0000000000000062
 11
153.348693549438
 21
87.1853410333321
 31
0.0000000000000062
  0
LINE
  5
2B5
330
1F
100
AcDbEntity
  8
OBRYS
  6
CONTINUOUS
100
AcDbLine
 10
153.348693549438
 20
86.33183903333207
 30
0.0000000000000062
 11
153.677323549438
 21
86.33585403333208
 31
0.0000000000000062
  0
LINE
  5
2B6
330
1F
100
AcDbEntity
  8
OBRYS
  6
CONTINUOUS
100
AcDbLine
 10
153.348699549438
 20
87.3841860333321
 30
0.0000000000000062
 11
153.677323549438
 21
87.3813180333321
 31
0.0000000000000062
  0
LINE
  5
2B7
330
1F
100
AcDbEntity
  8
OBRYS
  6
CONTINUOUS
100
AcDbLine
 10
153.6790688065477
 20
87.38130280195097
 30
0.0000000000000062
 11
153.677323549438
 21
86.13586203333207
 31
0.0000000000000062
  0
LINE
  5
2B8
330
1F
100
AcDbEntity
  8
OBRYS
  6
CONTINUOUS
100
AcDbLine
 10
156.0834328565377
 20
86.15685964871923
 30
0.0000000000000062
 11
156.0834328565377
 21
87.36032041794493
 31
0.0000000000000062
  0
LINE
  5
2B9
330
1F
100
AcDbEntity
  8
OBRYS
  6
CONTINUOUS
100
AcDbLine
 10
153.677323549438
 20
86.33585403333208
 30
0.0000000000000062
 11
156.083432549438
 21
86.35685203333207
 31
0.0000000000000062
  0
LINE
  5
2BA
330
1F
100
AcDbEntity
  8
OBRYS
  6
CONTINUOUS
100
AcDbLine
 10
156.083432549438
 20
87.16032803333209
 30
0.0000000000000062
 11
153.677323549438
 21
87.18132603333208
 31
0.0000000000000062
  0
LINE
  5
2BB
330
1F
100
AcDbEntity
  8
OBRYS
  6
CONTINUOUS
100
AcDbLine
 10
153.677323549438
 20
86.13586203333207
 30
0.0000000000000062
 11
153.348699549438
 21
86.1329940333321
 31
0.0000000000000062
  0
LINE
  5
2BC
330
1F
100
AcDbEntity
  8
OBRYS
  6
CONTINUOUS
100
AcDbLine
 10
156.083432549438
 20
86.1568600333321
 30
0.0000000000000062
 11
153.677323549438
 21
86.13586203333207
 31
0.0000000000000062
  0
LINE
  5
2BD
330
1F
100
AcDbEntity
  8
OBRYS
  6
CONTINUOUS
100
AcDbLine
 10
156.083432549438
 20
86.35685203333207
 30
0.0000000000000062
 11
156.281687549438
 21
86.35685203333207
 31
0.0000000000000062
  0
LINE
  5
2BE
330
1F
100
AcDbEntity
  8
OBRYS
  6
CONTINUOUS
100
AcDbLine
 10
153.677323549438
 20
87.3813180333321
 30
0.0000000000000062
 11
156.083432549438
 21
87.3603200333321
 31
0.0000000000000062
  0
LINE
  5
2BF
330
1F
100
AcDbEntity
  8
OBRYS
  6
CONTINUOUS
100
AcDbLine
 10
156.281687549438
 20
87.16032803333209
 30
0.0000000000000062
 11
156.281687549438
 21
86.35685203333207
 31
0.0000000000000062
  0
LINE
  5
2C0
330
1F
100
AcDbEntity
  8
OBRYS
  6
CONTINUOUS
100
AcDbLine
 10
232.8600168351523
 20
64.50409007314488
 30
0.0000000000000062
 11
232.8600168351523
 21
109.0176788506621
 31
0.0000000000000062
  0
LINE
  5
2C1
330
1F
100
AcDbEntity
  8
OBRYS
  6
CONTINUOUS
100
AcDbLine
 10
197.2600168351522
 20
109.0176788506621
 30
0.0000000000000062
 11
197.2600168351522
 21
64.50409007314488
 31
0.0000000000000062
  0
LINE
  5
2C2
330
1F
100
AcDbEntity
  8
OBRYS
  6
CONTINUOUS
100
AcDbLine
 10
227.710016549438
 20
109.2608840333321
 30
0.0000000000000062
 11
231.560016549438
 21
109.2608840333321
 31
0.0000000000000062
  0
LINE
  5
2C3
330
1F
100
AcDbEntity
  8
OBRYS
  6
CONTINUOUS
100
AcDbLine
 10
227.710016549438
 20
64.26088403333208
 30
0.0000000000000062
 11
231.560016549438
 21
64.26088403333208
 31
0.0000000000000062
  0
LINE
  5
2C4
330
1F
100
AcDbEntity
  8
OBRYS
  6
CONTINUOUS
100
AcDbLine
 10
199.910016549438
 20
109.2608840333321
 30
0.0000000000000062
 11
202.410016549438
 21
109.2608840333321
 31
0.0000000000000062
  0
LINE
  5
2C5
330
1F
100
AcDbEntity
  8
OBRYS
  6
CONTINUOUS
100
AcDbLine
 10
198.560016549438
 20
64.26088403333208
 30
0.0000000000000062
 11
202.410016549438
 21
64.26088403333208
 31
0.0000000000000062
  0
LINE
  5
2C6
330
1F
100
AcDbEntity
  8
OBRYS
  6
CONTINUOUS
100
AcDbLine
 10
199.910016549438
 20
109.2608840333321
 30
0.0000000000000062
 11
199.910016549438
 21
109.2176712352749
 31
0.0000000000000062
  0
LINE
  5
2C7
330
1F
100
AcDbEntity
  8
OBRYS
  6
CONTINUOUS
100
AcDbLine
 10
198.560016549438
 20
64.26088403333208
 30
0.0000000000000062
 11
198.560016549438
 21
64.3040976885321
 31
0.0000000000000062
  0
LINE
  5
2C8
330
1F
100
AcDbEntity
  8
OBRYS
  6
CONTINUOUS
100
AcDbLine
 10
232.794926549438
 20
65.82574603333208
 30
0.0000000000000062
 11
232.794926549438
 21
107.6960230333321
 31
0.0000000000000062
  0
LINE
  5
2C9
330
1F
100
AcDbEntity
  8
OBRYS
  6
CONTINUOUS
100
AcDbLine
 10
232.794926549438
 20
107.6868390333321
 30
0.0000000000000062
 11
197.325106549438
 21
107.6868390333321
 31
0.0000000000000062
  0
LINE
  5
2CA
330
1F
100
AcDbEntity
  8
OBRYS
  6
CONTINUOUS
100
AcDbLine
 10
197.3251074023361
 20
65.82574573903437
 30
0.0000000000000062
 11
232.794926549438
 21
65.83493003333209
 31
0.0000000000000062
  0
LINE
  5
2CB
330
1F
100
AcDbEntity
  8
OBRYS
  6
CONTINUOUS
100
AcDbLine
 10
198.824878549438
 20
64.32597403333207
 30
0.0000000000000062
 11
231.295155549438
 21
64.32597403333207
 31
0.0000000000000062
  0
LINE
  5
2CC
330
1F
100
AcDbEntity
  8
OBRYS
  6
CONTINUOUS
100
AcDbLine
 10
231.295155549438
 20
109.1957950333321
 30
0.0000000000000062
 11
198.824878549438
 21
109.1957950333321
 31
0.0000000000000062
  0
LINE
  5
2CD
330
1F
100
AcDbEntity
  8
OBRYS
  6
CONTINUOUS
100
AcDbLine
 10
232.661762142252
 20
109.2176712352749
 30
0.0000000000000062
 11
197.4582715280526
 21
109.2176712352749
 31
0.0000000000000062
  0
LINE
  5
2CE
330
1F
100
AcDbEntity
  8
OBRYS
  6
CONTINUOUS
100
AcDbLine
 10
197.4582715280526
 20
64.3040976885321
 30
0.0000000000000062
 11
232.661762142252
 21
64.3040976885321
 31
0.0000000000000062
  0
LINE
  5
2CF
330
1F
100
AcDbEntity
  8
OBRYS
  6
CONTINUOUS
100
AcDbLine
 10
202.410016549438
 20
62.66088403333208
 30
0.0000000000000062
 11
227.710016549438
 21
62.66088403333208
 31
0.0000000000000062
  0
LINE
  5
2D0
330
1F
100
AcDbEntity
  8
OBRYS
  6
CONTINUOUS
100
AcDbLine
 10
227.710016549438
 20
110.8608840333321
 30
0.0000000000000062
 11
202.410016549438
 21
110.8608840333321
 31
0.0000000000000062
  0
LINE
  5
2D1
330
1F
100
AcDbEntity
  8
OBRYS
  6
CONTINUOUS
100
AcDbLine
 10
221.451973549438
 20
111.7606940333321
 30
0.0000000000000062
 11
218.668059549438
 21
111.7606940333321
 31
0.0000000000000062
  0
LINE
  5
2D2
330
1F
100
AcDbEntity
  8
OBRYS
  6
CONTINUOUS
100
AcDbLine
 10
218.668059549438
 20
61.76107503333208
 30
0.0000000000000062
 11
221.451973549438
 21
61.76107503333208
 31
0.0000000000000062
  0
LINE
  5
2D6
330
1F
100
AcDbEntity
  8
OBRYS
  6
CONTINUOUS
100
AcDbLine
 10
218.668059549438
 20
111.7606940333321
 30
0.0000000000000062
 11
218.660138549438
 21
110.8608840333321
 31
0.0000000000000062
  0
LINE
  5
2D7
330
1F
100
AcDbEntity
  8
OBRYS
  6
CONTINUOUS
100
AcDbLine
 10
218.668059549438
 20
61.76107503333208
 30
0.0000000000000062
 11
218.660138549438
 21
62.66088403333208
 31
0.0000000000000062
  0
LINE
  5
2D8
330
1F
100
AcDbEntity
  8
OBRYS
  6
CONTINUOUS
100
AcDbLine
 10
216.451973549438
 20
61.76107503333208
 30
0.0000000000000062
 11
216.459894549438
 21
62.66088403333208
 31
0.0000000000000062
  0
LINE
  5
2D9
330
1F
100
AcDbEntity
  8
OBRYS
  6
CONTINUOUS
100
AcDbLine
 10
216.451973549438
 20
111.7606940333321
 30
0.0000000000000062
 11
216.459894549438
 21
110.8608840333321
 31
0.0000000000000062
  0
LINE
  5
2DA
330
1F
100
AcDbEntity
  8
OBRYS
  6
CONTINUOUS
100
AcDbLine
 10
213.668059549438
 20
111.7606940333321
 30
0.0000000000000062
 11
216.451973549438
 21
111.7606940333321
 31
0.0000000000000062
  0
LINE
  5
2DB
330
1F
100
AcDbEntity
  8
OBRYS
  6
CONTINUOUS
100
AcDbLine
 10
213.668059549438
 20
61.76107503333208
 30
0.0000000000000062
 11
216.451973549438
 21
61.76107503333208
 31
0.0000000000000062
  0
LINE
  5
2DC
330
1F
100
AcDbEntity
  8
OBRYS
  6
CONTINUOUS
100
AcDbLine
 10
213.668059549438
 20
61.76107503333208
 30
0.0000000000000062
 11
213.660138549438
 21
62.66088403333208
 31
0.0000000000000062
  0
LINE
  5
2DD
330
1F
100
AcDbEntity
  8
OBRYS
  6
CONTINUOUS
100
AcDbLine
 10
213.668059549438
 20
111.7606940333321
 30
0.0000000000000062
 11
213.660138549438
 21
110.8608840333321
 31
0.0000000000000062
  0
LINE
  5
2DE
330
1F
100
AcDbEntity
  8
OBRYS
  6
CONTINUOUS
100
AcDbLine
 10
211.451973549438
 20
61.76107503333208
 30
0.0000000000000062
 11
211.459894549438
 21
62.66088403333208
 31
0.0000000000000062
  0
LINE
  5
2DF
330
1F
100
AcDbEntity
  8
OBRYS
  6
CONTINUOUS
100
AcDbLine
 10
211.451973549438
 20
111.7606940333321
 30
0.0000000000000062
 11
211.459894549438
 21
110.8608840333321
 31
0.0000000000000062
  0
LINE
  5
2E0
330
1F
100
AcDbEntity
  8
OBRYS
  6
CONTINUOUS
100
AcDbLine
 10
208.668059549438
 20
61.76107503333208
 30
0.0000000000000062
 11
211.451973549438
 21
61.76107503333208
 31
0.0000000000000062
  0
LINE
  5
2E1
330
1F
100
AcDbEntity
  8
OBRYS
  6
CONTINUOUS
100
AcDbLine
 10
208.668059549438
 20
111.7606940333321
 30
0.0000000000000062
 11
211.451973549438
 21
111.7606940333321
 31
0.0000000000000062
  0
LINE
  5
2E3
330
1F
100
AcDbEntity
  8
OBRYS
  6
CONTINUOUS
100
AcDbLine
 10
208.668059549438
 20
61.76107503333208
 30
0.0000000000000062
 11
208.660138549438
 21
62.66088403333208
 31
0.0000000000000062
  0
LINE
  5
2E4
330
1F
100
AcDbEntity
  8
OBRYS
  6
CONTINUOUS
100
AcDbLine
 10
208.668059549438
 20
111.7606940333321
 30
0.0000000000000062
 11
208.660138549438
 21
110.8608840333321
 31
0.0000000000000062
  0
LINE
  5
2E5
330
1F
100
AcDbEntity
  8
OBRYS
  6
CONTINUOUS
100
AcDbLine
 10
202.410016549438
 20
110.8608840333321
 30
0.0000000000000062
 11
202.410016549438
 21
109.2176712352749
 31
0.0000000000000062
  0
LINE
  5
2E6
330
1F
100
AcDbEntity
  8
OBRYS
  6
CONTINUOUS
100
AcDbLine
 10
202.410016549438
 20
62.66088403333208
 30
0.0000000000000062
 11
202.410016549438
 21
64.3040976885321
 31
0.0000000000000062
  0
LINE
  5
2E7
330
1F
100
AcDbEntity
  8
OBRYS
  6
CONTINUOUS
100
AcDbLine
 10
197.325106549438
 20
107.6960230333321
 30
0.0000000000000062
 11
197.325106549438
 21
65.82574603333208
 31
0.0000000000000062
  0
LINE
  5
2F0
330
1F
100
AcDbEntity
  8
OBRYS
  6
CONTINUOUS
100
AcDbLine
 10
231.5600051147709
 20
109.2192450288859
 30
0.0000000000000062
 11
231.560016549438
 21
109.2608840333321
 31
0.0000000000000062
  0
LINE
  5
2F1
330
1F
100
AcDbEntity
  8
OBRYS
  6
CONTINUOUS
100
AcDbLine
 10
231.560016549438
 20
64.26088403333208
 30
0.0000000000000062
 11
231.5600169615608
 21
64.3040976885321
 31
0.0000000000000062
  0
LINE
  5
2F2
330
1F
100
AcDbEntity
  8
OBRYS
  6
CONTINUOUS
100
AcDbLine
 10
227.710016549438
 20
62.66088403333208
 30
0.0000000000000062
 11
227.710016549438
 21
64.3040976885321
 31
0.0000000000000062
  0
LINE
  5
2F3
330
1F
100
AcDbEntity
  8
OBRYS
  6
CONTINUOUS
100
AcDbLine
 10
227.710016549438
 20
110.8608840333321
 30
0.0000000000000062
 11
227.710016549438
 21
109.2176712352749
 31
0.0000000000000062
  0
LINE
  5
2F4
330
1F
100
AcDbEntity
  8
OBRYS
  6
CONTINUOUS
100
AcDbLine
 10
221.451973549438
 20
61.76107503333208
 30
0.0000000000000062
 11
221.459894549438
 21
62.66088403333208
 31
0.0000000000000062
  0
LINE
  5
2F5
330
1F
100
AcDbEntity
  8
OBRYS
  6
CONTINUOUS
100
AcDbLine
 10
221.451973549438
 20
111.7606940333321
 30
0.0000000000000062
 11
221.459894549438
 21
110.8608840333321
 31
0.0000000000000062
  0
ARC
  5
2F6
330
1F
100
AcDbEntity
  8
OBRYS
  6
CONTINUOUS
100
AcDbCircle
 10
-153.848695549438
 20
73.05737503333208
 30
-0.0000000000000099
 40
0.5
210
-6.123031769111886E-17
220
0.0
230
-1.0
100
AcDbArc
 50
0.0
 51
89.50000000000195
  0
ARC
  5
2F7
330
1F
100
AcDbEntity
  8
OBRYS
  6
CONTINUOUS
100
AcDbCircle
 10
-153.848695549438
 20
76.9643940333321
 30
-0.0000000000000099
 40
0.5
210
-6.123031769111886E-17
220
0.0
230
-1.0
100
AcDbArc
 50
270.4999999999981
 51
0.0
  0
ARC
  5
2F8
330
1F
100
AcDbEntity
  8
OBRYS
  6
CONTINUOUS
100
AcDbCircle
 10
-153.848695549438
 20
96.55737503333208
 30
-0.0000000000000099
 40
0.5
210
-6.123031769111886E-17
220
0.0
230
-1.0
100
AcDbArc
 50
0.0
 51
89.50000000000195
  0
ARC
  5
2F9
330
1F
100
AcDbEntity
  8
OBRYS
  6
CONTINUOUS
100
AcDbCircle
 10
-153.848695549438
 20
100.4643940333321
 30
-0.0000000000000099
 40
0.5
210
-6.123031769111886E-17
220
0.0
230
-1.0
100
AcDbArc
 50
270.4999999999981
 51
0.0
  0
ARC
  5
2FA
330
1F
100
AcDbEntity
  8
OBRYS
  6
CONTINUOUS
100
AcDbCircle
 10
158.248695549438
 20
74.0958110333321
 30
0.0000000000000062
 40
0.5
100
AcDbArc
 50
270.4999999999981
 51
0.0
  0
ARC
  5
2FB
330
1F
100
AcDbEntity
  8
OBRYS
  6
CONTINUOUS
100
AcDbCircle
 10
158.248695549438
 20
75.92595803333208
 30
0.0000000000000062
 40
0.5
100
AcDbArc
 50
0.0
 51
89.50000000000195
  0
ARC
  5
2FC
330
1F
100
AcDbEntity
  8
OBRYS
  6
CONTINUOUS
100
AcDbCircle
 10
158.248695549438
 20
97.5958110333321
 30
0.0000000000000062
 40
0.5
100
AcDbArc
 50
270.4999999999981
 51
0.0
  0
ARC
  5
2FD
330
1F
100
AcDbEntity
  8
OBRYS
  6
CONTINUOUS
100
AcDbCircle
 10
158.248695549438
 20
99.42595803333208
 30
0.0000000000000062
 40
0.5
100
AcDbArc
 50
0.0
 51
89.50000000000195
  0
ARC
  5
2FE
330
1F
100
AcDbEntity
  8
OBRYS
  6
CONTINUOUS
100
AcDbCircle
 10
156.081687549438
 20
87.16032803333209
 30
0.0000000000000062
 40
0.2
100
AcDbArc
 50
0.0
 51
89.50000000000195
  0
ARC
  5
2FF
330
1F
100
AcDbEntity
  8
OBRYS
  6
CONTINUOUS
100
AcDbCircle
 10
156.081687549438
 20
86.35685203333207
 30
0.0000000000000062
 40
0.2
100
AcDbArc
 50
270.4999999999981
 51
0.0
  0
ARC
  5
300
330
1F
100
AcDbEntity
  8
OBRYS
  6
CONTINUOUS
100
AcDbCircle
 10
161.249484549438
 20
64.16088403333208
 30
0.0000000000000062
 40
2.3
100
AcDbArc
 50
75.00000000000041
 51
90.0
  0
ARC
  5
301
330
1F
100
AcDbEntity
  8
OBRYS
  6
CONTINUOUS
100
AcDbCircle
 10
-161.249484549438
 20
64.16088403333208
 30
-0.0000000000000099
 40
1.5
210
-6.123031769111886E-17
220
0.0
230
-1.0
100
AcDbArc
 50
90.0
 51
104.9999999999991
  0
ARC
  5
302
330
1F
100
AcDbEntity
  8
OBRYS
  6
CONTINUOUS
100
AcDbCircle
 10
-161.249484549438
 20
109.3608840333321
 30
-0.0000000000000099
 40
1.5
210
-6.123031769111886E-17
220
0.0
230
-1.0
100
AcDbArc
 50
255.0000000000009
 51
270.0
  0
ARC
  5
303
330
1F
100
AcDbEntity
  8
OBRYS
  6
CONTINUOUS
100
AcDbCircle
 10
161.249484549438
 20
109.3608840333321
 30
0.0000000000000062
 40
2.3
100
AcDbArc
 50
270.0
 51
284.9999999999998
  0
ELLIPSE
  5
304
330
1F
100
AcDbEntity
  8
OBRYS
  6
CONTINUOUS
100
AcDbEllipse
 10
161.249484549438
 20
65.67795203333208
 30
0.0000000000000062
 11
1.5
 21
0.0
 31
0.0
210
0.0
220
0.0
230
1.0
 40
0.999391
 41
4.712388980384691
 42
4.974188368183841
  0
ELLIPSE
  5
305
330
1F
100
AcDbEntity
  8
OBRYS
  6
CONTINUOUS
100
AcDbEllipse
 10
161.249484549438
 20
65.67795203333208
 30
0.0000000000000062
 11
-2.3
 21
-4.917882562995363E-18
 31
0.0
210
0.0
220
0.0
230
1.0
 40
0.999391
 41
1.570796326794898
 42
1.832595714594047
  0
ELLIPSE
  5
306
330
1F
100
AcDbEntity
  8
OBRYS
  6
CONTINUOUS
100
AcDbEllipse
 10
161.249484549438
 20
65.5732530333321
 30
0.0000000000000062
 11
2.3
 21
0.0
 31
0.0
210
0.0
220
0.0
230
1.0
 40
0.999391
 41
4.712388980384691
 42
4.974188368183841
  0
ELLIPSE
  5
307
330
1F
100
AcDbEntity
  8
OBRYS
  6
CONTINUOUS
100
AcDbEllipse
 10
161.249484549438
 20
107.8438160333321
 30
0.0000000000000062
 11
-1.5
 21
-3.207314714996976E-18
 31
0.0
210
0.0
220
0.0
230
1.0
 40
0.999391
 41
4.450589592585541
 42
4.712388980384688
  0
ELLIPSE
  5
308
330
1F
100
AcDbEntity
  8
OBRYS
  6
CONTINUOUS
100
AcDbEllipse
 10
161.249484549438
 20
107.8438160333321
 30
0.0000000000000062
 11
2.3
 21
0.0
 31
0.0
210
0.0
220
0.0
230
1.0
 40
0.999391
 41
1.308996938995746
 42
1.570796326794895
  0
ELLIPSE
  5
309
330
1F
100
AcDbEntity
  8
OBRYS
  6
CONTINUOUS
100
AcDbEllipse
 10
161.249484549438
 20
107.9485160333321
 30
0.0000000000000062
 11
-2.3
 21
-4.917882562995363E-18
 31
0.0
210
0.0
220
0.0
230
1.0
 40
0.999391
 41
4.45058959258554
 42
4.712388980384688
  0
ELLIPSE
  5
30A
330
1F
100
AcDbEntity
  8
OBRYS
  6
CONTINUOUS
100
AcDbEllipse
 10
231.294698549438
 20
107.6955660333321
 30
0.0000000000000062
 11
-1.060983283754372
 21
-1.060983283754372
 31
0.0
210
0.0
220
0.0
230
-1.0
 40
0.9996949999999999
 41
2.356346783439945
 42
3.926838523739657
  0
ELLIPSE
  5
30B
330
1F
100
AcDbEntity
  8
OBRYS
  6
CONTINUOUS
100
AcDbEllipse
 10
231.294698549438
 20
65.82620303333209
 30
0.0000000000000062
 11
-1.060983283754372
 21
1.060983283754372
 31
0.0
210
0.0
220
0.0
230
-1.0
 40
0.9996949999999999
 41
2.35634678343994
 42
3.926838523739641
  0
ELLIPSE
  5
30C
102
{ACAD_REACTORS
330
40E
102
}
330
1F
100
AcDbEntity
  8
OBRYS
  6
CONTINUOUS
100
AcDbEllipse
 10
198.825335549438
 20
107.6955660333321
 30
0.0000000000000062
 11
1.060983283754372
 21
-1.060983283754372
 31
0.0
210
0.0
220
0.0
230
-1.0
 40
0.9996949999999999
 41
2.356346783439922
 42
3.92683852373966
  0
ELLIPSE
  5
30D
330
1F
100
AcDbEntity
  8
OBRYS
  6
CONTINUOUS
100
AcDbEllipse
 10
198.825335549438
 20
65.82620303333209
 30
0.0000000000000062
 11
1.060983283754373
 21
1.060983283754371
 31
0.0
210
0.0
220
0.0
230
-1.0
 40
0.999695
 41
2.356346783439923
 42
3.926838523739645
  0
SPLINE
  5
30E
330
1F
100
AcDbEntity
  8
OBRYS
  6
CONTINUOUS
100
AcDbSpline
210
0.0
220
0.0
230
1.0
 70
     8
 71
     2
 72
    11
 73
     8
 74
     0
 42
0.000000001
 43
0.0000000001
 40
0.0
 40
0.0
 40
0.0
 40
0.25
 40
0.25
 40
0.5
 40
0.75
 40
0.75
 40
1.0
 40
1.0
 40
1.0
 10
102.8492884521873
 20
65.82573568424488
 30
0.0000000000000062
 10
105.2371561016798
 20
65.78327769754728
 30
0.0000000000000064
 10
107.9236954065804
 20
65.59143455741079
 30
0.0000000000000063
 10
109.6146986640404
 20
65.4706816712347
 30
0.0000000000000062
 10
116.3813653834918
 20
64.82632938970269
 30
0.0000000000000058
 10
118.0736954065777
 20
64.705450164051
 30
0.0000000000000065
 10
120.8915915702258
 20
64.5041743481153
 30
0.0000000000000064
 10
123.1486954065769
 20
64.50409007314488
 30
0.0000000000000062
  0
SPLINE
  5
30F
330
1F
100
AcDbEntity
  8
OBRYS
  6
CONTINUOUS
100
AcDbSpline
210
0.0
220
0.0
230
1.0
 70
     8
 71
     2
 72
    11
 73
     8
 74
     0
 42
0.000000001
 43
0.0000000001
 40
0.0
 40
0.0
 40
0.0
 40
0.25
 40
0.25
 40
0.5
 40
0.75
 40
0.75
 40
1.0
 40
1.0
 40
1.0
 10
123.1486954065769
 20
109.0176788506621
 30
0.0000000000000062
 10
120.8923287127116
 20
109.0175946031914
 30
0.0000000000000064
 10
118.0736954065746
 20
108.8163187597504
 30
0.0000000000000065
 10
116.3826921002906
 20
108.6955658700457
 30
0.0000000000000058
 10
109.6160253835408
 20
108.0512135887148
 30
0.0000000000000062
 10
107.9236954065779
 20
107.9303343663975
 30
0.0000000000000063
 10
105.2378950722042
 20
107.7384938505773
 30
0.0000000000000064
 10
102.848695549438
 20
107.6960230333321
 30
0.0000000000000062
  0
SPLINE
  5
310
330
1F
100
AcDbEntity
  8
OBRYS
  6
CONTINUOUS
100
AcDbSpline
210
0.0
220
0.0
230
1.0
 70
     8
 71
     3
 72
    11
 73
     7
 74
     0
 42
0.000000001
 43
0.0000000001
 40
0.0
 40
0.0
 40
0.0
 40
0.0
 40
0.2504220839237732
 40
0.500598467940323
 40
0.7571643748838743
 40
1.0
 40
1.0
 40
1.0
 40
1.0
 10
102.322516796921
 20
109.1866101099646
 30
0.0000000000000062
 10
102.3027030112808
 20
109.1637307138209
 30
0.0000000000000062
 10
102.2630948801601
 20
109.1179943694959
 30
0.0000000000000066
 10
102.2176588179282
 20
108.7676926115028
 30
0.0000000000000066
 10
102.1911644898394
 20
108.2688484600832
 30
0.0000000000000066
 10
102.1933299295896
 20
107.8757482444397
 30
0.0000000000000066
 10
102.1943828817366
 20
107.684601981421
 30
0.0000000000000066
  0
SPLINE
  5
311
330
1F
100
AcDbEntity
  8
OBRYS
  6
CONTINUOUS
100
AcDbSpline
210
0.0
220
0.0
230
1.0
 70
     8
 71
     3
 72
    18
 73
    14
 74
     0
 42
0.000000001
 43
0.0000000001
 40
0.0
 40
0.0
 40
0.0
 40
0.0
 40
0.125
 40
0.125
 40
0.25
 40
0.25
 40
0.5
 40
0.5
 40
0.75
 40
0.75
 40
0.875
 40
0.875
 40
1.0
 40
1.0
 40
1.0
 40
1.0
 10
102.322516796921
 20
64.3351588138425
 30
0.0000000000000062
 10
102.3124177263871
 20
64.33533509377438
 30
0.0000000000000062
 10
102.3024927327577
 20
64.3452662362966
 30
0.0000000000000062
 10
102.2833555300842
 20
64.3838967738856
 30
0.0000000000000062
 10
102.2741433210401
 20
64.41259616895238
 30
0.0000000000000062
 10
102.2481228169499
 20
64.52573452401498
 30
0.0000000000000066
 10
102.2329479232133
 20
64.63715428273969
 30
0.0000000000000066
 10
102.2092287440793
 20
64.9151946423923
 30
0.0000000000000066
 10
102.2006937839564
 20
65.08170593082627
 30
0.0000000000000066
 10
102.19384275518
 20
65.35389342405489
 30
0.0000000000000066
 10
102.192551724626
 20
65.44831483775579
 30
0.0000000000000066
 10
102.1919666447759
 20
65.64087233993698
 30
0.0000000000000066
 10
102.1926725954797
 20
65.73900842841738
 30
0.0000000000000066
 10
102.1943828817367
 20
65.83716694238609
 30
0.0000000000000066
  0
SPLINE
  5
312
330
1F
100
AcDbEntity
  8
OBRYS
  6
CONTINUOUS
100
AcDbSpline
210
0.0
220
0.0
230
1.0
 70
     8
 71
     3
 72
    10
 73
     6
 74
     0
 42
0.000000001
 43
0.0000000001
 40
0.0
 40
0.0
 40
0.0
 40
0.0
 40
0.5000000000001139
 40
0.5000000000001139
 40
1.0
 40
1.0
 40
1.0
 40
1.0
 10
102.1943828817367
 20
107.6846019814209
 30
0.0000000000000066
 10
101.6011752863359
 20
100.7100294749151
 30
0.0000000000000058
 10
101.0452049252894
 20
93.7354569684093
 30
0.0000000000000058
 10
101.0452049252894
 20
79.78631195540089
 30
0.0000000000000058
 10
101.6011752863354
 20
72.8117394488983
 30
0.0000000000000058
 10
102.1943828817359
 20
65.8371669423957
 30
0.0000000000000066
  0
SPLINE
  5
313
330
1F
100
AcDbEntity
  8
OBRYS
  6
CONTINUOUS
100
AcDbSpline
210
0.0
220
0.0
230
1.0
 70
     8
 71
     3
 72
    12
 73
     8
 74
     0
 42
0.000000001
 43
0.0000000001
 40
0.0
 40
0.0
 40
0.0
 40
0.0
 40
0.2565453039664912
 40
0.4991213735585752
 40
0.7080535265144561
 40
0.8748439580892325
 40
1.0
 40
1.0
 40
1.0
 40
1.0
 10
102.1943828817367
 20
107.6846019814211
 30
0.0000000000000066
 10
102.01253826169
 20
107.6848792143152
 30
0.0000000000000066
 10
101.6587507039813
 20
107.6854185844022
 30
0.0000000000000058
 10
101.2376431654181
 20
107.686013792983
 30
0.0000000000000058
 10
100.9832994278713
 20
107.6864559352622
 30
0.0000000000000058
 10
100.8655795102569
 20
107.6867579007532
 30
0.0000000000000063
 10
100.853761661298
 20
107.6868143623964
 30
0.0000000000000063
 10
100.8486954065769
 20
107.6868385672299
 30
0.0000000000000063
  0
SPLINE
  5
314
330
1F
100
AcDbEntity
  8
OBRYS
  6
CONTINUOUS
100
AcDbSpline
210
0.0
220
0.0
230
1.0
 70
     8
 71
     3
 72
    10
 73
     6
 74
     0
 42
0.000000001
 43
0.0000000001
 40
0.0
 40
0.0
 40
0.0
 40
0.0
 40
0.2327027727025153
 40
0.5801107045438518
 40
1.0
 40
1.0
 40
1.0
 40
1.0
 10
100.8486954065769
 20
65.83493035657699
 30
0.0000000000000063
 10
100.8662083748241
 20
65.83500109114658
 30
0.0000000000000063
 10
100.9098669020972
 20
65.8351774271674
 30
0.0000000000000058
 10
101.3560924824236
 20
65.8359465322211
 30
0.0000000000000058
 10
101.8978926854542
 20
65.8367353024083
 30
0.0000000000000058
 10
102.1943828817367
 20
65.83716694238609
 30
0.0000000000000066
  0
SPLINE
  5
315
330
1F
100
AcDbEntity
  8
OBRYS
  6
CONTINUOUS
100
AcDbSpline
210
0.0
220
0.0
230
1.0
 70
     8
 71
     3
 72
    10
 73
     6
 74
     0
 42
0.000000001
 43
0.0000000001
 40
0.0
 40
0.0
 40
0.0
 40
0.0
 40
0.4999999999999994
 40
0.4999999999999994
 40
1.0
 40
1.0
 40
1.0
 40
1.0
 10
231.295155549438
 20
64.32597403333207
 30
0.0000000000000062
 10
232.0073034491642
 20
72.81024839168589
 30
0.0000000000000062
 10
232.5634773825291
 20
79.78556642679467
 30
0.0000000000000062
 10
232.5634773825291
 20
93.7362024970123
 30
0.0000000000000062
 10
232.0073034491642
 20
100.7115205321212
 30
0.0000000000000062
 10
231.2951558437354
 20
109.1957941804341
 30
0.0000000000000062
  0
SPLINE
  5
316
330
1F
100
AcDbEntity
  8
OBRYS
  6
CONTINUOUS
100
AcDbSpline
210
0.0
220
0.0
230
1.0
 70
     8
 71
     3
 72
    10
 73
     6
 74
     0
 42
0.000000001
 43
0.0000000001
 40
0.0
 40
0.0
 40
0.0
 40
0.0
 40
0.4999999999999996
 40
0.4999999999999996
 40
1.0
 40
1.0
 40
1.0
 40
1.0
 10
198.824878549438
 20
109.1957950333321
 30
0.0000000000000062
 10
198.1127302211403
 20
100.7115205321212
 30
0.0000000000000062
 10
197.5565562877754
 20
93.73620249701239
 30
0.0000000000000062
 10
197.5565562877754
 20
79.78556642679467
 30
0.0000000000000062
 10
198.1127302211403
 20
72.81024839168589
 30
0.0000000000000062
 10
198.8248782551428
 20
64.32597488623017
 30
0.0000000000000062
  0
LINE
  5
317
330
1F
100
AcDbEntity
  8
OBRYS
100
AcDbLine
 10
161.174714549438
 20
63.52158336260541
 30
0.0000000000000062
 11
161.198695549438
 21
63.51081603333208
 31
0.0000000000000062
  0
LINE
  5
318
330
1F
100
AcDbEntity
  8
OBRYS
100
AcDbLine
 10
161.198695549438
 20
63.2260890333321
 30
0.0000000000000062
 11
161.170587549438
 21
63.20889103333209
 31
0.0000000000000062
  0
LINE
  5
319
330
1F
100
AcDbEntity
  8
OBRYS
100
AcDbLine
 10
161.078695549438
 20
63.67080903333209
 30
0.0000000000000062
 11
161.174714549438
 21
63.52158336260541
 31
0.0000000000000062
  0
LINE
  5
31A
330
1F
100
AcDbEntity
  8
OBRYS
100
AcDbLine
 10
161.078695549438
 20
63.67080903333209
 30
0.0000000000000062
 11
160.8995139838492
 21
64.92073035360337
 31
0.0000000000000061
  0
LINE
  5
31B
330
1F
100
AcDbEntity
  8
OBRYS
100
AcDbLine
 10
161.078695549438
 20
64.38505003333208
 30
0.0000000000000062
 11
160.8995139838492
 21
64.92073035360337
 31
0.0000000000000061
  0
LINE
  5
31C
330
1F
100
AcDbEntity
  8
OBRYS
100
AcDbLine
 10
161.174714549438
 20
64.32109603333208
 30
0.0000000000000062
 11
161.078695549438
 21
64.38505003333208
 31
0.0000000000000062
  0
LINE
  5
31D
330
1F
100
AcDbEntity
  8
OBRYS
100
AcDbLine
 10
161.198695549438
 20
64.31031903333209
 30
0.0000000000000062
 11
161.174714549438
 21
64.32109603333208
 31
0.0000000000000062
  0
LINE
  5
31E
330
1F
100
AcDbEntity
  8
OBRYS
100
AcDbLine
 10
160.8995139838492
 20
64.92073035360337
 30
0.0000000000000061
 11
160.8995139838492
 21
65.06088446190489
 31
0.0000000000000061
  0
LINE
  5
31F
330
1F
100
AcDbEntity
  8
OBRYS
100
AcDbLine
 10
160.8995139838492
 20
65.06088446190489
 30
0.0000000000000061
 11
161.0786954065846
 21
65.59656511994959
 31
0.0000000000000061
  0
LINE
  5
320
330
1F
100
AcDbEntity
  8
OBRYS
100
AcDbLine
 10
160.8995139838492
 20
65.06088446190489
 30
0.0000000000000061
 11
161.0786954065847
 21
66.3108059973425
 31
0.0000000000000061
  0
LINE
  5
321
330
1F
100
AcDbEntity
  8
OBRYS
100
AcDbLine
 10
161.179191549438
 20
65.66088403333208
 30
0.0000000000000062
 11
161.078695549438
 21
65.5965650333321
 31
0.0000000000000062
  0
LINE
  5
322
330
1F
100
AcDbEntity
  8
OBRYS
100
AcDbLine
 10
161.0786954065847
 20
66.3108059973425
 30
0.0000000000000061
 11
161.179192549438
 21
66.46088403333209
 31
0.0000000000000062
  0
LINE
  5
323
330
1F
100
AcDbEntity
  8
OBRYS
100
AcDbLine
 10
153.687381549438
 20
66.46088403333209
 30
0.0000000000000062
 11
153.698695549438
 21
66.45282603333209
 31
0.0000000000000062
  0
LINE
  5
324
330
1F
100
AcDbEntity
  8
OBRYS
100
AcDbLine
 10
160.8543491253287
 20
65.06088403333209
 30
0.0000000000000062
 11
160.8545448473749
 21
64.93073965715328
 31
0.0000000000000062
  0
LINE
  5
325
330
1F
100
AcDbEntity
  8
OBRYS
100
AcDbLine
 10
154.1543567019007
 20
65.0508080218666
 30
0.0000000000000062
 11
154.1545524239469
 21
64.9206636456878
 31
0.0000000000000062
  0
LINE
  5
326
330
1F
100
AcDbEntity
  8
OBRYS
100
AcDbLine
 10
161.0786954065847
 20
107.2861172499934
 30
0.0000000000000061
 11
161.194360549438
 21
107.0608840333321
 31
0.0000000000000062
  0
LINE
  5
327
330
1F
100
AcDbEntity
  8
OBRYS
100
AcDbLine
 10
161.194360549438
 20
107.8608840333321
 30
0.0000000000000062
 11
161.078695549438
 21
107.9574130333321
 31
0.0000000000000062
  0
LINE
  5
328
330
1F
100
AcDbEntity
  8
OBRYS
100
AcDbLine
 10
161.078695549438
 20
107.9574130333321
 30
0.0000000000000062
 11
160.8995141268368
 21
108.4608839734353
 31
0.0
  0
LINE
  5
329
330
1F
100
AcDbEntity
  8
OBRYS
100
AcDbLine
 10
160.8995141268368
 20
108.4608839734353
 30
0.0
 11
161.0786954065847
 21
107.2861172499934
 31
0.0000000000000061
  0
LINE
  5
32A
330
1F
100
AcDbEntity
  8
OBRYS
100
AcDbLine
 10
160.8995141268368
 20
108.4608839734353
 30
0.0
 11
160.8995139838493
 21
108.6010385702065
 31
0.0000000000000061
  0
LINE
  5
32B
330
1F
100
AcDbEntity
  8
OBRYS
100
AcDbLine
 10
160.8995139838493
 20
108.6010385702065
 30
0.0000000000000061
 11
161.0786954065847
 21
109.1045102324543
 31
0.0000000000000061
  0
LINE
  5
32C
330
1F
100
AcDbEntity
  8
OBRYS
100
AcDbLine
 10
160.8995139838493
 20
108.6010385702065
 30
0.0000000000000061
 11
161.078695549438
 21
109.7758060333321
 31
0.0000000000000062
  0
LINE
  5
32D
330
1F
100
AcDbEntity
  8
OBRYS
100
AcDbLine
 10
161.0786954065847
 20
109.1045102324543
 30
0.0000000000000061
 11
161.198695549438
 21
109.2064320333321
 31
0.0000000000000062
  0
LINE
  5
32E
330
1F
100
AcDbEntity
  8
OBRYS
100
AcDbLine
 10
161.078695549438
 20
109.7758060333321
 30
0.0000000000000062
 11
161.1918754316968
 21
110.0001857511709
 31
0.0000000000000062
  0
LINE
  5
32F
330
1F
100
AcDbEntity
  8
OBRYS
100
AcDbLine
 10
161.1918754316968
 20
110.0001857511709
 30
0.0000000000000062
 11
161.198695549438
 21
110.0059450335276
 31
0.0000000000000062
  0
LINE
  5
330
330
1F
100
AcDbEntity
  8
OBRYS
100
AcDbLine
 10
161.191025549438
 20
110.3128780333321
 30
0.0000000000000062
 11
161.198695549438
 21
110.3049870333321
 31
0.0000000000000062
  0
LINE
  5
331
330
1F
100
AcDbEntity
  8
OBRYS
100
AcDbLine
 10
160.8495141268368
 20
108.4608839224247
 30
0.0
 11
160.8495139838494
 21
108.6010385191959
 31
0.0000000000000061
  0
LINE
  5
332
330
1F
100
AcDbEntity
  8
OBRYS
100
AcDbLine
 10
154.1495141268403
 20
108.4608770870001
 30
0.0
 11
154.1495139838528
 21
108.6010316837713
 31
0.0000000000000061
  0
LINE
  5
333
330
1F
100
AcDbEntity
  8
OBRYS
100
AcDbLine
 10
153.6986954065848
 20
107.0689433711975
 30
0.0000000000000061
 11
153.687381549438
 21
107.0608840333321
 31
0.0000000000000062
  0
ARC
  5
334
330
1F
100
AcDbEntity
  8
OBRYS
  6
CONTINUOUS
100
AcDbCircle
 10
152.7486955492392
 20
108.617679032852
 30
0.0000000000000062
 40
0.4000000004800902
100
AcDbArc
 50
359.9978514770368
 51
89.99999997151444
  0
ARC
  5
335
330
1F
100
AcDbEntity
  8
OBRYS
  6
CONTINUOUS
100
AcDbCircle
 10
152.7479771336823
 20
108.6521775815232
 30
0.0000000000000062
 40
0.601709065941993
100
AcDbArc
 50
356.7117553781862
 51
89.43300661806903
  0
LINE
  5
336
330
1F
100
AcDbEntity
  8
OBRYS
100
AcDbLine
 10
102.848695549438
 20
109.2608840333321
 30
0.0000000000000062
 11
152.753931470737
 21
109.2538571871706
 31
0.0000000000000062
  0
ARC
  5
337
330
1F
100
AcDbEntity
  8
OBRYS
  6
CONTINUOUS
100
AcDbCircle
 10
152.748695549438
 20
64.9040900333321
 30
0.0000000000000062
 40
0.4000000000000002
100
AcDbArc
 50
270.0
 51
0.0
  0
ARC
  5
338
330
1F
100
AcDbEntity
  8
OBRYS
  6
CONTINUOUS
100
AcDbCircle
 10
152.7480131921454
 20
64.86957843843115
 30
0.0000000000000062
 40
0.6016738153834648
100
AcDbArc
 50
270.0950854961258
 51
3.289681936591303
  0
LINE
  5
339
330
1F
100
AcDbEntity
  8
OBRYS
100
AcDbLine
 10
102.8486954065769
 20
64.26088446190349
 30
0.0000000000000062
 11
152.7490117024627
 21
64.26790545158926
 31
0.0000000000000062
  0
LINE
  5
33A
330
1F
100
AcDbEntity
  8
OBRYS
100
AcDbLine
 10
100.8486954065769
 20
65.8349305717473
 30
0.0000000000000063
 11
100.8486954065769
 21
107.6868384949169
 31
0.0000000000000063
  0
ARC
  5
33B
330
1F
100
AcDbEntity
  8
OBRYS
100
AcDbCircle
 10
102.3486954065769
 20
65.8349305717473
 30
0.0000000000000062
 40
1.499999999999999
100
AcDbArc
 50
179.9999999999998
 51
268.9999443314369
  0
ARC
  5
33C
330
1F
100
AcDbEntity
  8
OBRYS
100
AcDbCircle
 10
102.3486954065769
 20
107.6868384949169
 30
0.0000000000000062
 40
1.5
100
AcDbArc
 50
91.00005566855985
 51
179.9999999999998
  0
LINE
  5
33D
330
1F
100
AcDbEntity
  8
OBRYS
100
AcDbLine
 10
232.661762142252
 20
64.3040976885321
 30
0.0000000000000062
 11
232.8600168351523
 21
64.50409007314488
 31
0.0000000000000062
  0
LINE
  5
33E
330
1F
100
AcDbEntity
  8
OBRYS
100
AcDbLine
 10
197.4582715280526
 20
109.2176712352749
 30
0.0000000000000062
 11
197.2600168351522
 21
109.0176788506621
 31
0.0000000000000062
  0
LINE
  5
33F
330
1F
100
AcDbEntity
  8
OBRYS
100
AcDbLine
 10
232.661762142252
 20
109.2176712352749
 30
0.0000000000000062
 11
232.8600168351523
 21
109.0176788506621
 31
0.0000000000000062
  0
LINE
  5
340
330
1F
100
AcDbEntity
  8
OBRYS
100
AcDbLine
 10
197.2600168351522
 20
64.50409007314488
 30
0.0000000000000062
 11
197.4582715280526
 21
64.3040976885321
 31
0.0000000000000062
  0
DIMENSION
  5
350
330
1F
100
AcDbEntity
  8
KOTY
100
AcDbDimension
  2
*D1
 10
153.348695549438
 20
48.67088167456775
 30
0.0
 11
127.0986954780075
 21
51.47238167456775
 31
0.0
 70
    32
  3
STANDARD
100
AcDbAlignedDimension
 13
100.8486954065769
 23
65.83493035657698
 33
0.0000000000000063
 14
153.348695549438
 24
64.90410503333256
 34
0.0000000000000062
100
AcDbRotatedDimension
1001
ACAD
1000
DSTYLE
1002
{
1070
   271
1070
     1
1070
   278
1070
    44
1070
   140
1040
3.0
1070
    73
1070
     0
1070
    77
1070
     1
1070
   147
1040
1.0
1070
    41
1040
3.0
1002
}
  0
DIMENSION
  5
360
330
1F
100
AcDbEntity
  8
KOTY
100
AcDbDimension
  2
*D2
 10
232.8600168351523
 20
45.49486064564417
 30
0.0
 11
215.0600168351523
 21
48.29636064564416
 31
0.0
 70
    32
  3
STANDARD
100
AcDbAlignedDimension
 13
197.2600168351522
 23
64.50409007314488
 33
0.0000000000000062
 14
232.8600168351523
 24
64.50409007314488
 34
0.0000000000000062
100
AcDbRotatedDimension
1001
ACAD
1000
DSTYLE
1002
{
1070
   271
1070
     1
1070
   278
1070
    44
1070
   140
1040
3.0
1070
    73
1070
     0
1070
    77
1070
     1
1070
   147
1040
1.0
1070
    41
1040
3.0
1002
}
  0
DIMENSION
  5
370
330
1F
100
AcDbEntity
  8
KOTY
100
AcDbDimension
  2
*D3
 10
91.55651241046324
 20
64.26088446190349
 30
0.0
 11
89.03101241046325
 21
86.76088423244244
 31
0.0
 70
    32
  3
STANDARD
100
AcDbAlignedDimension
 13
102.8489111024297
 23
109.2608840029814
 33
0.0000000000000062
 14
102.8486954065769
 24
64.26088446190349
 34
0.0000000000000062
 50
90.0
100
AcDbRotatedDimension
1001
ACAD
1000
DSTYLE
1002
{
1070
   271
1070
     0
1070
   278
1070
    44
1070
   140
1040
3.0
1070
    73
1070
     0
1070
    77
1070
     1
1070
   147
1040
1.0
1070
    41
1040
3.0
1002
}
  0
LINE
  5
3F7
330
1F
100
AcDbEntity
  8
OBRYS
100
AcDbLine
 10
212.9958848317263
 20
89.79580411036464
 30
0.0
 11
212.9958848317263
 21
85.54580411036464
 31
0.0
  0
LINE
  5
3F8
330
1F
100
AcDbEntity
  8
OBRYS
100
AcDbLine
 10
217.2657048317264
 20
85.54580411036464
 30
0.0
 11
217.2657048317264
 21
89.79580411036464
 31
0.0
  0
LINE
  5
3F9
102
{ACAD_REACTORS
330
40E
102
}
330
1F
100
AcDbEntity
  8
OBRYS
100
AcDbLine
 10
217.2657048317264
 20
89.79580411036464
 30
0.0
 11
212.9958848317263
 21
89.79580411036464
 31
0.0
  0
LINE
  5
3FA
330
1F
100
AcDbEntity
  8
OBRYS
100
AcDbLine
 10
217.2657048317264
 20
85.54580411036464
 30
0.0
 11
212.9958848317263
 21
85.54580411036464
 31
0.0
  0
VIEWPORT
  5
380
330
58
100
AcDbEntity
 67
     1
  8
0
100
AcDbViewport
 10
0.0
 20
0.0
 30
0.0
 40
8.976
 41
6.936000000000001
 68
     1
 69
     1
1001
ACAD
1000
MVIEW
1002
{
1070
    16
1010
0.0
1020
0.0
1030
0.0
1010
0.0
1020
0.0
1030
1.0
1040
0.0
1040
6.936000000000001
1040
5.25
1040
4.0
1040
50.0
1040
0.0
1040
0.0
1070
     0
1070
   100
1070
     0
1070
     3
1070
     0
1070
     0
1070
     0
1070
     0
1040
0.0
1040
0.0
1040
0.0
1040
0.5
1040
0.5
1040
0.0
1040
0.0
1070
     0
1002
{
1002
}
1002
}
  0
VIEWPORT
  5
381
330
58
100
AcDbEntity
 67
     1
  8
0
100
AcDbViewport
 10
5.25
 20
4.0
 30
0.0
 40
8.4
 41
6.4
 68
     2
 69
     2
1001
ACAD
1000
MVIEW
1002
{
1070
    16
1010
0.0
1020
0.0
1030
0.0
1010
0.0
1020
0.0
1030
1.0
1040
0.0
1040
112.9588834386155
1040
160.1842646228078
1040
78.37777733948813
1040
50.0
1040
0.0
1040
0.0
1070
     0
1070
   100
1070
     0
1070
     3
1070
     0
1070
     0
1070
     0
1070
     0
1040
0.0
1040
0.0
1040
0.0
1040
0.5
1040
0.5
1040
0.0
1040
0.0
1070
     0
1002
{
1002
}
1002
}
  0
ENDSEC
  0
SECTION
  2
OBJECTS
  0
DICTIONARY
  5
C
330
0
100
AcDbDictionary
  3
ACAD_DETAILVIEWSTYLE
350
122
  3
ACAD_GROUP
350
D
  3
ACAD_IMAGE_VARS
350
DC
  3
ACAD_MLINESTYLE
350
17
  3
ACAD_SCALELIST
350
384
  3
ACAD_SECTIONVIEWSTYLE
350
123
  3
ACDBVARIABLEDICTIONARY
350
66
  3
APPDATA
350
E1
  3
DWGPROPS
350
41C
  0
DICTIONARY
  5
345
330
2
100
AcDbDictionary
280
     1
  3
ACAD_LAYERSTATES
360
346
  3
ACLYDICTIONARY
360
34E
  0
DICTIONARY
  5
122
102
{ACAD_REACTORS
330
C
102
}
330
C
100
AcDbDictionary
  0
DICTIONARY
  5
D
102
{ACAD_REACTORS
330
C
102
}
330
C
100
AcDbDictionary
  0
RASTERVARIABLES
  5
DC
102
{ACAD_REACTORS
330
C
102
}
330
C
100
AcDbRasterVariables
 90
        0
 70
     1
 71
     1
 72
     5
  0
DICTIONARY
  5
17
102
{ACAD_REACTORS
330
C
102
}
330
C
100
AcDbDictionary
  3
STANDARD
350
18
  0
DICTIONARY
  5
384
102
{ACAD_REACTORS
330
C
102
}
330
C
100
AcDbDictionary
  0
DICTIONARY
  5
123
102
{ACAD_REACTORS
330
C
102
}
330
C
100
AcDbDictionary
  0
DICTIONARY
  5
66
102
{ACAD_REACTORS
330
C
102
}
330
C
100
AcDbDictionary
  3
DIMASSOC
350
67
  3
HIDETEXT
350
6B
  0
DICTIONARY
  5
E1
102
{ACAD_REACTORS
330
C
102
}
330
C
100
AcDbDictionary
  0
XRECORD
  5
41C
102
{ACAD_REACTORS
330
C
102
}
330
C
100
AcDbXrecord
  1
DWGPROPS COOKIE
  2

  3

  4

  6

  7

  8
jaromir.podrabsky
  9

300
=
301
=
302
=
303
=
304
=
305
=
306
=
307
=
308
=
309
=
 40
0.0
 41
2452643.063384259
 42
2456783.361693727
  1

 90
        0
  0
DICTIONARY
  5
346
102
{ACAD_REACTORS
330
345
102
}
330
345
100
AcDbDictionary
  0
DICTIONARY
  5
34E
102
{ACAD_REACTORS
330
345
102
}
330
345
100
AcDbDictionary
1001
ACAD
1000
<All
  0
MLINESTYLE
  5
18
102
{ACAD_REACTORS
330
17
102
}
330
17
100
AcDbMlineStyle
  2
STANDARD
 70
     0
  3

 62
   256
 51
90.0
 52
90.0
 71
     2
 49
0.5
 62
   256
  6
BYLAYER
 49
-0.5
 62
   256
  6
BYLAYER
  0
DICTIONARYVAR
  5
67
102
{ACAD_REACTORS
330
66
102
}
330
66
100
DictionaryVariables
280
     0
  1
2
  0
DICTIONARYVAR
  5
6B
102
{ACAD_REACTORS
330
66
102
}
330
66
100
DictionaryVariables
280
     0
  1
1
  0
ENDSEC
  0
EOF
