  0
SECTION
  2
HEADER
  9
$ACADVER
  1
AC1014
  9
$ACADMAINTVER
 70
     9
  9
$DWGCODEPAGE
  3
ANSI_1250
  9
$INSBASE
 10
0.0
 20
0.0
 30
0.0
  9
$EXTMIN
 10
91.17574996069149
 20
43.86254605937044
 30
0.0
  9
$EXTMAX
 10
242.4333782770846
 20
163.4390047634458
 30
0.0000000000000102
  9
$LIMMIN
 10
0.0
 20
0.0
  9
$LIMMAX
 10
12.0
 20
9.0
  9
$ORTHOMODE
 70
     0
  9
$REGENMODE
 70
     1
  9
$FILLMODE
 70
     1
  9
$QTEXTMODE
 70
     0
  9
$MIRRTEXT
 70
     0
  9
$DRAGMODE
 70
     2
  9
$LTSCALE
 40
1.0
  9
$OSMODE
 70
 15359
  9
$ATTMODE
 70
     1
  9
$TEXTSIZE
 40
0.2
  9
$TRACEWID
 40
0.05
  9
$TEXTSTYLE
  7
STANDARD
  9
$CLAYER
  8
POZNAMKA
  9
$CELTYPE
  6
BYLAYER
  9
$CECOLOR
 62
   256
  9
$CELTSCALE
 40
1.0
  9
$DELOBJ
 70
     1
  9
$DISPSILH
 70
     0
  9
$DIMSCALE
 40
1.0
  9
$DIMASZ
 40
0.18
  9
$DIMEXO
 40
0.0625
  9
$DIMDLI
 40
0.38
  9
$DIMRND
 40
0.0
  9
$DIMDLE
 40
0.0
  9
$DIMEXE
 40
0.18
  9
$DIMTP
 40
0.0
  9
$DIMTM
 40
0.0
  9
$DIMTXT
 40
0.18
  9
$DIMCEN
 40
0.09
  9
$DIMTSZ
 40
0.0
  9
$DIMTOL
 70
     0
  9
$DIMLIM
 70
     0
  9
$DIMTIH
 70
     1
  9
$DIMTOH
 70
     1
  9
$DIMSE1
 70
     0
  9
$DIMSE2
 70
     0
  9
$DIMTAD
 70
     0
  9
$DIMZIN
 70
     0
  9
$DIMBLK
  1

  9
$DIMASO
 70
     1
  9
$DIMSHO
 70
     1
  9
$DIMPOST
  1

  9
$DIMAPOST
  1

  9
$DIMALT
 70
     0
  9
$DIMALTD
 70
     2
  9
$DIMALTF
 40
25.4
  9
$DIMLFAC
 40
1.0
  9
$DIMTOFL
 70
     0
  9
$DIMTVP
 40
0.0
  9
$DIMTIX
 70
     0
  9
$DIMSOXD
 70
     0
  9
$DIMSAH
 70
     0
  9
$DIMBLK1
  1

  9
$DIMBLK2
  1

  9
$DIMSTYLE
  2
STANDARD
  9
$DIMCLRD
 70
     0
  9
$DIMCLRE
 70
     0
  9
$DIMCLRT
 70
     0
  9
$DIMTFAC
 40
1.0
  9
$DIMGAP
 40
0.09
  9
$DIMJUST
 70
     0
  9
$DIMSD1
 70
     0
  9
$DIMSD2
 70
     0
  9
$DIMTOLJ
 70
     1
  9
$DIMTZIN
 70
     0
  9
$DIMALTZ
 70
     0
  9
$DIMALTTZ
 70
     0
  9
$DIMFIT
 70
     5
  9
$DIMUPT
 70
     0
  9
$DIMUNIT
 70
     2
  9
$DIMDEC
 70
     4
  9
$DIMTDEC
 70
     4
  9
$DIMALTU
 70
     2
  9
$DIMALTTD
 70
     2
  9
$DIMTXSTY
  7
STANDARD
  9
$DIMAUNIT
 70
     0
  9
$LUNITS
 70
     2
  9
$LUPREC
 70
     4
  9
$SKETCHINC
 40
0.1
  9
$FILLETRAD
 40
0.0
  9
$AUNITS
 70
     0
  9
$AUPREC
 70
     0
  9
$MENU
  1
.
  9
$ELEVATION
 40
0.0
  9
$PELEVATION
 40
0.0
  9
$THICKNESS
 40
0.0
  9
$LIMCHECK
 70
     0
  9
$CHAMFERA
 40
0.0
  9
$CHAMFERB
 40
0.0
  9
$CHAMFERC
 40
0.0
  9
$CHAMFERD
 40
0.0
  9
$SKPOLY
 70
     0
  9
$TDCREATE
 40
2452643.105050926
  9
$TDUPDATE
 40
2456765.316515255
  9
$TDINDWG
 40
0.0111073264
  9
$TDUSRTIMER
 40
2456765.229832095
  9
$USRTIMER
 70
     1
  9
$ANGBASE
 50
0.0
  9
$ANGDIR
 70
     0
  9
$PDMODE
 70
     0
  9
$PDSIZE
 40
0.0
  9
$PLINEWID
 40
0.0
  9
$COORDS
 70
     2
  9
$SPLFRAME
 70
     0
  9
$SPLINETYPE
 70
     6
  9
$SPLINESEGS
 70
     8
  9
$ATTDIA
 70
     0
  9
$ATTREQ
 70
     1
  9
$HANDLING
 70
     1
  9
$HANDSEED
  5
7DE
  9
$SURFTAB1
 70
     6
  9
$SURFTAB2
 70
     6
  9
$SURFTYPE
 70
     6
  9
$SURFU
 70
     6
  9
$SURFV
 70
     6
  9
$UCSNAME
  2

  9
$UCSORG
 10
0.0
 20
0.0
 30
0.0
  9
$UCSXDIR
 10
1.0
 20
0.0
 30
0.0
  9
$UCSYDIR
 10
0.0
 20
1.0
 30
0.0
  9
$PUCSNAME
  2

  9
$PUCSORG
 10
0.0
 20
0.0
 30
0.0
  9
$PUCSXDIR
 10
1.0
 20
0.0
 30
0.0
  9
$PUCSYDIR
 10
0.0
 20
1.0
 30
0.0
  9
$USERI1
 70
     0
  9
$USERI2
 70
     0
  9
$USERI3
 70
     0
  9
$USERI4
 70
     0
  9
$USERI5
 70
     0
  9
$USERR1
 40
0.0
  9
$USERR2
 40
0.0
  9
$USERR3
 40
0.0
  9
$USERR4
 40
0.0
  9
$USERR5
 40
0.0
  9
$WORLDVIEW
 70
     1
  9
$SHADEDGE
 70
     3
  9
$SHADEDIF
 70
    70
  9
$TILEMODE
 70
     0
  9
$MAXACTVP
 70
    64
  9
$PINSBASE
 10
0.0
 20
0.0
 30
0.0
  9
$PLIMCHECK
 70
     0
  9
$PEXTMIN
 10
1.05
 20
0.7999999999999998
 30
0.0
  9
$PEXTMAX
 10
9.45
 20
7.2
 30
0.0
  9
$PLIMMIN
 10
0.8500000000000006
 20
0.5999999999999998
  9
$PLIMMAX
 10
9.650000000000002
 20
7.4
  9
$UNITMODE
 70
     0
  9
$VISRETAIN
 70
     1
  9
$PLINEGEN
 70
     0
  9
$PSLTSCALE
 70
     1
  9
$TREEDEPTH
 70
  3020
  9
$PICKSTYLE
 70
     0
  9
$CMLSTYLE
  2
STANDARD
  9
$CMLJUST
 70
     0
  9
$CMLSCALE
 40
1.0
  9
$PROXYGRAPHICS
 70
     1
  9
$MEASUREMENT
 70
     0
  0
ENDSEC
  0
SECTION
  2
CLASSES
  0
CLASS
  1
ACDBDICTIONARYWDFLT
  2
AcDbDictionaryWithDefault
  3
ObjectDBX Classes
 90
        0
280
     0
281
     0
  0
CLASS
  1
ACDBPLACEHOLDER
  2
AcDbPlaceHolder
  3
ObjectDBX Classes
 90
        0
280
     0
281
     0
  0
CLASS
  1
LAYOUT
  2
AcDbLayout
  3
ObjectDBX Classes
 90
        0
280
     0
281
     0
  0
CLASS
  1
DICTIONARYVAR
  2
AcDbDictionaryVar
  3
ObjectDBX Classes
 90
        0
280
     0
281
     0
  0
CLASS
  1
TABLESTYLE
  2
AcDbTableStyle
  3
ObjectDBX Classes
 90
     4095
280
     0
281
     0
  0
CLASS
  1
MATERIAL
  2
AcDbMaterial
  3
ObjectDBX Classes
 90
     1153
280
     0
281
     0
  0
CLASS
  1
VISUALSTYLE
  2
AcDbVisualStyle
  3
ObjectDBX Classes
 90
     4095
280
     0
281
     0
  0
CLASS
  1
SCALE
  2
AcDbScale
  3
ObjectDBX Classes
 90
     1153
280
     0
281
     0
  0
CLASS
  1
CELLSTYLEMAP
  2
AcDbCellStyleMap
  3
ObjectDBX Classes
 90
     1152
280
     0
281
     0
  0
CLASS
  1
RASTERVARIABLES
  2
AcDbRasterVariables
  3
ISM
 90
        0
280
     0
281
     0
  0
CLASS
  1
SUN
  2
AcDbSun
  3
SCENEOE
 90
     1153
280
     0
281
     0
  0
CLASS
  1
DIMASSOC
  2
AcDbDimAssoc
  3
"AcDbDimAssoc|Product Desc:     AcDim ARX App For Dimension|Company:          Autodesk, Inc.|WEB Address:      www.autodesk.com"
 90
        0
280
     0
281
     0
  0
CLASS
  1
XRECORD
  2
AcDbXrecord
  3
ObjectDBX Classes
 90
        0
280
     0
281
     0
  0
CLASS
  1
LWPOLYLINE
  2
AcDbPolyline
  3
ObjectDBX Classes
 90
        0
280
     0
281
     1
  0
CLASS
  1
HATCH
  2
AcDbHatch
  3
ObjectDBX Classes
 90
        0
280
     0
281
     1
  0
ENDSEC
  0
SECTION
  2
TABLES
  0
TABLE
  2
VPORT
  5
8
330
0
100
AcDbSymbolTable
 70
     1
  0
VPORT
  5
94
330
8
100
AcDbSymbolTableRecord
100
AcDbViewportTableRecord
  2
*ACTIVE
 70
     0
 10
0.0
 20
0.0
 11
1.0
 21
1.0
 12
192.1900462283961
 22
124.1351552662723
 13
0.0
 23
0.0
 14
0.5
 24
0.5
 15
0.5
 25
0.5
 16
0.0
 26
0.0
 36
1.0
 17
-27.66959356597982
 27
-19.53870295786203
 37
0.0
 40
143.4354120580934
 41
1.260923845193508
 42
50.0
 43
0.0
 44
0.0
 50
0.0
 51
0.0
 71
    16
 72
  1000
 73
     1
 74
     3
 75
     0
 76
     0
 77
     0
 78
     0
  0
ENDTAB
  0
TABLE
  2
LTYPE
  5
5
330
0
100
AcDbSymbolTable
 70
     1
  0
LTYPE
  5
14
330
5
100
AcDbSymbolTableRecord
100
AcDbLinetypeTableRecord
  2
BYBLOCK
 70
     0
  3

 72
    65
 73
     0
 40
0.0
  0
LTYPE
  5
15
330
5
100
AcDbSymbolTableRecord
100
AcDbLinetypeTableRecord
  2
BYLAYER
 70
     0
  3

 72
    65
 73
     0
 40
0.0
  0
LTYPE
  5
16
330
5
100
AcDbSymbolTableRecord
100
AcDbLinetypeTableRecord
  2
CONTINUOUS
 70
     0
  3
Solid line
 72
    65
 73
     0
 40
0.0
  0
ENDTAB
  0
TABLE
  2
LAYER
  5
2
102
{ACAD_XDICTIONARY
360
788
102
}
330
0
100
AcDbSymbolTable
 70
     5
  0
LAYER
  5
10
330
2
100
AcDbSymbolTableRecord
100
AcDbLayerTableRecord
  2
0
 70
     0
 62
     7
  6
CONTINUOUS
  0
LAYER
  5
125
330
2
100
AcDbSymbolTableRecord
100
AcDbLayerTableRecord
  2
DEFPOINTS
 70
     0
 62
     7
  6
CONTINUOUS
  0
LAYER
  5
126
330
2
100
AcDbSymbolTableRecord
100
AcDbLayerTableRecord
  2
KOTY
 70
     0
 62
     1
  6
CONTINUOUS
1001
ACAECLAYERSTANDARD
1000

1000

  0
LAYER
  5
129
330
2
100
AcDbSymbolTableRecord
100
AcDbLayerTableRecord
  2
OBRYS
 70
     0
 62
     5
  6
CONTINUOUS
1001
ACAECLAYERSTANDARD
1000

1000

  0
LAYER
  5
78B
330
2
100
AcDbSymbolTableRecord
100
AcDbLayerTableRecord
  2
POZNAMKA
 70
     0
 62
     7
  6
CONTINUOUS
1001
ACAECLAYERSTANDARD
1000

1000

  0
ENDTAB
  0
TABLE
  2
STYLE
  5
3
330
0
100
AcDbSymbolTable
 70
     1
  0
STYLE
  5
11
330
3
100
AcDbSymbolTableRecord
100
AcDbTextStyleTableRecord
  2
STANDARD
 70
     0
 40
0.0
 41
1.0
 50
0.0
 71
     0
 42
0.2
  3
arial.ttf
  4

1001
ACAD
1000
Arial
1071
        0
  0
ENDTAB
  0
TABLE
  2
VIEW
  5
6
330
0
100
AcDbSymbolTable
 70
     0
  0
ENDTAB
  0
TABLE
  2
UCS
  5
7
330
0
100
AcDbSymbolTable
 70
     0
  0
ENDTAB
  0
TABLE
  2
APPID
  5
9
330
0
100
AcDbSymbolTable
 70
     2
  0
APPID
  5
12
330
9
100
AcDbSymbolTableRecord
100
AcDbRegAppTableRecord
  2
ACAD
 70
     0
  0
APPID
  5
128
330
9
100
AcDbSymbolTableRecord
100
AcDbRegAppTableRecord
  2
ACAECLAYERSTANDARD
 70
     0
  0
ENDTAB
  0
TABLE
  2
DIMSTYLE
  5
A
330
0
100
AcDbSymbolTable
 70
     1
  0
DIMSTYLE
105
27
102
{ACAD_REACTORS
330
720
330
723
330
726
330
729
102
}
330
A
100
AcDbSymbolTableRecord
100
AcDbDimStyleTableRecord
  2
STANDARD
 70
     0
  3

  4

  5

  6

  7

 40
1.0
 41
0.18
 42
0.0625
 43
0.38
 44
0.18
 45
0.0
 46
0.0
 47
0.0
 48
0.0
140
0.18
141
0.09
142
0.0
143
25.4
144
1.0
145
0.0
146
1.0
147
0.09
 71
     0
 72
     0
 73
     1
 74
     1
 75
     0
 76
     0
 77
     0
 78
     0
170
     0
171
     2
172
     0
173
     0
174
     0
175
     0
176
     0
177
     0
178
     0
270
     2
271
     4
272
     4
273
     2
274
     2
340
11
275
     0
280
     0
281
     0
282
     0
283
     1
284
     0
285
     0
286
     0
287
     3
288
     0
  0
ENDTAB
  0
TABLE
  2
BLOCK_RECORD
  5
1
330
0
100
AcDbSymbolTable
 70
     5
  0
BLOCK_RECORD
  5
1F
330
1
100
AcDbSymbolTableRecord
100
AcDbBlockTableRecord
  2
*MODEL_SPACE
  0
BLOCK_RECORD
  5
58
330
1
100
AcDbSymbolTableRecord
100
AcDbBlockTableRecord
  2
*PAPER_SPACE
  0
BLOCK_RECORD
  5
5D
330
1
100
AcDbSymbolTableRecord
100
AcDbBlockTableRecord
  2
*PAPER_SPACE0
  0
BLOCK_RECORD
  5
72C
330
1
100
AcDbSymbolTableRecord
100
AcDbBlockTableRecord
  2
*D1
  0
BLOCK_RECORD
  5
739
330
1
100
AcDbSymbolTableRecord
100
AcDbBlockTableRecord
  2
*D2
  0
BLOCK_RECORD
  5
746
330
1
100
AcDbSymbolTableRecord
100
AcDbBlockTableRecord
  2
*D3
  0
BLOCK_RECORD
  5
752
330
1
100
AcDbSymbolTableRecord
100
AcDbBlockTableRecord
  2
*D4
  0
ENDTAB
  0
ENDSEC
  0
SECTION
  2
BLOCKS
  0
BLOCK
  5
20
330
1F
100
AcDbEntity
  8
0
100
AcDbBlockBegin
  2
*MODEL_SPACE
 70
     0
 10
0.0
 20
0.0
 30
0.0
  3
*MODEL_SPACE
  1

  0
ENDBLK
  5
21
330
1F
100
AcDbEntity
  8
0
100
AcDbBlockEnd
  0
BLOCK
  5
5A
330
58
100
AcDbEntity
 67
     1
  8
0
100
AcDbBlockBegin
  2
*PAPER_SPACE
 70
     0
 10
0.0
 20
0.0
 30
0.0
  3
*PAPER_SPACE
  1

  0
ENDBLK
  5
5B
330
58
100
AcDbEntity
 67
     1
  8
0
100
AcDbBlockEnd
  0
BLOCK
  5
5F
330
5D
100
AcDbEntity
  8
0
100
AcDbBlockBegin
  2
*PAPER_SPACE0
 70
     0
 10
0.0
 20
0.0
 30
0.0
  3
*PAPER_SPACE0
  1
*PAPER_SPACE0
  0
ENDBLK
  5
60
330
5D
100
AcDbEntity
  8
0
100
AcDbBlockEnd
  0
BLOCK
  5
72D
330
72C
100
AcDbEntity
  8
0
100
AcDbBlockBegin
  2
*D1
 70
     1
 10
0.0
 20
0.0
 30
0.0
  3
*D1
  1
*D6
  0
LINE
  5
72F
330
72C
100
AcDbEntity
  8
KOTY
 62
     0
100
AcDbLine
 10
198.9481590165467
 20
57.01914902040922
 30
0.0
 11
198.9481590165467
 21
48.19258863077584
 31
0.0
  0
LINE
  5
730
330
72C
100
AcDbEntity
  8
KOTY
 62
     0
100
AcDbLine
 10
204.8481590165466
 20
57.01914902040922
 30
0.0
 11
204.8481590165466
 21
48.19258863077584
 31
0.0
  0
LINE
  5
731
330
72C
100
AcDbEntity
  8
KOTY
 62
     0
100
AcDbLine
 10
194.9481590165467
 20
48.37258863077584
 30
0.0
 11
190.9481590165467
 21
48.37258863077584
 31
0.0
  0
LINE
  5
732
330
72C
100
AcDbEntity
  8
KOTY
 62
     0
100
AcDbLine
 10
208.8481590165466
 20
48.37258863077584
 30
0.0
 11
212.8481590165466
 21
48.37258863077584
 31
0.0
  0
SOLID
  5
733
330
72C
100
AcDbEntity
  8
KOTY
 62
     0
100
AcDbTrace
 10
194.9481590165467
 20
47.70592196410917
 30
0.0
 11
194.9481590165467
 21
49.0392552974425
 31
0.0
 12
198.9481590165467
 22
48.37258863077584
 32
0.0
 13
198.9481590165467
 23
48.37258863077584
 33
0.0
  0
SOLID
  5
734
330
72C
100
AcDbEntity
  8
KOTY
 62
     0
100
AcDbTrace
 10
208.8481590165466
 20
49.0392552974425
 30
0.0
 11
208.8481590165466
 21
47.70592196410917
 31
0.0
 12
204.8481590165466
 22
48.37258863077584
 32
0.0
 13
204.8481590165466
 23
48.37258863077584
 33
0.0
  0
MTEXT
  5
735
330
72C
100
AcDbEntity
  8
KOTY
 62
     0
100
AcDbMText
 10
201.8981590165466
 20
51.41458863077584
 30
0.0
 40
4.0
 41
0.0
 71
     5
 72
     1
  1
\A1;6
  0
POINT
  5
736
330
72C
100
AcDbEntity
  8
DEFPOINTS
 62
     0
100
AcDbPoint
 10
198.9481590165467
 20
57.08164902040922
 30
0.0
  0
POINT
  5
737
330
72C
100
AcDbEntity
  8
DEFPOINTS
 62
     0
100
AcDbPoint
 10
204.8481590165466
 20
57.08164902040922
 30
0.0
  0
POINT
  5
738
330
72C
100
AcDbEntity
  8
DEFPOINTS
 62
     0
100
AcDbPoint
 10
204.8481590165466
 20
48.37258863077584
 30
0.0
  0
ENDBLK
  5
72E
330
72C
100
AcDbEntity
  8
0
100
AcDbBlockEnd
  0
BLOCK
  5
73A
330
739
100
AcDbEntity
  8
0
100
AcDbBlockBegin
  2
*D2
 70
     1
 10
0.0
 20
0.0
 30
0.0
  3
*D2
  1
*D7
  0
LINE
  5
73C
330
739
100
AcDbEntity
  8
KOTY
 62
     0
100
AcDbLine
 10
228.7886990165466
 20
57.03424202040921
 30
0.0
 11
228.7886990165466
 21
48.19258863077584
 31
0.0
  0
LINE
  5
73D
330
739
100
AcDbEntity
  8
KOTY
 62
     0
100
AcDbLine
 10
235.5886990165467
 20
57.03424202040921
 30
0.0
 11
235.5886990165467
 21
48.19258863077584
 31
0.0
  0
LINE
  5
73E
330
739
100
AcDbEntity
  8
KOTY
 62
     0
100
AcDbLine
 10
224.7886990165466
 20
48.37258863077584
 30
0.0
 11
220.7886990165466
 21
48.37258863077584
 31
0.0
  0
LINE
  5
73F
330
739
100
AcDbEntity
  8
KOTY
 62
     0
100
AcDbLine
 10
239.5886990165467
 20
48.37258863077584
 30
0.0
 11
243.5886990165467
 21
48.37258863077584
 31
0.0
  0
SOLID
  5
740
330
739
100
AcDbEntity
  8
KOTY
 62
     0
100
AcDbTrace
 10
224.7886990165466
 20
47.70592196410917
 30
0.0
 11
224.7886990165466
 21
49.0392552974425
 31
0.0
 12
228.7886990165466
 22
48.37258863077584
 32
0.0
 13
228.7886990165466
 23
48.37258863077584
 33
0.0
  0
SOLID
  5
741
330
739
100
AcDbEntity
  8
KOTY
 62
     0
100
AcDbTrace
 10
239.5886990165467
 20
49.0392552974425
 30
0.0
 11
239.5886990165467
 21
47.70592196410917
 31
0.0
 12
235.5886990165467
 22
48.37258863077584
 32
0.0
 13
235.5886990165467
 23
48.37258863077584
 33
0.0
  0
MTEXT
  5
742
330
739
100
AcDbEntity
  8
KOTY
 62
     0
100
AcDbMText
 10
232.1886990165467
 20
51.37258863077584
 30
0.0
 40
4.0
 41
0.0
 71
     5
 72
     1
  1
\A1;7
  0
POINT
  5
743
330
739
100
AcDbEntity
  8
DEFPOINTS
 62
     0
100
AcDbPoint
 10
228.7886990165466
 20
57.09674202040921
 30
0.0
  0
POINT
  5
744
330
739
100
AcDbEntity
  8
DEFPOINTS
 62
     0
100
AcDbPoint
 10
235.5886990165467
 20
57.09674202040921
 30
0.0
  0
POINT
  5
745
330
739
100
AcDbEntity
  8
DEFPOINTS
 62
     0
100
AcDbPoint
 10
235.5886990165467
 20
48.37258863077584
 30
0.0
  0
ENDBLK
  5
73B
330
739
100
AcDbEntity
  8
0
100
AcDbBlockEnd
  0
BLOCK
  5
747
330
746
100
AcDbEntity
  8
0
100
AcDbBlockBegin
  2
*D3
 70
     1
 10
0.0
 20
0.0
 30
0.0
  3
*D3
  1
*D8
  0
LINE
  5
749
330
746
100
AcDbEntity
  8
KOTY
 62
     0
100
AcDbLine
 10
160.0831550165466
 20
57.08164902040922
 30
0.0
 11
95.06474996069147
 21
57.08164902040923
 31
0.0
  0
LINE
  5
74A
330
746
100
AcDbEntity
  8
KOTY
 62
     0
100
AcDbLine
 10
145.5832360165467
 20
148.1667150204092
 30
0.0
 11
95.06474996069147
 21
148.1667150204092
 31
0.0
  0
LINE
  5
74B
330
746
100
AcDbEntity
  8
KOTY
 62
     0
100
AcDbLine
 10
95.24474996069148
 20
61.08164902040923
 30
0.0
 11
95.24474996069148
 21
144.1667150204092
 31
0.0
  0
SOLID
  5
74C
330
746
100
AcDbEntity
  8
KOTY
 62
     0
100
AcDbTrace
 10
94.57808329402481
 20
61.08164902040923
 30
0.0
 11
95.91141662735815
 21
61.08164902040923
 31
0.0
 12
95.24474996069148
 22
57.08164902040923
 32
0.0
 13
95.24474996069148
 23
57.08164902040923
 33
0.0
  0
SOLID
  5
74D
330
746
100
AcDbEntity
  8
KOTY
 62
     0
100
AcDbTrace
 10
95.91141662735815
 20
144.1667150204092
 30
0.0
 11
94.57808329402481
 21
144.1667150204092
 31
0.0
 12
95.24474996069148
 22
148.1667150204092
 32
0.0
 13
95.24474996069148
 23
148.1667150204092
 33
0.0
  0
MTEXT
  5
74E
330
746
100
AcDbEntity
  8
KOTY
 62
     0
100
AcDbMText
 10
92.20274996069148
 20
102.6241820204092
 30
0.0
 40
4.0
 41
0.0
 71
     5
 72
     1
  1
\A1;91
 11
0.0
 21
1.0
 31
0.0
  0
POINT
  5
74F
330
746
100
AcDbEntity
  8
DEFPOINTS
 62
     0
100
AcDbPoint
 10
160.1456550165466
 20
57.08164902040922
 30
0.0
  0
POINT
  5
750
330
746
100
AcDbEntity
  8
DEFPOINTS
 62
     0
100
AcDbPoint
 10
145.6457360165467
 20
148.1667150204092
 30
0.0
  0
POINT
  5
751
330
746
100
AcDbEntity
  8
DEFPOINTS
 62
     0
100
AcDbPoint
 10
95.24474996069148
 20
148.1667150204092
 30
0.0
  0
ENDBLK
  5
748
330
746
100
AcDbEntity
  8
0
100
AcDbBlockEnd
  0
BLOCK
  5
753
330
752
100
AcDbEntity
  8
0
100
AcDbBlockBegin
  2
*D4
 70
     1
 10
0.0
 20
0.0
 30
0.0
  3
*D4
  1
*D9
  0
LINE
  5
755
330
752
100
AcDbEntity
  8
KOTY
 62
     0
100
AcDbLine
 10
112.0213410165467
 20
119.5904070204092
 30
0.0
 11
112.0213410165467
 21
159.5500047634458
 31
0.0
  0
LINE
  5
756
330
752
100
AcDbEntity
  8
KOTY
 62
     0
100
AcDbLine
 10
170.2211740165467
 20
126.4768800204092
 30
0.0
 11
170.2211740165467
 21
159.5500047634458
 31
0.0
  0
LINE
  5
757
330
752
100
AcDbEntity
  8
KOTY
 62
     0
100
AcDbLine
 10
116.0213410165467
 20
159.3700047634458
 30
0.0
 11
166.2211740165467
 21
159.3700047634458
 31
0.0
  0
SOLID
  5
758
330
752
100
AcDbEntity
  8
KOTY
 62
     0
100
AcDbTrace
 10
116.0213410165467
 20
160.0366714301124
 30
0.0
 11
116.0213410165467
 21
158.7033380967791
 31
0.0
 12
112.0213410165467
 22
159.3700047634458
 32
0.0
 13
112.0213410165467
 23
159.3700047634458
 33
0.0
  0
SOLID
  5
759
330
752
100
AcDbEntity
  8
KOTY
 62
     0
100
AcDbTrace
 10
166.2211740165467
 20
158.7033380967791
 30
0.0
 11
166.2211740165467
 21
160.0366714301124
 31
0.0
 12
170.2211740165467
 22
159.3700047634458
 32
0.0
 13
170.2211740165467
 23
159.3700047634458
 33
0.0
  0
MTEXT
  5
75A
330
752
100
AcDbEntity
  8
KOTY
 62
     0
100
AcDbMText
 10
141.1212575165467
 20
162.4120047634458
 30
0.0
 40
4.0
 41
0.0
 71
     5
 72
     1
  1
\A1;58
  0
POINT
  5
75B
330
752
100
AcDbEntity
  8
DEFPOINTS
 62
     0
100
AcDbPoint
 10
112.0213410165467
 20
119.5279070204092
 30
0.0
  0
POINT
  5
75C
330
752
100
AcDbEntity
  8
DEFPOINTS
 62
     0
100
AcDbPoint
 10
170.2211740165467
 20
126.4143800204092
 30
0.0
  0
POINT
  5
75D
330
752
100
AcDbEntity
  8
DEFPOINTS
 62
     0
100
AcDbPoint
 10
170.2211740165467
 20
159.3700047634458
 30
0.0
  0
ENDBLK
  5
754
330
752
100
AcDbEntity
  8
0
100
AcDbBlockEnd
  0
ENDSEC
  0
SECTION
  2
ENTITIES
  0
LINE
  5
455
330
1F
100
AcDbEntity
  8
OBRYS
100
AcDbLine
 10
149.4691850165466
 20
93.79918202040922
 30
0.0
 11
149.4691850165466
 21
123.7991820204092
 31
0.0
  0
LINE
  5
456
330
1F
100
AcDbEntity
  8
OBRYS
100
AcDbLine
 10
165.9213270165467
 20
57.08164902040922
 30
0.0
 11
160.1456550165466
 21
57.08164902040922
 31
0.0
  0
LINE
  5
457
330
1F
100
AcDbEntity
  8
OBRYS
100
AcDbLine
 10
115.6856920165467
 20
93.83295602040921
 30
0.0
 11
111.8792450165467
 21
97.07501702040922
 31
0.0
  0
LINE
  5
458
330
1F
100
AcDbEntity
  8
OBRYS
100
AcDbLine
 10
116.2368420165467
 20
94.48005202040922
 30
0.0
 11
115.6856920165467
 21
93.83295602040921
 31
0.0
  0
LINE
  5
459
330
1F
100
AcDbEntity
  8
OBRYS
100
AcDbLine
 10
111.8792450165467
 20
97.07501702040922
 30
0.0
 11
112.4303950165467
 21
97.72211302040922
 31
0.0
  0
LINE
  5
45A
330
1F
100
AcDbEntity
  8
OBRYS
100
AcDbLine
 10
126.3791640165467
 20
132.8733470204092
 30
0.0
 11
126.9303150165467
 21
132.2262510204092
 31
0.0
  0
LINE
  5
45B
330
1F
100
AcDbEntity
  8
OBRYS
100
AcDbLine
 10
130.1856110165467
 20
136.1154080204092
 30
0.0
 11
126.3791640165467
 21
132.8733470204092
 31
0.0
  0
LINE
  5
45C
330
1F
100
AcDbEntity
  8
OBRYS
100
AcDbLine
 10
130.7367620165467
 20
135.4683120204092
 30
0.0
 11
130.1856110165467
 21
136.1154080204092
 31
0.0
  0
LINE
  5
45D
330
1F
100
AcDbEntity
  8
OBRYS
100
AcDbLine
 10
111.8792450165467
 20
120.5233470204092
 30
0.0
 11
112.4303950165467
 21
119.8762510204092
 31
0.0
  0
LINE
  5
45E
330
1F
100
AcDbEntity
  8
OBRYS
100
AcDbLine
 10
116.2368420165467
 20
123.1183120204092
 30
0.0
 11
115.6856920165467
 21
123.7654080204092
 31
0.0
  0
LINE
  5
45F
330
1F
100
AcDbEntity
  8
OBRYS
100
AcDbLine
 10
115.6856920165467
 20
123.7654080204092
 30
0.0
 11
111.8792450165467
 21
120.5233470204092
 31
0.0
  0
LINE
  5
460
330
1F
100
AcDbEntity
  8
OBRYS
100
AcDbLine
 10
159.1854500165467
 20
56.78295702040921
 30
0.0
 11
155.3790030165467
 21
60.02501802040922
 31
0.0
  0
LINE
  5
461
330
1F
100
AcDbEntity
  8
OBRYS
100
AcDbLine
 10
155.3790030165467
 20
60.02501802040922
 30
0.0
 11
155.9301540165467
 21
60.67211402040921
 31
0.0
  0
LINE
  5
462
330
1F
100
AcDbEntity
  8
OBRYS
100
AcDbLine
 10
159.7366010165467
 20
57.43005302040922
 30
0.0
 11
159.1854500165467
 21
56.78295702040921
 31
0.0
  0
LINE
  5
463
330
1F
100
AcDbEntity
  8
OBRYS
100
AcDbLine
 10
140.8790840165466
 20
145.2233460204092
 30
0.0
 11
141.4302340165466
 21
144.5762500204092
 31
0.0
  0
LINE
  5
464
330
1F
100
AcDbEntity
  8
OBRYS
100
AcDbLine
 10
144.6855310165467
 20
148.4654070204092
 30
0.0
 11
140.8790840165466
 21
145.2233460204092
 31
0.0
  0
LINE
  5
465
330
1F
100
AcDbEntity
  8
OBRYS
100
AcDbLine
 10
144.6855310165467
 20
69.13295702040922
 30
0.0
 11
140.8790840165466
 21
72.37501802040921
 31
0.0
  0
LINE
  5
466
330
1F
100
AcDbEntity
  8
OBRYS
100
AcDbLine
 10
145.2366810165466
 20
147.8183110204092
 30
0.0
 11
144.6855310165467
 21
148.4654070204092
 31
0.0
  0
LINE
  5
467
330
1F
100
AcDbEntity
  8
OBRYS
100
AcDbLine
 10
169.9266040165467
 20
92.75812002040921
 30
0.0
 11
169.7211720165467
 21
92.3175700204092
 31
0.0
  0
LINE
  5
468
330
1F
100
AcDbEntity
  8
OBRYS
100
AcDbLine
 10
169.9433030165467
 20
90.90097002040922
 30
0.0
 11
169.7688620165467
 21
90.98231402040922
 31
0.0
  0
LINE
  5
469
330
1F
100
AcDbEntity
  8
OBRYS
100
AcDbLine
 10
163.8211740165466
 20
128.1443040204092
 30
0.0
 11
163.8211740165466
 21
129.3967280204092
 31
0.0
  0
LINE
  5
46A
330
1F
100
AcDbEntity
  8
OBRYS
100
AcDbLine
 10
140.8790840165466
 20
72.37501802040921
 30
0.0
 11
141.4302340165466
 21
73.02211402040922
 31
0.0
  0
LINE
  5
46B
330
1F
100
AcDbEntity
  8
OBRYS
100
AcDbLine
 10
170.6516500165467
 20
92.42002502040923
 30
0.0
 11
169.9433030165467
 21
90.90097002040922
 31
0.0
  0
LINE
  5
46C
330
1F
100
AcDbEntity
  8
OBRYS
100
AcDbLine
 10
145.2366810165466
 20
69.78005302040921
 30
0.0
 11
144.6855310165467
 21
69.13295702040922
 31
0.0
  0
LINE
  5
46D
330
1F
100
AcDbEntity
  8
OBRYS
100
AcDbLine
 10
112.0213410165467
 20
119.5279070204092
 30
0.0
 11
112.4306120165467
 21
119.8764950204092
 31
0.0
  0
LINE
  5
46E
330
1F
100
AcDbEntity
  8
OBRYS
100
AcDbLine
 10
116.2369900165467
 20
123.1184970204092
 30
0.0
 11
126.9305760165467
 21
132.2265330204092
 31
0.0
  0
LINE
  5
46F
330
1F
100
AcDbEntity
  8
OBRYS
100
AcDbLine
 10
130.7364290165467
 20
135.4680880204092
 30
0.0
 11
141.4300140165466
 21
144.5761230204092
 31
0.0
  0
LINE
  5
470
330
1F
100
AcDbEntity
  8
OBRYS
100
AcDbLine
 10
145.2363930165467
 20
147.8181250204092
 30
0.0
 11
145.6456640165467
 21
148.1667130204092
 31
0.0
  0
LINE
  5
471
330
1F
100
AcDbEntity
  8
OBRYS
100
AcDbLine
 10
112.0213410165467
 20
105.3469190204092
 30
0.0
 11
112.0213410165467
 21
112.2515050204092
 31
0.0
  0
LINE
  5
472
330
1F
100
AcDbEntity
  8
OBRYS
100
AcDbLine
 10
166.7211740165467
 20
123.6106750204092
 30
0.0
 11
166.7211740165467
 21
126.5691610204092
 31
0.0
  0
LINE
  5
473
330
1F
100
AcDbEntity
  8
OBRYS
100
AcDbLine
 10
172.2987900165467
 20
88.4041490204092
 30
0.0
 11
171.7393280165467
 21
88.25424202040922
 31
0.0
  0
LINE
  5
474
330
1F
100
AcDbEntity
  8
OBRYS
100
AcDbLine
 10
168.7211740165467
 20
129.2472810204092
 30
0.0
 11
172.8211550165466
 21
129.2472810204092
 31
0.0
  0
LINE
  5
475
330
1F
100
AcDbEntity
  8
OBRYS
100
AcDbLine
 10
171.2866300165467
 20
105.8161050204092
 30
0.0
 11
171.4732590165466
 21
101.0870390204092
 31
0.0
  0
LINE
  5
476
330
1F
100
AcDbEntity
  8
OBRYS
100
AcDbLine
 10
169.7211490165467
 20
107.8678350204092
 30
0.0
 11
170.4231540165467
 21
107.3840070204092
 31
0.0
  0
LINE
  5
477
330
1F
100
AcDbEntity
  8
OBRYS
100
AcDbLine
 10
170.7328550165466
 20
100.0816800204092
 30
0.0
 11
169.7211910165466
 21
99.81060502040923
 31
0.0
  0
LINE
  5
478
330
1F
100
AcDbEntity
  8
OBRYS
100
AcDbLine
 10
169.8112180165467
 20
90.78571702040922
 30
0.0
 11
171.0079220165467
 21
90.99672802040921
 31
0.0
  0
LINE
  5
479
330
1F
100
AcDbEntity
  8
OBRYS
100
AcDbLine
 10
173.2116500165467
 20
93.5495150204092
 30
0.0
 11
173.8650950165467
 21
92.88876902040921
 31
0.0
  0
LINE
  5
47A
330
1F
100
AcDbEntity
  8
OBRYS
100
AcDbLine
 10
174.1750960165467
 20
90.48243502040923
 30
0.0
 11
173.5132030165466
 21
89.33600102040923
 31
0.0
  0
LINE
  5
47B
330
1F
100
AcDbEntity
  8
OBRYS
100
AcDbLine
 10
171.5211670165467
 20
126.3006450204092
 30
0.0
 11
170.2211740165467
 21
126.4143800204092
 31
0.0
  0
LINE
  5
47C
330
1F
100
AcDbEntity
  8
OBRYS
100
AcDbLine
 10
171.0079220165467
 20
90.99672802040921
 30
0.0
 11
172.4231250165466
 21
93.44793202040923
 31
0.0
  0
LINE
  5
47D
330
1F
100
AcDbEntity
  8
OBRYS
100
AcDbLine
 10
170.2211740165467
 20
126.4143800204092
 30
0.0
 11
170.2211740165467
 21
118.4772990204092
 31
0.0
  0
LINE
  5
47E
330
1F
100
AcDbEntity
  8
OBRYS
100
AcDbLine
 10
130.1856110165467
 20
81.48295602040922
 30
0.0
 11
126.3791640165467
 21
84.72501702040923
 31
0.0
  0
LINE
  5
47F
330
1F
100
AcDbEntity
  8
OBRYS
100
AcDbLine
 10
126.3791640165467
 20
84.72501702040923
 30
0.0
 11
126.9303150165467
 21
85.3721130204092
 31
0.0
  0
LINE
  5
480
330
1F
100
AcDbEntity
  8
OBRYS
100
AcDbLine
 10
130.7367620165467
 20
82.13005202040922
 30
0.0
 11
130.1856110165467
 21
81.48295602040922
 31
0.0
  0
LINE
  5
481
330
1F
100
AcDbEntity
  8
OBRYS
100
AcDbLine
 10
173.8426470165467
 20
86.15100602040921
 30
0.0
 11
170.5998540165467
 21
89.39379902040922
 31
0.0
  0
LINE
  5
482
330
1F
100
AcDbEntity
  8
OBRYS
100
AcDbLine
 10
174.7213270165466
 20
59.08164902040922
 30
0.0
 11
174.7213270165466
 21
84.02968502040922
 31
0.0
  0
LINE
  5
483
330
1F
100
AcDbEntity
  8
OBRYS
100
AcDbLine
 10
169.7211740165467
 20
91.51511902040922
 30
0.0
 11
169.7211740165467
 21
123.3106620204092
 31
0.0
  0
LINE
  5
484
330
1F
100
AcDbEntity
  8
OBRYS
100
AcDbLine
 10
165.9213270165467
 20
57.08164902040922
 30
0.0
 11
172.7213270165466
 21
57.08164902040922
 31
0.0
  0
LINE
  5
485
330
1F
100
AcDbEntity
  8
OBRYS
100
AcDbLine
 10
169.4211740165467
 20
123.6106620204092
 30
0.0
 11
165.9213270165467
 21
123.6106620204092
 31
0.0
  0
LINE
  5
486
330
1F
100
AcDbEntity
  8
OBRYS
100
AcDbLine
 10
165.9213270165467
 20
123.6106620204092
 30
0.0
 11
165.9213270165467
 21
57.08164902040922
 31
0.0
  0
LINE
  5
487
330
1F
100
AcDbEntity
  8
OBRYS
100
AcDbLine
 10
160.1456550165466
 20
57.08164902040922
 30
0.0
 11
155.5210990165467
 21
61.02051702040922
 31
0.0
  0
LINE
  5
488
330
1F
100
AcDbEntity
  8
OBRYS
100
AcDbLine
 10
155.5210990165467
 20
66.43164902040921
 30
0.0
 11
155.5210990165467
 21
61.02051702040922
 31
0.0
  0
LINE
  5
489
330
1F
100
AcDbEntity
  8
OBRYS
100
AcDbLine
 10
145.6457360165467
 20
69.43164902040921
 30
0.0
 11
152.5210990165467
 21
69.43164902040921
 31
0.0
  0
LINE
  5
48A
330
1F
100
AcDbEntity
  8
OBRYS
100
AcDbLine
 10
145.6457360165467
 20
69.43164902040921
 30
0.0
 11
141.0211800165467
 21
73.37051702040921
 31
0.0
  0
LINE
  5
48B
330
1F
100
AcDbEntity
  8
OBRYS
100
AcDbLine
 10
141.0211800165467
 20
78.7816490204092
 30
0.0
 11
141.0211800165467
 21
73.37051702040921
 31
0.0
  0
LINE
  5
48C
330
1F
100
AcDbEntity
  8
OBRYS
100
AcDbLine
 10
131.1458160165467
 20
81.7816490204092
 30
0.0
 11
138.0211800165467
 21
81.7816490204092
 31
0.0
  0
LINE
  5
48D
330
1F
100
AcDbEntity
  8
OBRYS
100
AcDbLine
 10
131.1458160165467
 20
81.7816490204092
 30
0.0
 11
126.5212600165466
 21
85.72051702040922
 31
0.0
  0
LINE
  5
48E
330
1F
100
AcDbEntity
  8
OBRYS
100
AcDbLine
 10
126.5212600165466
 20
91.13164902040923
 30
0.0
 11
126.5212600165466
 21
85.72051702040922
 31
0.0
  0
LINE
  5
48F
330
1F
100
AcDbEntity
  8
OBRYS
100
AcDbLine
 10
116.6458970165467
 20
94.13164902040923
 30
0.0
 11
123.5212600165466
 21
94.13164902040923
 31
0.0
  0
LINE
  5
490
330
1F
100
AcDbEntity
  8
OBRYS
100
AcDbLine
 10
116.6458970165467
 20
94.13164902040923
 30
0.0
 11
112.0213410165467
 21
98.07051702040921
 31
0.0
  0
LINE
  5
491
330
1F
100
AcDbEntity
  8
OBRYS
100
AcDbLine
 10
112.0213410165467
 20
98.07051702040921
 30
0.0
 11
112.0213410165467
 21
105.3468020204092
 31
0.0
  0
LINE
  5
492
330
1F
100
AcDbEntity
  8
OBRYS
100
AcDbLine
 10
112.5213410165467
 20
105.8468020204092
 30
0.0
 11
115.5015730165467
 21
105.8468020204092
 31
0.0
  0
LINE
  5
493
330
1F
100
AcDbEntity
  8
OBRYS
100
AcDbLine
 10
115.5015730165467
 20
105.8468020204092
 30
0.0
 11
115.6747780165467
 21
106.1467420204092
 31
0.0
  0
LINE
  5
494
330
1F
100
AcDbEntity
  8
OBRYS
100
AcDbLine
 10
115.6747780165467
 20
106.1467420204092
 30
0.0
 11
117.0170430165467
 21
106.1467420204092
 31
0.0
  0
LINE
  5
495
330
1F
100
AcDbEntity
  8
OBRYS
100
AcDbLine
 10
117.0170430165467
 20
106.1467420204092
 30
0.0
 11
117.0170430165467
 21
111.4516220204092
 31
0.0
  0
LINE
  5
496
330
1F
100
AcDbEntity
  8
OBRYS
100
AcDbLine
 10
117.0170430165467
 20
111.4516220204092
 30
0.0
 11
115.6747780165467
 21
111.4516220204092
 31
0.0
  0
LINE
  5
497
330
1F
100
AcDbEntity
  8
OBRYS
100
AcDbLine
 10
115.6747780165467
 20
111.4516220204092
 30
0.0
 11
115.5015730165467
 21
111.7515620204092
 31
0.0
  0
LINE
  5
498
330
1F
100
AcDbEntity
  8
OBRYS
100
AcDbLine
 10
115.5015730165467
 20
111.7515620204092
 30
0.0
 11
112.5213410165467
 21
111.7515620204092
 31
0.0
  0
LINE
  5
499
330
1F
100
AcDbEntity
  8
OBRYS
100
AcDbLine
 10
112.0213410165467
 20
112.2515620204092
 30
0.0
 11
112.0213410165467
 21
119.5278470204092
 31
0.0
  0
LINE
  5
49A
330
1F
100
AcDbEntity
  8
OBRYS
100
AcDbLine
 10
145.6457360165467
 20
148.1667150204092
 30
0.0
 11
112.0213410165467
 21
119.5278470204092
 31
0.0
  0
LINE
  5
49B
330
1F
100
AcDbEntity
  8
OBRYS
100
AcDbLine
 10
145.6457360165467
 20
148.1667150204092
 30
0.0
 11
159.2186010165466
 21
148.1667150204092
 31
0.0
  0
LINE
  5
49C
330
1F
100
AcDbEntity
  8
OBRYS
100
AcDbLine
 10
160.8171560165467
 20
147.3686380204092
 30
0.0
 11
165.5200970165467
 21
141.1137380204092
 31
0.0
  0
LINE
  5
49D
330
1F
100
AcDbEntity
  8
OBRYS
100
AcDbLine
 10
165.9215390165467
 20
139.9118180204092
 30
0.0
 11
165.9215390165467
 21
139.8167200204092
 31
0.0
  0
LINE
  5
49E
330
1F
100
AcDbEntity
  8
OBRYS
100
AcDbLine
 10
166.2781960165466
 20
139.5221190204092
 30
0.0
 11
171.8715420165466
 21
140.5978170204092
 31
0.0
  0
LINE
  5
49F
330
1F
100
AcDbEntity
  8
OBRYS
100
AcDbLine
 10
171.8715420165466
 20
143.1967460204092
 30
0.0
 11
171.8715420165466
 21
140.5978170204092
 31
0.0
  0
LINE
  5
4A0
330
1F
100
AcDbEntity
  8
OBRYS
100
AcDbLine
 10
172.7715420165467
 20
144.0967460204092
 30
0.0
 11
174.9215380165467
 21
144.0967460204092
 31
0.0
  0
LINE
  5
4A1
330
1F
100
AcDbEntity
  8
OBRYS
100
AcDbLine
 10
175.9215380165467
 20
143.0967470204092
 30
0.0
 11
175.9215490165466
 21
127.9451530204092
 31
0.0
  0
LINE
  5
4A2
330
1F
100
AcDbEntity
  8
OBRYS
100
AcDbLine
 10
172.4094540165466
 20
124.9967280204092
 30
0.0
 11
171.6157940165467
 21
124.9967280204092
 31
0.0
  0
LINE
  5
4A3
330
1F
100
AcDbEntity
  8
OBRYS
100
AcDbLine
 10
171.4226090165467
 20
125.1449650204092
 30
0.0
 11
171.3211740165466
 21
125.5235230204092
 31
0.0
  0
LINE
  5
4A4
330
1F
100
AcDbEntity
  8
OBRYS
100
AcDbLine
 10
171.3211740165466
 20
125.5235230204092
 30
0.0
 11
171.3211740165466
 21
126.1967280204092
 31
0.0
  0
LINE
  5
4A5
330
1F
100
AcDbEntity
  8
OBRYS
100
AcDbLine
 10
171.3211740165466
 20
126.1967280204092
 30
0.0
 11
171.5211740165466
 21
126.1967280204092
 31
0.0
  0
LINE
  5
4A6
330
1F
100
AcDbEntity
  8
OBRYS
100
AcDbLine
 10
171.5211740165466
 20
126.1967280204092
 30
0.0
 11
171.5211740165466
 21
127.0967280204092
 31
0.0
  0
LINE
  5
4A7
330
1F
100
AcDbEntity
  8
OBRYS
100
AcDbLine
 10
171.5211740165466
 20
127.0967280204092
 30
0.0
 11
169.5117450165467
 21
127.0967280204092
 31
0.0
  0
LINE
  5
4A8
330
1F
100
AcDbEntity
  8
OBRYS
100
AcDbLine
 10
169.4173170165467
 20
127.0877310204092
 30
0.0
 11
163.7045600165467
 21
125.9890680204092
 31
0.0
  0
LINE
  5
4A9
330
1F
100
AcDbEntity
  8
OBRYS
100
AcDbLine
 10
169.2743890165466
 20
128.5877310204092
 30
0.0
 11
164.4156020165466
 21
127.6533010204092
 31
0.0
  0
LINE
  5
4AA
330
1F
100
AcDbEntity
  8
OBRYS
100
AcDbLine
 10
172.3211740165466
 20
128.5967280204092
 30
0.0
 11
169.3688170165466
 21
128.5967280204092
 31
0.0
  0
LINE
  5
4AB
330
1F
100
AcDbEntity
  8
OBRYS
100
AcDbLine
 10
172.8211740165466
 20
138.9531360204092
 30
0.0
 11
172.8211740165466
 21
129.0967280204092
 31
0.0
  0
LINE
  5
4AC
330
1F
100
AcDbEntity
  8
OBRYS
100
AcDbLine
 10
166.3140090165467
 20
138.3070160204092
 30
0.0
 11
172.2267460165467
 21
139.4441390204092
 31
0.0
  0
LINE
  5
4AD
330
1F
100
AcDbEntity
  8
OBRYS
100
AcDbLine
 10
164.4843590165466
 20
133.6555470204092
 30
0.0
 11
165.5369390165467
 21
137.5838300204092
 31
0.0
  0
LINE
  5
4AE
330
1F
100
AcDbEntity
  8
OBRYS
100
AcDbLine
 10
170.0489700165467
 20
132.3967280204092
 30
0.0
 11
165.4502850165467
 21
132.3967280204092
 31
0.0
  0
LINE
  5
4AF
330
1F
100
AcDbEntity
  8
OBRYS
100
AcDbLine
 10
170.7590900165467
 20
130.7488230204092
 30
0.0
 11
170.5413740165467
 21
131.9835520204092
 31
0.0
  0
LINE
  5
4B0
330
1F
100
AcDbEntity
  8
OBRYS
100
AcDbLine
 10
164.8211740165466
 20
130.3967280204092
 30
0.0
 11
170.4636480165466
 21
130.3967280204092
 31
0.0
  0
LINE
  5
4B1
330
1F
100
AcDbEntity
  8
OBRYS
100
AcDbLine
 10
133.4691850165466
 20
123.7991820204092
 30
0.0
 11
133.4691850165466
 21
93.79918202040922
 31
0.0
  0
LINE
  5
4B2
330
1F
100
AcDbEntity
  8
OBRYS
100
AcDbLine
 10
133.4691850165466
 20
93.79918202040922
 30
0.0
 11
149.4691850165466
 21
93.79918202040922
 31
0.0
  0
LINE
  5
4B3
330
1F
100
AcDbEntity
  8
OBRYS
100
AcDbLine
 10
149.4691850165466
 20
123.7991820204092
 30
0.0
 11
133.4691850165466
 21
123.7991820204092
 31
0.0
  0
LINE
  5
4B4
330
1F
100
AcDbEntity
  8
OBRYS
100
AcDbLine
 10
169.9408010165467
 20
93.57146902040922
 30
0.0
 11
169.7211410165467
 21
94.08895702040921
 31
0.0
  0
LINE
  5
4B5
330
1F
100
AcDbEntity
  8
OBRYS
100
AcDbLine
 10
170.6771660165467
 20
93.8841460204092
 30
0.0
 11
169.7211550165467
 21
96.13636702040922
 31
0.0
  0
LINE
  5
4B6
330
1F
100
AcDbEntity
  8
OBRYS
100
AcDbLine
 10
165.9215390165467
 20
138.1386420204092
 30
0.0
 11
165.9215390165467
 21
132.3966270204092
 31
0.0
  0
LINE
  5
4B7
330
1F
100
AcDbEntity
  8
OBRYS
100
AcDbLine
 10
165.9215390165467
 20
130.3969570204092
 30
0.0
 11
165.9215390165467
 21
127.9431530204092
 31
0.0
  0
LINE
  5
4B8
330
1F
100
AcDbEntity
  8
OBRYS
100
AcDbLine
 10
165.9215390165467
 20
126.4154470204092
 30
0.0
 11
165.9215390165467
 21
123.6106620204092
 31
0.0
  0
LINE
  5
4B9
330
1F
100
AcDbEntity
  8
OBRYS
100
AcDbLine
 10
163.9311880165467
 20
123.6106620204092
 30
0.0
 11
165.9213270165467
 21
123.6106620204092
 31
0.0
  0
LINE
  5
4BA
330
1F
100
AcDbEntity
  8
OBRYS
100
AcDbLine
 10
199.4613883104311
 20
103.0456768769427
 30
0.0
 11
203.2728810165466
 21
103.0477570204092
 31
0.0
  0
LINE
  5
4BB
330
1F
100
AcDbEntity
  8
OBRYS
100
AcDbLine
 10
199.4583341711989
 20
102.2450627923239
 30
0.0
 11
203.2733750165467
 21
102.2477570204092
 31
0.0
  0
LINE
  5
4BC
330
1F
100
AcDbEntity
  8
OBRYS
100
AcDbLine
 10
199.3481590165466
 20
103.8468020204092
 30
0.0
 11
199.3481590165466
 21
104.0176300204092
 31
0.0
  0
LINE
  5
4BD
330
1F
100
AcDbEntity
  8
OBRYS
100
AcDbLine
 10
199.7931620165467
 20
103.8468020204092
 30
0.0
 11
199.3481590165466
 21
103.8468020204092
 31
0.0
  0
LINE
  5
4BE
330
1F
100
AcDbEntity
  8
OBRYS
100
AcDbLine
 10
199.3481590165466
 20
101.2759740204092
 30
0.0
 11
199.3481590165466
 21
101.4468020204092
 31
0.0
  0
LINE
  5
4BF
330
1F
100
AcDbEntity
  8
OBRYS
100
AcDbLine
 10
199.3481590165466
 20
101.4468020204092
 30
0.0
 11
199.7931620165467
 21
101.4468020204092
 31
0.0
  0
LINE
  5
4C0
330
1F
100
AcDbEntity
  8
OBRYS
100
AcDbLine
 10
199.5081590165466
 20
103.5468020204092
 30
0.0
 11
199.3481590165466
 21
103.5468020204092
 31
0.0
  0
LINE
  5
4C1
330
1F
100
AcDbEntity
  8
OBRYS
100
AcDbLine
 10
199.5081710165467
 20
101.7468020204092
 30
0.0
 11
199.3481590165466
 21
101.7468020204092
 31
0.0
  0
LINE
  5
4C2
330
1F
100
AcDbEntity
  8
OBRYS
100
AcDbLine
 10
199.5081590165466
 20
101.7468020204092
 30
0.0
 11
199.6324010165467
 21
101.7248950204092
 31
0.0
  0
LINE
  5
4C3
330
1F
100
AcDbEntity
  8
OBRYS
100
AcDbLine
 10
199.6324010165467
 20
103.5687090204092
 30
0.0
 11
199.5081590165466
 21
103.5468020204092
 31
0.0
  0
LINE
  5
4C4
330
1F
100
AcDbEntity
  8
OBRYS
100
AcDbLine
 10
199.5081590165466
 20
101.7468020204092
 30
0.0
 11
199.5081590165466
 21
102.0429300204092
 31
0.0
  0
LINE
  5
4C5
330
1F
100
AcDbEntity
  8
OBRYS
100
AcDbLine
 10
199.5081590165466
 20
103.2506740204092
 30
0.0
 11
199.5081590165466
 21
103.5468020204092
 31
0.0
  0
LINE
  5
4C6
330
1F
100
AcDbEntity
  8
OBRYS
100
AcDbLine
 10
199.3481590165466
 20
103.5468020204092
 30
0.0
 11
199.3481590165466
 21
101.7468020204092
 31
0.0
  0
LINE
  5
4C7
330
1F
100
AcDbEntity
  8
OBRYS
100
AcDbLine
 10
199.3481590165466
 20
103.8468020204092
 30
0.0
 11
199.3481590165466
 21
103.5468020204092
 31
0.0
  0
LINE
  5
4C8
330
1F
100
AcDbEntity
  8
OBRYS
100
AcDbLine
 10
199.3481590165466
 20
101.7468020204092
 30
0.0
 11
199.3481590165466
 21
101.4468020204092
 31
0.0
  0
LINE
  5
4C9
330
1F
100
AcDbEntity
  8
OBRYS
100
AcDbLine
 10
199.4577974254219
 20
65.98041562992142
 30
0.0
 11
203.2763320165467
 21
65.98240102040921
 31
0.0
  0
LINE
  5
4CA
330
1F
100
AcDbEntity
  8
OBRYS
100
AcDbLine
 10
199.4618127273082
 20
65.1803825918352
 30
0.0
 11
203.2698080165466
 21
65.18239802040921
 31
0.0
  0
LINE
  5
4CB
330
1F
100
AcDbEntity
  8
OBRYS
100
AcDbLine
 10
199.4613883104311
 20
90.6956768769427
 30
0.0
 11
203.2728810165466
 21
90.69775702040921
 31
0.0
  0
LINE
  5
4CC
330
1F
100
AcDbEntity
  8
OBRYS
100
AcDbLine
 10
199.4618249080149
 20
89.89567699155334
 30
0.0
 11
203.2733750165467
 21
89.8977570204092
 31
0.0
  0
LINE
  5
4CD
330
1F
100
AcDbEntity
  8
OBRYS
100
AcDbLine
 10
199.3481590165466
 20
128.1515620204092
 30
0.0
 11
199.3481590165466
 21
128.6724090204092
 31
0.0
  0
LINE
  5
4CE
330
1F
100
AcDbEntity
  8
OBRYS
100
AcDbLine
 10
199.4981710165466
 20
128.1515620204092
 30
0.0
 11
199.3481590165466
 21
128.1515620204092
 31
0.0
  0
LINE
  5
4CF
330
1F
100
AcDbEntity
  8
OBRYS
100
AcDbLine
 10
199.3481590165466
 20
125.9307150204092
 30
0.0
 11
199.3481590165466
 21
126.4515620204092
 31
0.0
  0
LINE
  5
4D0
330
1F
100
AcDbEntity
  8
OBRYS
100
AcDbLine
 10
199.3481590165466
 20
126.4515620204092
 30
0.0
 11
199.4981710165466
 21
126.4515620204092
 31
0.0
  0
LINE
  5
4D1
330
1F
100
AcDbEntity
  8
OBRYS
100
AcDbLine
 10
199.3481590165466
 20
126.7515620204092
 30
0.0
 11
199.4927960165467
 21
126.7515620204092
 31
0.0
  0
LINE
  5
4D2
330
1F
100
AcDbEntity
  8
OBRYS
100
AcDbLine
 10
199.4927960165467
 20
127.8515620204092
 30
0.0
 11
199.3481590165466
 21
127.8515620204092
 31
0.0
  0
LINE
  5
4D3
330
1F
100
AcDbEntity
  8
OBRYS
100
AcDbLine
 10
199.4981590165467
 20
126.4015620204092
 30
0.0
 11
199.4981590165467
 21
126.7321150204092
 31
0.0
  0
LINE
  5
4D4
330
1F
100
AcDbEntity
  8
OBRYS
100
AcDbLine
 10
199.4981590165467
 20
127.8710090204092
 30
0.0
 11
199.4981590165467
 21
128.2015620204092
 31
0.0
  0
LINE
  5
4D5
330
1F
100
AcDbEntity
  8
OBRYS
100
AcDbLine
 10
199.3481590165466
 20
127.8515620204092
 30
0.0
 11
199.3481590165466
 21
126.7515620204092
 31
0.0
  0
LINE
  5
4D6
330
1F
100
AcDbEntity
  8
OBRYS
100
AcDbLine
 10
199.3481590165466
 20
126.4515620204092
 30
0.0
 11
199.3481590165466
 21
126.7515620204092
 31
0.0
  0
LINE
  5
4D7
330
1F
100
AcDbEntity
  8
OBRYS
100
AcDbLine
 10
199.3481590165466
 20
127.8515620204092
 30
0.0
 11
199.3481590165466
 21
128.1515620204092
 31
0.0
  0
LINE
  5
4D8
330
1F
100
AcDbEntity
  8
OBRYS
100
AcDbLine
 10
199.3481590165466
 20
64.21061602040922
 30
0.0
 11
199.3481590165466
 21
64.38144502040922
 31
0.0
  0
LINE
  5
4D9
330
1F
100
AcDbEntity
  8
OBRYS
100
AcDbLine
 10
199.3481590165466
 20
64.38144502040922
 30
0.0
 11
199.7931620165467
 21
64.38144502040922
 31
0.0
  0
LINE
  5
4DA
330
1F
100
AcDbEntity
  8
OBRYS
100
AcDbLine
 10
199.3481590165466
 20
66.78144502040922
 30
0.0
 11
199.3481590165466
 21
66.95227302040922
 31
0.0
  0
LINE
  5
4DB
330
1F
100
AcDbEntity
  8
OBRYS
100
AcDbLine
 10
199.7931620165467
 20
66.78144502040922
 30
0.0
 11
199.3481590165466
 21
66.78144502040922
 31
0.0
  0
LINE
  5
4DC
330
1F
100
AcDbEntity
  8
OBRYS
100
AcDbLine
 10
199.5081590165466
 20
66.48144502040921
 30
0.0
 11
199.3481590165466
 21
66.48144502040921
 31
0.0
  0
LINE
  5
4DD
330
1F
100
AcDbEntity
  8
OBRYS
100
AcDbLine
 10
199.5081710165467
 20
64.68144502040921
 30
0.0
 11
199.3481590165466
 21
64.68144502040921
 31
0.0
  0
LINE
  5
4DE
330
1F
100
AcDbEntity
  8
OBRYS
100
AcDbLine
 10
199.6324010165467
 20
66.50335202040921
 30
0.0
 11
199.5081590165466
 21
66.48144502040921
 31
0.0
  0
LINE
  5
4DF
330
1F
100
AcDbEntity
  8
OBRYS
100
AcDbLine
 10
199.5081590165466
 20
64.68144502040921
 30
0.0
 11
199.6324010165467
 21
64.65953702040922
 31
0.0
  0
LINE
  5
4E0
330
1F
100
AcDbEntity
  8
OBRYS
100
AcDbLine
 10
199.5081590165466
 20
64.68144502040921
 30
0.0
 11
199.5081590165466
 21
64.97757302040921
 31
0.0
  0
LINE
  5
4E1
330
1F
100
AcDbEntity
  8
OBRYS
100
AcDbLine
 10
199.5081590165466
 20
66.18531602040922
 30
0.0
 11
199.5081590165466
 21
66.48144502040921
 31
0.0
  0
LINE
  5
4E2
330
1F
100
AcDbEntity
  8
OBRYS
100
AcDbLine
 10
199.3481590165466
 20
66.48144502040921
 30
0.0
 11
199.3481590165466
 21
64.68144502040921
 31
0.0
  0
LINE
  5
4E3
330
1F
100
AcDbEntity
  8
OBRYS
100
AcDbLine
 10
199.3481590165466
 20
66.78144502040922
 30
0.0
 11
199.3481590165466
 21
66.48144502040921
 31
0.0
  0
LINE
  5
4E4
330
1F
100
AcDbEntity
  8
OBRYS
100
AcDbLine
 10
199.3481590165466
 20
64.68144502040921
 30
0.0
 11
199.3481590165466
 21
64.38144502040922
 31
0.0
  0
LINE
  5
4E5
330
1F
100
AcDbEntity
  8
OBRYS
100
AcDbLine
 10
199.4577974254219
 20
78.34717262992145
 30
0.0
 11
203.2725930165467
 21
78.34915702040921
 31
0.0
  0
LINE
  5
4E6
330
1F
100
AcDbEntity
  8
OBRYS
100
AcDbLine
 10
199.4618249080149
 20
77.54707699155337
 30
0.0
 11
203.2736620165467
 21
77.54915702040921
 31
0.0
  0
LINE
  5
4E7
330
1F
100
AcDbEntity
  8
OBRYS
100
AcDbLine
 10
199.3481590165466
 20
76.57737402040921
 30
0.0
 11
199.3481590165466
 21
76.74820202040921
 31
0.0
  0
LINE
  5
4E8
330
1F
100
AcDbEntity
  8
OBRYS
100
AcDbLine
 10
199.3481590165466
 20
76.74820202040921
 30
0.0
 11
199.7931620165467
 21
76.74820202040921
 31
0.0
  0
LINE
  5
4E9
330
1F
100
AcDbEntity
  8
OBRYS
100
AcDbLine
 10
199.3481590165466
 20
79.14820202040922
 30
0.0
 11
199.3481590165466
 21
79.31903002040922
 31
0.0
  0
LINE
  5
4EA
330
1F
100
AcDbEntity
  8
OBRYS
100
AcDbLine
 10
199.7931620165467
 20
79.14820202040922
 30
0.0
 11
199.3481590165466
 21
79.14820202040922
 31
0.0
  0
LINE
  5
4EB
330
1F
100
AcDbEntity
  8
OBRYS
100
AcDbLine
 10
199.5081590165466
 20
78.8482020204092
 30
0.0
 11
199.3481590165466
 21
78.8482020204092
 31
0.0
  0
LINE
  5
4EC
330
1F
100
AcDbEntity
  8
OBRYS
100
AcDbLine
 10
199.5081710165467
 20
77.04820202040922
 30
0.0
 11
199.3481590165466
 21
77.04820202040922
 31
0.0
  0
LINE
  5
4ED
330
1F
100
AcDbEntity
  8
OBRYS
100
AcDbLine
 10
199.5081590165466
 20
77.04820202040922
 30
0.0
 11
199.6324010165467
 21
77.02629502040922
 31
0.0
  0
LINE
  5
4EE
330
1F
100
AcDbEntity
  8
OBRYS
100
AcDbLine
 10
199.6324010165467
 20
78.8701090204092
 30
0.0
 11
199.5081590165466
 21
78.8482020204092
 31
0.0
  0
LINE
  5
4EF
330
1F
100
AcDbEntity
  8
OBRYS
100
AcDbLine
 10
199.5081590165466
 20
77.04820202040922
 30
0.0
 11
199.5081590165466
 21
77.34433002040922
 31
0.0
  0
LINE
  5
4F0
330
1F
100
AcDbEntity
  8
OBRYS
100
AcDbLine
 10
199.5081590165466
 20
78.55207402040922
 30
0.0
 11
199.5081590165466
 21
78.8482020204092
 31
0.0
  0
LINE
  5
4F1
330
1F
100
AcDbEntity
  8
OBRYS
100
AcDbLine
 10
199.3481590165466
 20
78.8482020204092
 30
0.0
 11
199.3481590165466
 21
77.04820202040922
 31
0.0
  0
LINE
  5
4F2
330
1F
100
AcDbEntity
  8
OBRYS
100
AcDbLine
 10
199.3481590165466
 20
79.14820202040922
 30
0.0
 11
199.3481590165466
 21
78.8482020204092
 31
0.0
  0
LINE
  5
4F3
330
1F
100
AcDbEntity
  8
OBRYS
100
AcDbLine
 10
199.3481590165466
 20
77.04820202040922
 30
0.0
 11
199.3481590165466
 21
76.74820202040921
 31
0.0
  0
LINE
  5
4F4
330
1F
100
AcDbEntity
  8
OBRYS
100
AcDbLine
 10
199.3481590165466
 20
115.8015620204092
 30
0.0
 11
199.3481590165466
 21
116.3224090204092
 31
0.0
  0
LINE
  5
4F5
330
1F
100
AcDbEntity
  8
OBRYS
100
AcDbLine
 10
199.4981710165466
 20
115.8015620204092
 30
0.0
 11
199.3481590165466
 21
115.8015620204092
 31
0.0
  0
LINE
  5
4F6
330
1F
100
AcDbEntity
  8
OBRYS
100
AcDbLine
 10
199.3481590165466
 20
113.5807150204092
 30
0.0
 11
199.3481590165466
 21
114.1015620204092
 31
0.0
  0
LINE
  5
4F7
330
1F
100
AcDbEntity
  8
OBRYS
100
AcDbLine
 10
199.3481590165466
 20
114.1015620204092
 30
0.0
 11
199.4981710165466
 21
114.1015620204092
 31
0.0
  0
LINE
  5
4F8
330
1F
100
AcDbEntity
  8
OBRYS
100
AcDbLine
 10
199.3481590165466
 20
114.4015620204092
 30
0.0
 11
199.4927960165467
 21
114.4015620204092
 31
0.0
  0
LINE
  5
4F9
330
1F
100
AcDbEntity
  8
OBRYS
100
AcDbLine
 10
199.4927960165467
 20
115.5015620204092
 30
0.0
 11
199.3481590165466
 21
115.5015620204092
 31
0.0
  0
LINE
  5
4FA
330
1F
100
AcDbEntity
  8
OBRYS
100
AcDbLine
 10
199.4981590165467
 20
114.0515620204092
 30
0.0
 11
199.4981590165467
 21
114.3821150204092
 31
0.0
  0
LINE
  5
4FB
330
1F
100
AcDbEntity
  8
OBRYS
100
AcDbLine
 10
199.4981590165467
 20
115.5210090204092
 30
0.0
 11
199.4981590165467
 21
115.8515620204092
 31
0.0
  0
LINE
  5
4FC
330
1F
100
AcDbEntity
  8
OBRYS
100
AcDbLine
 10
199.3481590165466
 20
115.5015620204092
 30
0.0
 11
199.3481590165466
 21
114.4015620204092
 31
0.0
  0
LINE
  5
4FD
330
1F
100
AcDbEntity
  8
OBRYS
100
AcDbLine
 10
199.3481590165466
 20
114.1015620204092
 30
0.0
 11
199.3481590165466
 21
114.4015620204092
 31
0.0
  0
LINE
  5
4FE
330
1F
100
AcDbEntity
  8
OBRYS
100
AcDbLine
 10
199.3481590165466
 20
115.5015620204092
 30
0.0
 11
199.3481590165466
 21
115.8015620204092
 31
0.0
  0
LINE
  5
4FF
330
1F
100
AcDbEntity
  8
OBRYS
100
AcDbLine
 10
199.4613883104311
 20
115.3504368769427
 30
0.0
 11
203.2729380165466
 21
115.3525170204092
 31
0.0
  0
LINE
  5
500
330
1F
100
AcDbEntity
  8
OBRYS
100
AcDbLine
 10
199.4583341711989
 20
114.5498227923239
 30
0.0
 11
203.2733170165467
 21
114.5525170204092
 31
0.0
  0
LINE
  5
501
330
1F
100
AcDbEntity
  8
OBRYS
100
AcDbLine
 10
199.4577974254219
 20
140.0491326299214
 30
0.0
 11
203.2732260165467
 21
140.0511170204092
 31
0.0
  0
LINE
  5
502
330
1F
100
AcDbEntity
  8
OBRYS
100
AcDbLine
 10
199.4583341711989
 20
139.2484227923239
 30
0.0
 11
203.2730300165467
 21
139.2511170204092
 31
0.0
  0
LINE
  5
503
330
1F
100
AcDbEntity
  8
OBRYS
100
AcDbLine
 10
199.1181590165467
 20
106.4492290204092
 30
0.0
 11
199.1181590165467
 21
111.1491350204092
 31
0.0
  0
LINE
  5
504
330
1F
100
AcDbEntity
  8
OBRYS
100
AcDbLine
 10
199.3481590165466
 20
91.49680202040922
 30
0.0
 11
199.3481590165466
 21
91.66763002040922
 31
0.0
  0
LINE
  5
505
330
1F
100
AcDbEntity
  8
OBRYS
100
AcDbLine
 10
199.7931620165467
 20
91.49680202040922
 30
0.0
 11
199.3481590165466
 21
91.49680202040922
 31
0.0
  0
LINE
  5
506
330
1F
100
AcDbEntity
  8
OBRYS
100
AcDbLine
 10
199.3481590165466
 20
88.92597402040921
 30
0.0
 11
199.3481590165466
 21
89.09680202040921
 31
0.0
  0
LINE
  5
507
330
1F
100
AcDbEntity
  8
OBRYS
100
AcDbLine
 10
199.3481590165466
 20
89.09680202040921
 30
0.0
 11
199.7931620165467
 21
89.09680202040921
 31
0.0
  0
LINE
  5
508
330
1F
100
AcDbEntity
  8
OBRYS
100
AcDbLine
 10
199.5081590165466
 20
91.19680202040921
 30
0.0
 11
199.3481590165466
 21
91.19680202040921
 31
0.0
  0
LINE
  5
509
330
1F
100
AcDbEntity
  8
OBRYS
100
AcDbLine
 10
199.5081710165467
 20
89.39680202040923
 30
0.0
 11
199.3481590165466
 21
89.39680202040923
 31
0.0
  0
LINE
  5
50A
330
1F
100
AcDbEntity
  8
OBRYS
100
AcDbLine
 10
199.6324010165467
 20
91.21870902040921
 30
0.0
 11
199.5081590165466
 21
91.19680202040921
 31
0.0
  0
LINE
  5
50B
330
1F
100
AcDbEntity
  8
OBRYS
100
AcDbLine
 10
199.5081590165466
 20
89.39680202040923
 30
0.0
 11
199.6324010165467
 21
89.37489502040923
 31
0.0
  0
LINE
  5
50C
330
1F
100
AcDbEntity
  8
OBRYS
100
AcDbLine
 10
199.5081590165466
 20
89.39680202040923
 30
0.0
 11
199.5081590165466
 21
89.69293002040921
 31
0.0
  0
LINE
  5
50D
330
1F
100
AcDbEntity
  8
OBRYS
100
AcDbLine
 10
199.5081590165466
 20
90.90067402040923
 30
0.0
 11
199.5081590165466
 21
91.19680202040921
 31
0.0
  0
LINE
  5
50E
330
1F
100
AcDbEntity
  8
OBRYS
100
AcDbLine
 10
199.3481590165466
 20
91.19680202040921
 30
0.0
 11
199.3481590165466
 21
89.39680202040923
 31
0.0
  0
LINE
  5
50F
330
1F
100
AcDbEntity
  8
OBRYS
100
AcDbLine
 10
199.3481590165466
 20
91.49680202040922
 30
0.0
 11
199.3481590165466
 21
91.19680202040921
 31
0.0
  0
LINE
  5
510
330
1F
100
AcDbEntity
  8
OBRYS
100
AcDbLine
 10
199.3481590165466
 20
89.39680202040923
 30
0.0
 11
199.3481590165466
 21
89.09680202040921
 31
0.0
  0
LINE
  5
511
330
1F
100
AcDbEntity
  8
OBRYS
100
AcDbLine
 10
199.4577974254219
 20
127.7005326299214
 30
0.0
 11
203.2729380165466
 21
127.7025170204092
 31
0.0
  0
LINE
  5
512
330
1F
100
AcDbEntity
  8
OBRYS
100
AcDbLine
 10
199.4618249080149
 20
126.9004369915533
 30
0.0
 11
203.2733170165467
 21
126.9025170204092
 31
0.0
  0
LINE
  5
513
330
1F
100
AcDbEntity
  8
OBRYS
100
AcDbLine
 10
199.3481590165466
 20
140.5001620204092
 30
0.0
 11
199.3481590165466
 21
141.0210090204092
 31
0.0
  0
LINE
  5
514
330
1F
100
AcDbEntity
  8
OBRYS
100
AcDbLine
 10
199.4981710165466
 20
140.5001620204092
 30
0.0
 11
199.3481590165466
 21
140.5001620204092
 31
0.0
  0
LINE
  5
515
330
1F
100
AcDbEntity
  8
OBRYS
100
AcDbLine
 10
199.3481590165466
 20
138.2793150204092
 30
0.0
 11
199.3481590165466
 21
138.8001620204092
 31
0.0
  0
LINE
  5
516
330
1F
100
AcDbEntity
  8
OBRYS
100
AcDbLine
 10
199.3481590165466
 20
138.8001620204092
 30
0.0
 11
199.4981710165466
 21
138.8001620204092
 31
0.0
  0
LINE
  5
517
330
1F
100
AcDbEntity
  8
OBRYS
100
AcDbLine
 10
199.3481590165466
 20
139.1001620204092
 30
0.0
 11
199.4927960165467
 21
139.1001620204092
 31
0.0
  0
LINE
  5
518
330
1F
100
AcDbEntity
  8
OBRYS
100
AcDbLine
 10
199.4927960165467
 20
140.2001620204092
 30
0.0
 11
199.3481590165466
 21
140.2001620204092
 31
0.0
  0
LINE
  5
519
330
1F
100
AcDbEntity
  8
OBRYS
100
AcDbLine
 10
199.4981590165467
 20
138.7501620204092
 30
0.0
 11
199.4981590165467
 21
139.0807150204092
 31
0.0
  0
LINE
  5
51A
330
1F
100
AcDbEntity
  8
OBRYS
100
AcDbLine
 10
199.4981590165467
 20
140.2196090204092
 30
0.0
 11
199.4981590165467
 21
140.5501620204092
 31
0.0
  0
LINE
  5
51B
330
1F
100
AcDbEntity
  8
OBRYS
100
AcDbLine
 10
199.3481590165466
 20
140.2001620204092
 30
0.0
 11
199.3481590165466
 21
139.1001620204092
 31
0.0
  0
LINE
  5
51C
330
1F
100
AcDbEntity
  8
OBRYS
100
AcDbLine
 10
199.3481590165466
 20
138.8001620204092
 30
0.0
 11
199.3481590165466
 21
139.1001620204092
 31
0.0
  0
LINE
  5
51D
330
1F
100
AcDbEntity
  8
OBRYS
100
AcDbLine
 10
199.3481590165466
 20
140.2001620204092
 30
0.0
 11
199.3481590165466
 21
140.5001620204092
 31
0.0
  0
LINE
  5
51E
330
1F
100
AcDbEntity
  8
OBRYS
100
AcDbLine
 10
204.8481590165466
 20
66.43164902040921
 30
0.0
 11
203.9481590165467
 21
66.43164902040921
 31
0.0
  0
LINE
  5
51F
330
1F
100
AcDbEntity
  8
OBRYS
100
AcDbLine
 10
204.8481590165466
 20
78.7816490204092
 30
0.0
 11
203.9481590165467
 21
78.7816490204092
 31
0.0
  0
LINE
  5
520
330
1F
100
AcDbEntity
  8
OBRYS
100
AcDbLine
 10
204.8481590165466
 20
91.13164902040923
 30
0.0
 11
203.9481590165467
 21
91.13164902040923
 31
0.0
  0
LINE
  5
521
330
1F
100
AcDbEntity
  8
OBRYS
100
AcDbLine
 10
198.9481590165467
 20
94.13164902040923
 30
0.0
 11
204.8481590165466
 21
94.13164902040923
 31
0.0
  0
LINE
  5
522
330
1F
100
AcDbEntity
  8
OBRYS
100
AcDbLine
 10
204.8481590165466
 20
148.1667150204092
 30
0.0
 11
198.9481590165467
 21
148.1667150204092
 31
0.0
  0
LINE
  5
523
330
1F
100
AcDbEntity
  8
OBRYS
100
AcDbLine
 10
198.9481590165467
 20
98.07051702040921
 30
0.0
 11
204.8481590165466
 21
98.07051702040921
 31
0.0
  0
LINE
  5
524
330
1F
100
AcDbEntity
  8
OBRYS
100
AcDbLine
 10
204.8481590165466
 20
119.5278470204092
 30
0.0
 11
198.9481590165467
 21
119.5278470204092
 31
0.0
  0
LINE
  5
525
330
1F
100
AcDbEntity
  8
OBRYS
100
AcDbLine
 10
198.9481590165467
 20
81.7816490204092
 30
0.0
 11
204.8481590165466
 21
81.7816490204092
 31
0.0
  0
LINE
  5
526
330
1F
100
AcDbEntity
  8
OBRYS
100
AcDbLine
 10
198.9481590165467
 20
85.72051702040922
 30
0.0
 11
204.8481590165466
 21
85.72051702040922
 31
0.0
  0
LINE
  5
527
330
1F
100
AcDbEntity
  8
OBRYS
100
AcDbLine
 10
198.9481590165467
 20
69.43164902040921
 30
0.0
 11
204.8481590165466
 21
69.43164902040921
 31
0.0
  0
LINE
  5
528
330
1F
100
AcDbEntity
  8
OBRYS
100
AcDbLine
 10
198.9481590165467
 20
73.37051702040921
 30
0.0
 11
204.8481590165466
 21
73.37051702040921
 31
0.0
  0
LINE
  5
529
330
1F
100
AcDbEntity
  8
OBRYS
100
AcDbLine
 10
198.9481590165467
 20
61.02051702040922
 30
0.0
 11
204.8481590165466
 21
61.02051702040922
 31
0.0
  0
LINE
  5
52A
330
1F
100
AcDbEntity
  8
OBRYS
100
AcDbLine
 10
198.9481590165467
 20
57.08164902040922
 30
0.0
 11
204.8481590165466
 21
57.08164902040922
 31
0.0
  0
LINE
  5
52B
330
1F
100
AcDbEntity
  8
OBRYS
100
AcDbLine
 10
198.9481590165467
 20
111.4516220204092
 30
0.0
 11
204.8481590165466
 21
111.4516220204092
 31
0.0
  0
LINE
  5
52C
330
1F
100
AcDbEntity
  8
OBRYS
100
AcDbLine
 10
198.9481590165467
 20
106.1467420204092
 30
0.0
 11
204.8481590165466
 21
106.1467420204092
 31
0.0
  0
LINE
  5
52D
330
1F
100
AcDbEntity
  8
OBRYS
100
AcDbLine
 10
198.9481590165467
 20
111.7515620204092
 30
0.0
 11
204.8481590165466
 21
111.7515620204092
 31
0.0
  0
LINE
  5
52E
330
1F
100
AcDbEntity
  8
OBRYS
100
AcDbLine
 10
198.9481590165467
 20
112.2515620204092
 30
0.0
 11
204.8481590165466
 21
112.2515620204092
 31
0.0
  0
LINE
  5
52F
330
1F
100
AcDbEntity
  8
OBRYS
100
AcDbLine
 10
198.9481590165467
 20
105.8468020204092
 30
0.0
 11
204.8481590165466
 21
105.8468020204092
 31
0.0
  0
LINE
  5
530
330
1F
100
AcDbEntity
  8
OBRYS
100
AcDbLine
 10
198.9481590165467
 20
105.3468020204092
 30
0.0
 11
204.8481590165466
 21
105.3468020204092
 31
0.0
  0
LINE
  5
531
330
1F
100
AcDbEntity
  8
OBRYS
100
AcDbLine
 10
204.3481590165466
 20
134.2360290204092
 30
0.0
 11
198.9481590165467
 21
134.2360290204092
 31
0.0
  0
LINE
  5
532
330
1F
100
AcDbEntity
  8
OBRYS
100
AcDbLine
 10
204.3481590165466
 20
123.1183120204092
 30
0.0
 11
204.3481590165466
 21
121.8860290204092
 31
0.0
  0
LINE
  5
533
330
1F
100
AcDbEntity
  8
OBRYS
100
AcDbLine
 10
204.3481590165466
 20
121.1085330204092
 30
0.0
 11
204.3481590165466
 21
119.8762510204092
 31
0.0
  0
LINE
  5
534
330
1F
100
AcDbEntity
  8
OBRYS
100
AcDbLine
 10
204.3481590165466
 20
134.2360290204092
 30
0.0
 11
204.3481590165466
 21
135.4683120204092
 31
0.0
  0
LINE
  5
535
330
1F
100
AcDbEntity
  8
OBRYS
100
AcDbLine
 10
204.3481590165466
 20
134.4781960204092
 30
0.0
 11
198.9481590165467
 21
134.4781960204092
 31
0.0
  0
LINE
  5
536
330
1F
100
AcDbEntity
  8
OBRYS
100
AcDbLine
 10
204.3481590165466
 20
135.4683120204092
 30
0.0
 11
198.9481590165467
 21
135.4683120204092
 31
0.0
  0
LINE
  5
537
330
1F
100
AcDbEntity
  8
OBRYS
100
AcDbLine
 10
198.9481590165467
 20
83.36233502040922
 30
0.0
 11
204.3481590165466
 21
83.36233502040922
 31
0.0
  0
LINE
  5
538
330
1F
100
AcDbEntity
  8
OBRYS
100
AcDbLine
 10
204.3481590165466
 20
119.8762510204092
 30
0.0
 11
198.9481590165467
 21
119.8762510204092
 31
0.0
  0
LINE
  5
539
330
1F
100
AcDbEntity
  8
OBRYS
100
AcDbLine
 10
204.3481590165466
 20
82.13005202040922
 30
0.0
 11
204.3481590165466
 21
83.36233502040922
 31
0.0
  0
LINE
  5
53A
330
1F
100
AcDbEntity
  8
OBRYS
100
AcDbLine
 10
204.3481590165466
 20
121.8860290204092
 30
0.0
 11
198.9481590165467
 21
121.8860290204092
 31
0.0
  0
LINE
  5
53B
330
1F
100
AcDbEntity
  8
OBRYS
100
AcDbLine
 10
204.3481590165466
 20
71.01233502040921
 30
0.0
 11
204.3481590165466
 21
69.78005302040921
 31
0.0
  0
LINE
  5
53C
330
1F
100
AcDbEntity
  8
OBRYS
100
AcDbLine
 10
198.9481590165467
 20
73.02211402040922
 30
0.0
 11
204.3481590165466
 21
73.02211402040922
 31
0.0
  0
LINE
  5
53D
330
1F
100
AcDbEntity
  8
OBRYS
100
AcDbLine
 10
204.3481590165466
 20
95.71233502040921
 30
0.0
 11
204.3481590165466
 21
94.48005202040922
 31
0.0
  0
LINE
  5
53E
330
1F
100
AcDbEntity
  8
OBRYS
100
AcDbLine
 10
204.3481590165466
 20
73.02211402040922
 30
0.0
 11
204.3481590165466
 21
71.78983102040921
 31
0.0
  0
LINE
  5
53F
330
1F
100
AcDbEntity
  8
OBRYS
100
AcDbLine
 10
204.3481590165466
 20
97.72211302040922
 30
0.0
 11
204.3481590165466
 21
96.48983102040923
 31
0.0
  0
LINE
  5
540
330
1F
100
AcDbEntity
  8
OBRYS
100
AcDbLine
 10
198.9481590165467
 20
59.43983102040922
 30
0.0
 11
204.3481590165466
 21
59.43983102040922
 31
0.0
  0
LINE
  5
541
330
1F
100
AcDbEntity
  8
OBRYS
100
AcDbLine
 10
198.9481590165467
 20
58.66233502040922
 30
0.0
 11
204.3481590165466
 21
58.66233502040922
 31
0.0
  0
LINE
  5
542
330
1F
100
AcDbEntity
  8
OBRYS
100
AcDbLine
 10
198.9481590165467
 20
71.01233502040921
 30
0.0
 11
204.3481590165466
 21
71.01233502040921
 31
0.0
  0
LINE
  5
543
330
1F
100
AcDbEntity
  8
OBRYS
100
AcDbLine
 10
204.3481590165466
 20
58.66233502040922
 30
0.0
 11
204.3481590165466
 21
57.43005302040922
 31
0.0
  0
LINE
  5
544
330
1F
100
AcDbEntity
  8
OBRYS
100
AcDbLine
 10
198.9481590165467
 20
60.67211402040921
 30
0.0
 11
204.3481590165466
 21
60.67211402040921
 31
0.0
  0
LINE
  5
545
330
1F
100
AcDbEntity
  8
OBRYS
100
AcDbLine
 10
204.3481590165466
 20
60.67211402040921
 30
0.0
 11
204.3481590165466
 21
59.43983102040922
 31
0.0
  0
LINE
  5
546
330
1F
100
AcDbEntity
  8
OBRYS
100
AcDbLine
 10
198.9481590165467
 20
95.71233502040921
 30
0.0
 11
204.3481590165466
 21
95.71233502040921
 31
0.0
  0
LINE
  5
547
330
1F
100
AcDbEntity
  8
OBRYS
100
AcDbLine
 10
198.9481590165467
 20
97.72211302040922
 30
0.0
 11
204.3481590165466
 21
97.72211302040922
 31
0.0
  0
LINE
  5
548
330
1F
100
AcDbEntity
  8
OBRYS
100
AcDbLine
 10
204.3481590165466
 20
132.2262510204092
 30
0.0
 11
204.3481590165466
 21
133.4585330204092
 31
0.0
  0
LINE
  5
549
330
1F
100
AcDbEntity
  8
OBRYS
100
AcDbLine
 10
204.3481590165466
 20
145.8085330204092
 30
0.0
 11
204.3481590165466
 21
144.5762500204092
 31
0.0
  0
LINE
  5
54A
330
1F
100
AcDbEntity
  8
OBRYS
100
AcDbLine
 10
204.3481590165466
 20
132.2262510204092
 30
0.0
 11
198.9481590165467
 21
132.2262510204092
 31
0.0
  0
LINE
  5
54B
330
1F
100
AcDbEntity
  8
OBRYS
100
AcDbLine
 10
204.3481590165466
 20
84.1398310204092
 30
0.0
 11
204.3481590165466
 21
85.3721130204092
 31
0.0
  0
LINE
  5
54C
330
1F
100
AcDbEntity
  8
OBRYS
100
AcDbLine
 10
204.3481590165466
 20
123.1183120204092
 30
0.0
 11
198.9481590165467
 21
123.1183120204092
 31
0.0
  0
LINE
  5
54D
330
1F
100
AcDbEntity
  8
OBRYS
100
AcDbLine
 10
204.3481590165466
 20
147.8183110204092
 30
0.0
 11
204.3481590165466
 21
146.5860290204092
 31
0.0
  0
LINE
  5
54E
330
1F
100
AcDbEntity
  8
OBRYS
100
AcDbLine
 10
198.9481590165467
 20
85.3721130204092
 30
0.0
 11
204.3481590165466
 21
85.3721130204092
 31
0.0
  0
LINE
  5
54F
330
1F
100
AcDbEntity
  8
OBRYS
100
AcDbLine
 10
204.3481590165466
 20
121.1085330204092
 30
0.0
 11
198.9481590165467
 21
121.1085330204092
 31
0.0
  0
LINE
  5
550
330
1F
100
AcDbEntity
  8
OBRYS
100
AcDbLine
 10
204.3481590165466
 20
122.1281960204092
 30
0.0
 11
198.9481590165467
 21
122.1281960204092
 31
0.0
  0
LINE
  5
551
330
1F
100
AcDbEntity
  8
OBRYS
100
AcDbLine
 10
204.3481590165466
 20
120.1184180204092
 30
0.0
 11
198.9481590165467
 21
120.1184180204092
 31
0.0
  0
LINE
  5
552
330
1F
100
AcDbEntity
  8
OBRYS
100
AcDbLine
 10
198.9481590165467
 20
60.42994702040922
 30
0.0
 11
204.3481590165466
 21
60.42994702040922
 31
0.0
  0
LINE
  5
553
330
1F
100
AcDbEntity
  8
OBRYS
100
AcDbLine
 10
198.9481590165467
 20
85.12994602040921
 30
0.0
 11
204.3481590165466
 21
85.12994602040921
 31
0.0
  0
LINE
  5
554
330
1F
100
AcDbEntity
  8
OBRYS
100
AcDbLine
 10
198.9481590165467
 20
84.1398310204092
 30
0.0
 11
204.3481590165466
 21
84.1398310204092
 31
0.0
  0
LINE
  5
555
330
1F
100
AcDbEntity
  8
OBRYS
100
AcDbLine
 10
204.3481590165466
 20
145.8085330204092
 30
0.0
 11
198.9481590165467
 21
145.8085330204092
 31
0.0
  0
LINE
  5
556
330
1F
100
AcDbEntity
  8
OBRYS
100
AcDbLine
 10
198.9481590165467
 20
72.77994702040921
 30
0.0
 11
204.3481590165466
 21
72.77994702040921
 31
0.0
  0
LINE
  5
557
330
1F
100
AcDbEntity
  8
OBRYS
100
AcDbLine
 10
198.9481590165467
 20
71.78983102040921
 30
0.0
 11
204.3481590165466
 21
71.78983102040921
 31
0.0
  0
LINE
  5
558
330
1F
100
AcDbEntity
  8
OBRYS
100
AcDbLine
 10
198.9481590165467
 20
95.47016802040922
 30
0.0
 11
204.3481590165466
 21
95.47016802040922
 31
0.0
  0
LINE
  5
559
330
1F
100
AcDbEntity
  8
OBRYS
100
AcDbLine
 10
198.9481590165467
 20
94.48005202040922
 30
0.0
 11
204.3481590165466
 21
94.48005202040922
 31
0.0
  0
LINE
  5
55A
330
1F
100
AcDbEntity
  8
OBRYS
100
AcDbLine
 10
198.9481590165467
 20
58.42016802040922
 30
0.0
 11
204.3481590165466
 21
58.42016802040922
 31
0.0
  0
LINE
  5
55B
330
1F
100
AcDbEntity
  8
OBRYS
100
AcDbLine
 10
198.9481590165467
 20
57.43005302040922
 30
0.0
 11
204.3481590165466
 21
57.43005302040922
 31
0.0
  0
LINE
  5
55C
330
1F
100
AcDbEntity
  8
OBRYS
100
AcDbLine
 10
204.3481590165466
 20
144.5762500204092
 30
0.0
 11
198.9481590165467
 21
144.5762500204092
 31
0.0
  0
LINE
  5
55D
330
1F
100
AcDbEntity
  8
OBRYS
100
AcDbLine
 10
204.3481590165466
 20
144.8184170204092
 30
0.0
 11
198.9481590165467
 21
144.8184170204092
 31
0.0
  0
LINE
  5
55E
330
1F
100
AcDbEntity
  8
OBRYS
100
AcDbLine
 10
198.9481590165467
 20
97.47994602040923
 30
0.0
 11
204.3481590165466
 21
97.47994602040923
 31
0.0
  0
LINE
  5
55F
330
1F
100
AcDbEntity
  8
OBRYS
100
AcDbLine
 10
198.9481590165467
 20
96.48983102040923
 30
0.0
 11
204.3481590165466
 21
96.48983102040923
 31
0.0
  0
LINE
  5
560
330
1F
100
AcDbEntity
  8
OBRYS
100
AcDbLine
 10
198.9481590165467
 20
83.12016802040922
 30
0.0
 11
204.3481590165466
 21
83.12016802040922
 31
0.0
  0
LINE
  5
561
330
1F
100
AcDbEntity
  8
OBRYS
100
AcDbLine
 10
198.9481590165467
 20
82.13005202040922
 30
0.0
 11
204.3481590165466
 21
82.13005202040922
 31
0.0
  0
LINE
  5
562
330
1F
100
AcDbEntity
  8
OBRYS
100
AcDbLine
 10
204.3481590165466
 20
146.5860290204092
 30
0.0
 11
198.9481590165467
 21
146.5860290204092
 31
0.0
  0
LINE
  5
563
330
1F
100
AcDbEntity
  8
OBRYS
100
AcDbLine
 10
204.3481590165466
 20
146.8281960204092
 30
0.0
 11
198.9481590165467
 21
146.8281960204092
 31
0.0
  0
LINE
  5
564
330
1F
100
AcDbEntity
  8
OBRYS
100
AcDbLine
 10
204.3481590165466
 20
147.8183110204092
 30
0.0
 11
198.9481590165467
 21
147.8183110204092
 31
0.0
  0
LINE
  5
565
330
1F
100
AcDbEntity
  8
OBRYS
100
AcDbLine
 10
204.3481590165466
 20
132.4684180204092
 30
0.0
 11
198.9481590165467
 21
132.4684180204092
 31
0.0
  0
LINE
  5
566
330
1F
100
AcDbEntity
  8
OBRYS
100
AcDbLine
 10
204.3481590165466
 20
133.4585330204092
 30
0.0
 11
198.9481590165467
 21
133.4585330204092
 31
0.0
  0
LINE
  5
567
330
1F
100
AcDbEntity
  8
OBRYS
100
AcDbLine
 10
198.9481590165467
 20
70.77016802040922
 30
0.0
 11
204.3481590165466
 21
70.77016802040922
 31
0.0
  0
LINE
  5
568
330
1F
100
AcDbEntity
  8
OBRYS
100
AcDbLine
 10
198.9481590165467
 20
69.78005302040921
 30
0.0
 11
204.3481590165466
 21
69.78005302040921
 31
0.0
  0
LINE
  5
569
330
1F
100
AcDbEntity
  8
OBRYS
100
AcDbLine
 10
203.9481590165467
 20
94.13164902040923
 30
0.0
 11
203.9481590165467
 21
91.13164902040923
 31
0.0
  0
LINE
  5
56A
330
1F
100
AcDbEntity
  8
OBRYS
100
AcDbLine
 10
203.9481590165467
 20
69.43164902040921
 30
0.0
 11
203.9481590165467
 21
66.43164902040921
 31
0.0
  0
LINE
  5
56B
330
1F
100
AcDbEntity
  8
OBRYS
100
AcDbLine
 10
203.9481590165467
 20
81.7816490204092
 30
0.0
 11
203.9481590165467
 21
78.7816490204092
 31
0.0
  0
LINE
  5
56C
330
1F
100
AcDbEntity
  8
OBRYS
100
AcDbLine
 10
203.9481590165467
 20
144.2278470204092
 30
0.0
 11
203.9481590165467
 21
135.8167150204092
 31
0.0
  0
LINE
  5
56D
330
1F
100
AcDbEntity
  8
OBRYS
100
AcDbLine
 10
203.9481590165467
 20
144.2278470204092
 30
0.0
 11
198.9481590165467
 21
144.2278470204092
 31
0.0
  0
LINE
  5
56E
330
1F
100
AcDbEntity
  8
OBRYS
100
AcDbLine
 10
203.9481590165467
 20
131.8778470204092
 30
0.0
 11
203.9481590165467
 21
123.4667150204092
 31
0.0
  0
LINE
  5
56F
330
1F
100
AcDbEntity
  8
OBRYS
100
AcDbLine
 10
203.9481590165467
 20
131.8778470204092
 30
0.0
 11
198.9481590165467
 21
131.8778470204092
 31
0.0
  0
LINE
  5
570
330
1F
100
AcDbEntity
  8
OBRYS
100
AcDbLine
 10
203.9481590165467
 20
135.8167150204092
 30
0.0
 11
198.9481590165467
 21
135.8167150204092
 31
0.0
  0
LINE
  5
571
330
1F
100
AcDbEntity
  8
OBRYS
100
AcDbLine
 10
203.9481590165467
 20
123.4667150204092
 30
0.0
 11
198.9481590165467
 21
123.4667150204092
 31
0.0
  0
LINE
  5
572
330
1F
100
AcDbEntity
  8
OBRYS
100
AcDbLine
 10
201.5181590165467
 20
88.49674202040923
 30
0.0
 11
198.9481590165467
 21
88.49674202040923
 31
0.0
  0
LINE
  5
573
330
1F
100
AcDbEntity
  8
OBRYS
100
AcDbLine
 10
201.5181590165467
 20
92.09674202040922
 30
0.0
 11
198.9481590165467
 21
92.09674202040922
 31
0.0
  0
LINE
  5
574
330
1F
100
AcDbEntity
  8
OBRYS
100
AcDbLine
 10
198.9481590165467
 20
137.8516220204092
 30
0.0
 11
201.5181590165467
 21
137.8516220204092
 31
0.0
  0
LINE
  5
575
330
1F
100
AcDbEntity
  8
OBRYS
100
AcDbLine
 10
201.5181590165467
 20
79.74674202040923
 30
0.0
 11
198.9481590165467
 21
79.74674202040923
 31
0.0
  0
LINE
  5
576
330
1F
100
AcDbEntity
  8
OBRYS
100
AcDbLine
 10
201.5181590165467
 20
63.79674202040921
 30
0.0
 11
198.9481590165467
 21
63.79674202040921
 31
0.0
  0
LINE
  5
577
330
1F
100
AcDbEntity
  8
OBRYS
100
AcDbLine
 10
198.9481590165467
 20
129.1016220204092
 30
0.0
 11
201.5181590165467
 21
129.1016220204092
 31
0.0
  0
LINE
  5
578
330
1F
100
AcDbEntity
  8
OBRYS
100
AcDbLine
 10
201.5181590165467
 20
100.8467420204092
 30
0.0
 11
198.9481590165467
 21
100.8467420204092
 31
0.0
  0
LINE
  5
579
330
1F
100
AcDbEntity
  8
OBRYS
100
AcDbLine
 10
201.5181590165467
 20
67.39674202040922
 30
0.0
 11
198.9481590165467
 21
67.39674202040922
 31
0.0
  0
LINE
  5
57A
330
1F
100
AcDbEntity
  8
OBRYS
100
AcDbLine
 10
201.5181590165467
 20
111.1491820204092
 30
0.0
 11
198.9481590165467
 21
111.1491820204092
 31
0.0
  0
LINE
  5
57B
330
1F
100
AcDbEntity
  8
OBRYS
100
AcDbLine
 10
198.9481590165467
 20
141.4516220204092
 30
0.0
 11
201.5181590165467
 21
141.4516220204092
 31
0.0
  0
LINE
  5
57C
330
1F
100
AcDbEntity
  8
OBRYS
100
AcDbLine
 10
198.9481590165467
 20
125.5016220204092
 30
0.0
 11
201.5181590165467
 21
125.5016220204092
 31
0.0
  0
LINE
  5
57D
330
1F
100
AcDbEntity
  8
OBRYS
100
AcDbLine
 10
198.9481590165467
 20
116.7516220204092
 30
0.0
 11
201.5181590165467
 21
116.7516220204092
 31
0.0
  0
LINE
  5
57E
330
1F
100
AcDbEntity
  8
OBRYS
100
AcDbLine
 10
198.9481590165467
 20
113.1516220204092
 30
0.0
 11
201.5181590165467
 21
113.1516220204092
 31
0.0
  0
LINE
  5
57F
330
1F
100
AcDbEntity
  8
OBRYS
100
AcDbLine
 10
201.5181590165467
 20
76.14674202040922
 30
0.0
 11
198.9481590165467
 21
76.14674202040922
 31
0.0
  0
LINE
  5
580
330
1F
100
AcDbEntity
  8
OBRYS
100
AcDbLine
 10
201.5181590165467
 20
104.4467420204092
 30
0.0
 11
198.9481590165467
 21
104.4467420204092
 31
0.0
  0
LINE
  5
581
330
1F
100
AcDbEntity
  8
OBRYS
100
AcDbLine
 10
198.9481590165467
 20
106.4491820204092
 30
0.0
 11
201.5181590165467
 21
106.4491820204092
 31
0.0
  0
LINE
  5
582
330
1F
100
AcDbEntity
  8
OBRYS
100
AcDbLine
 10
199.7949870165467
 20
140.8494640204092
 30
0.0
 11
198.9481590165467
 21
141.1745310204092
 31
0.0
  0
LINE
  5
583
330
1F
100
AcDbEntity
  8
OBRYS
100
AcDbLine
 10
198.9481590165467
 20
113.4271930204092
 30
0.0
 11
199.7949870165467
 21
113.7522600204092
 31
0.0
  0
LINE
  5
584
330
1F
100
AcDbEntity
  8
OBRYS
100
AcDbLine
 10
199.7949870165467
 20
103.8461040204092
 30
0.0
 11
198.9481590165467
 21
104.1711710204092
 31
0.0
  0
LINE
  5
585
330
1F
100
AcDbEntity
  8
OBRYS
100
AcDbLine
 10
198.9481590165467
 20
76.42383302040922
 30
0.0
 11
199.7949870165467
 21
76.74890002040921
 31
0.0
  0
LINE
  5
586
330
1F
100
AcDbEntity
  8
OBRYS
100
AcDbLine
 10
198.9481590165467
 20
64.05707602040921
 30
0.0
 11
199.7949870165467
 21
64.38214302040922
 31
0.0
  0
LINE
  5
587
330
1F
100
AcDbEntity
  8
OBRYS
100
AcDbLine
 10
198.9481590165467
 20
88.77243302040922
 30
0.0
 11
199.7949870165467
 21
89.09750002040921
 31
0.0
  0
LINE
  5
588
330
1F
100
AcDbEntity
  8
OBRYS
100
AcDbLine
 10
199.7949870165467
 20
128.5008640204092
 30
0.0
 11
198.9481590165467
 21
128.8259310204092
 31
0.0
  0
LINE
  5
589
330
1F
100
AcDbEntity
  8
OBRYS
100
AcDbLine
 10
199.7949870165467
 20
101.4475000204092
 30
0.0
 11
198.9481590165467
 21
101.1224330204092
 31
0.0
  0
LINE
  5
58A
330
1F
100
AcDbEntity
  8
OBRYS
100
AcDbLine
 10
198.9481590165467
 20
116.4759310204092
 30
0.0
 11
199.7949870165467
 21
116.1508640204092
 31
0.0
  0
LINE
  5
58B
330
1F
100
AcDbEntity
  8
OBRYS
100
AcDbLine
 10
199.7949870165467
 20
66.78074702040922
 30
0.0
 11
198.9481590165467
 21
67.10581402040921
 31
0.0
  0
LINE
  5
58C
330
1F
100
AcDbEntity
  8
OBRYS
100
AcDbLine
 10
199.7949870165467
 20
91.49610402040922
 30
0.0
 11
198.9481590165467
 21
91.82117102040921
 31
0.0
  0
LINE
  5
58D
330
1F
100
AcDbEntity
  8
OBRYS
100
AcDbLine
 10
199.7949870165467
 20
79.14750402040922
 30
0.0
 11
198.9481590165467
 21
79.4725710204092
 31
0.0
  0
LINE
  5
58E
330
1F
100
AcDbEntity
  8
OBRYS
100
AcDbLine
 10
198.9481590165467
 20
125.7771930204092
 30
0.0
 11
199.7949870165467
 21
126.1022600204092
 31
0.0
  0
LINE
  5
58F
330
1F
100
AcDbEntity
  8
OBRYS
100
AcDbLine
 10
198.9481590165467
 20
138.1257930204092
 30
0.0
 11
199.7949870165467
 21
138.4508600204092
 31
0.0
  0
LINE
  5
590
330
1F
100
AcDbEntity
  8
OBRYS
100
AcDbLine
 10
199.1181750165466
 20
111.0516220204092
 30
0.0
 11
198.9481590165467
 21
111.0516220204092
 31
0.0
  0
LINE
  5
591
330
1F
100
AcDbEntity
  8
OBRYS
100
AcDbLine
 10
198.9481590165467
 20
106.5467420204092
 30
0.0
 11
199.1181750165466
 21
106.5467420204092
 31
0.0
  0
LINE
  5
592
330
1F
100
AcDbEntity
  8
OBRYS
100
AcDbLine
 10
198.9481590165467
 20
57.08164902040922
 30
0.0
 11
198.9481590165467
 21
106.5467420204092
 31
0.0
  0
LINE
  5
593
330
1F
100
AcDbEntity
  8
OBRYS
100
AcDbLine
 10
198.9481590165467
 20
111.0516220204092
 30
0.0
 11
198.9481590165467
 21
148.1667150204092
 31
0.0
  0
LINE
  5
594
330
1F
100
AcDbEntity
  8
OBRYS
100
AcDbLine
 10
204.8481590165466
 20
57.08164902040922
 30
0.0
 11
204.8481590165466
 21
148.1667150204092
 31
0.0
  0
LINE
  5
595
330
1F
100
AcDbEntity
  8
OBRYS
100
AcDbLine
 10
230.2019283104311
 20
103.0456768769427
 30
0.0
 11
234.0134210165467
 21
103.0477570204092
 31
0.0
  0
LINE
  5
596
330
1F
100
AcDbEntity
  8
OBRYS
100
AcDbLine
 10
230.1988741711989
 20
102.2450627923239
 30
0.0
 11
234.0139160165467
 21
102.2477570204092
 31
0.0
  0
LINE
  5
597
330
1F
100
AcDbEntity
  8
OBRYS
100
AcDbLine
 10
230.0886990165467
 20
103.8468020204092
 30
0.0
 11
230.0886990165467
 21
104.0176300204092
 31
0.0
  0
LINE
  5
598
330
1F
100
AcDbEntity
  8
OBRYS
100
AcDbLine
 10
230.5337030165467
 20
103.8468020204092
 30
0.0
 11
230.0886990165467
 21
103.8468020204092
 31
0.0
  0
LINE
  5
599
330
1F
100
AcDbEntity
  8
OBRYS
100
AcDbLine
 10
230.0886990165467
 20
101.2759740204092
 30
0.0
 11
230.0886990165467
 21
101.4468020204092
 31
0.0
  0
LINE
  5
59A
330
1F
100
AcDbEntity
  8
OBRYS
100
AcDbLine
 10
230.0886990165467
 20
101.4468020204092
 30
0.0
 11
230.5337030165467
 21
101.4468020204092
 31
0.0
  0
LINE
  5
59B
330
1F
100
AcDbEntity
  8
OBRYS
100
AcDbLine
 10
230.2486990165467
 20
103.5468020204092
 30
0.0
 11
230.0886990165467
 21
103.5468020204092
 31
0.0
  0
LINE
  5
59C
330
1F
100
AcDbEntity
  8
OBRYS
100
AcDbLine
 10
230.2487120165466
 20
101.7468020204092
 30
0.0
 11
230.0886990165467
 21
101.7468020204092
 31
0.0
  0
LINE
  5
59D
330
1F
100
AcDbEntity
  8
OBRYS
100
AcDbLine
 10
230.2486990165467
 20
101.7468020204092
 30
0.0
 11
230.3729410165467
 21
101.7248950204092
 31
0.0
  0
LINE
  5
59E
330
1F
100
AcDbEntity
  8
OBRYS
100
AcDbLine
 10
230.3729410165467
 20
103.5687090204092
 30
0.0
 11
230.2486990165467
 21
103.5468020204092
 31
0.0
  0
LINE
  5
59F
330
1F
100
AcDbEntity
  8
OBRYS
100
AcDbLine
 10
230.2486990165467
 20
101.7468020204092
 30
0.0
 11
230.2486990165467
 21
102.0429300204092
 31
0.0
  0
LINE
  5
5A0
330
1F
100
AcDbEntity
  8
OBRYS
100
AcDbLine
 10
230.2486990165467
 20
103.2506740204092
 30
0.0
 11
230.2486990165467
 21
103.5468020204092
 31
0.0
  0
LINE
  5
5A1
330
1F
100
AcDbEntity
  8
OBRYS
100
AcDbLine
 10
230.0886990165467
 20
103.5468020204092
 30
0.0
 11
230.0886990165467
 21
101.7468020204092
 31
0.0
  0
LINE
  5
5A2
330
1F
100
AcDbEntity
  8
OBRYS
100
AcDbLine
 10
230.0886990165467
 20
103.8468020204092
 30
0.0
 11
230.0886990165467
 21
103.5468020204092
 31
0.0
  0
LINE
  5
5A3
330
1F
100
AcDbEntity
  8
OBRYS
100
AcDbLine
 10
230.0886990165467
 20
101.7468020204092
 30
0.0
 11
230.0886990165467
 21
101.4468020204092
 31
0.0
  0
LINE
  5
5A4
330
1F
100
AcDbEntity
  8
OBRYS
100
AcDbLine
 10
230.2019283104311
 20
65.98031987694272
 30
0.0
 11
234.0168730165467
 21
65.98240102040921
 31
0.0
  0
LINE
  5
5A5
330
1F
100
AcDbEntity
  8
OBRYS
100
AcDbLine
 10
230.1988741711989
 20
65.17970579232393
 30
0.0
 11
234.0103490165467
 21
65.18239802040921
 31
0.0
  0
LINE
  5
5A6
330
1F
100
AcDbEntity
  8
OBRYS
100
AcDbLine
 10
230.2019283104311
 20
90.6956768769427
 30
0.0
 11
234.0134210165467
 21
90.69775702040921
 31
0.0
  0
LINE
  5
5A7
330
1F
100
AcDbEntity
  8
OBRYS
100
AcDbLine
 10
230.2023649080149
 20
89.89567699155334
 30
0.0
 11
234.0139160165467
 21
89.8977570204092
 31
0.0
  0
LINE
  5
5A8
330
1F
100
AcDbEntity
  8
OBRYS
100
AcDbLine
 10
230.0886990165467
 20
128.1515620204092
 30
0.0
 11
230.0886990165467
 21
128.6724090204092
 31
0.0
  0
LINE
  5
5A9
330
1F
100
AcDbEntity
  8
OBRYS
100
AcDbLine
 10
230.2387120165467
 20
128.1515620204092
 30
0.0
 11
230.0886990165467
 21
128.1515620204092
 31
0.0
  0
LINE
  5
5AA
330
1F
100
AcDbEntity
  8
OBRYS
100
AcDbLine
 10
230.0886990165467
 20
125.9307150204092
 30
0.0
 11
230.0886990165467
 21
126.4515620204092
 31
0.0
  0
LINE
  5
5AB
330
1F
100
AcDbEntity
  8
OBRYS
100
AcDbLine
 10
230.0886990165467
 20
126.4515620204092
 30
0.0
 11
230.2387120165467
 21
126.4515620204092
 31
0.0
  0
LINE
  5
5AC
330
1F
100
AcDbEntity
  8
OBRYS
100
AcDbLine
 10
230.0886990165467
 20
126.7515620204092
 30
0.0
 11
230.2333370165466
 21
126.7515620204092
 31
0.0
  0
LINE
  5
5AD
330
1F
100
AcDbEntity
  8
OBRYS
100
AcDbLine
 10
230.2333370165466
 20
127.8515620204092
 30
0.0
 11
230.0886990165467
 21
127.8515620204092
 31
0.0
  0
LINE
  5
5AE
330
1F
100
AcDbEntity
  8
OBRYS
100
AcDbLine
 10
230.2386990165467
 20
126.4015620204092
 30
0.0
 11
230.2386990165467
 21
126.7321150204092
 31
0.0
  0
LINE
  5
5AF
330
1F
100
AcDbEntity
  8
OBRYS
100
AcDbLine
 10
230.2386990165467
 20
127.8710090204092
 30
0.0
 11
230.2386990165467
 21
128.2015620204092
 31
0.0
  0
LINE
  5
5B0
330
1F
100
AcDbEntity
  8
OBRYS
100
AcDbLine
 10
230.0886990165467
 20
127.8515620204092
 30
0.0
 11
230.0886990165467
 21
126.7515620204092
 31
0.0
  0
LINE
  5
5B1
330
1F
100
AcDbEntity
  8
OBRYS
100
AcDbLine
 10
230.0886990165467
 20
126.4515620204092
 30
0.0
 11
230.0886990165467
 21
126.7515620204092
 31
0.0
  0
LINE
  5
5B2
330
1F
100
AcDbEntity
  8
OBRYS
100
AcDbLine
 10
230.0886990165467
 20
127.8515620204092
 30
0.0
 11
230.0886990165467
 21
128.1515620204092
 31
0.0
  0
LINE
  5
5B3
330
1F
100
AcDbEntity
  8
OBRYS
100
AcDbLine
 10
230.0886990165467
 20
64.21061602040922
 30
0.0
 11
230.0886990165467
 21
64.38144502040922
 31
0.0
  0
LINE
  5
5B4
330
1F
100
AcDbEntity
  8
OBRYS
100
AcDbLine
 10
230.0886990165467
 20
64.38144502040922
 30
0.0
 11
230.5337030165467
 21
64.38144502040922
 31
0.0
  0
LINE
  5
5B5
330
1F
100
AcDbEntity
  8
OBRYS
100
AcDbLine
 10
230.0886990165467
 20
66.78144502040922
 30
0.0
 11
230.0886990165467
 21
66.95227302040922
 31
0.0
  0
LINE
  5
5B6
330
1F
100
AcDbEntity
  8
OBRYS
100
AcDbLine
 10
230.5337030165467
 20
66.78144502040922
 30
0.0
 11
230.0886990165467
 21
66.78144502040922
 31
0.0
  0
LINE
  5
5B7
330
1F
100
AcDbEntity
  8
OBRYS
100
AcDbLine
 10
230.2486990165467
 20
66.48144502040921
 30
0.0
 11
230.0886990165467
 21
66.48144502040921
 31
0.0
  0
LINE
  5
5B8
330
1F
100
AcDbEntity
  8
OBRYS
100
AcDbLine
 10
230.2487120165466
 20
64.68144502040921
 30
0.0
 11
230.0886990165467
 21
64.68144502040921
 31
0.0
  0
LINE
  5
5B9
330
1F
100
AcDbEntity
  8
OBRYS
100
AcDbLine
 10
230.3729410165467
 20
66.50335202040921
 30
0.0
 11
230.2486990165467
 21
66.48144502040921
 31
0.0
  0
LINE
  5
5BA
330
1F
100
AcDbEntity
  8
OBRYS
100
AcDbLine
 10
230.2486990165467
 20
64.68144502040921
 30
0.0
 11
230.3729410165467
 21
64.65953702040922
 31
0.0
  0
LINE
  5
5BB
330
1F
100
AcDbEntity
  8
OBRYS
100
AcDbLine
 10
230.2486990165467
 20
64.68144502040921
 30
0.0
 11
230.2486990165467
 21
64.97757302040921
 31
0.0
  0
LINE
  5
5BC
330
1F
100
AcDbEntity
  8
OBRYS
100
AcDbLine
 10
230.2486990165467
 20
66.18531602040922
 30
0.0
 11
230.2486990165467
 21
66.48144502040921
 31
0.0
  0
LINE
  5
5BD
330
1F
100
AcDbEntity
  8
OBRYS
100
AcDbLine
 10
230.0886990165467
 20
66.48144502040921
 30
0.0
 11
230.0886990165467
 21
64.68144502040921
 31
0.0
  0
LINE
  5
5BE
330
1F
100
AcDbEntity
  8
OBRYS
100
AcDbLine
 10
230.0886990165467
 20
66.78144502040922
 30
0.0
 11
230.0886990165467
 21
66.48144502040921
 31
0.0
  0
LINE
  5
5BF
330
1F
100
AcDbEntity
  8
OBRYS
100
AcDbLine
 10
230.0886990165467
 20
64.68144502040921
 30
0.0
 11
230.0886990165467
 21
64.38144502040922
 31
0.0
  0
LINE
  5
5C0
330
1F
100
AcDbEntity
  8
OBRYS
100
AcDbLine
 10
230.2019283104311
 20
78.34707687694272
 30
0.0
 11
234.0131340165466
 21
78.34915702040921
 31
0.0
  0
LINE
  5
5C1
330
1F
100
AcDbEntity
  8
OBRYS
100
AcDbLine
 10
230.2023649080149
 20
77.54707699155337
 30
0.0
 11
234.0142030165466
 21
77.54915702040921
 31
0.0
  0
LINE
  5
5C2
330
1F
100
AcDbEntity
  8
OBRYS
100
AcDbLine
 10
230.0886990165467
 20
76.57737402040921
 30
0.0
 11
230.0886990165467
 21
76.74820202040921
 31
0.0
  0
LINE
  5
5C3
330
1F
100
AcDbEntity
  8
OBRYS
100
AcDbLine
 10
230.0886990165467
 20
76.74820202040921
 30
0.0
 11
230.5337030165467
 21
76.74820202040921
 31
0.0
  0
LINE
  5
5C4
330
1F
100
AcDbEntity
  8
OBRYS
100
AcDbLine
 10
230.0886990165467
 20
79.14820202040922
 30
0.0
 11
230.0886990165467
 21
79.31903002040922
 31
0.0
  0
LINE
  5
5C5
330
1F
100
AcDbEntity
  8
OBRYS
100
AcDbLine
 10
230.5337030165467
 20
79.14820202040922
 30
0.0
 11
230.0886990165467
 21
79.14820202040922
 31
0.0
  0
LINE
  5
5C6
330
1F
100
AcDbEntity
  8
OBRYS
100
AcDbLine
 10
230.2486990165467
 20
78.8482020204092
 30
0.0
 11
230.0886990165467
 21
78.8482020204092
 31
0.0
  0
LINE
  5
5C7
330
1F
100
AcDbEntity
  8
OBRYS
100
AcDbLine
 10
230.2487120165466
 20
77.04820202040922
 30
0.0
 11
230.0886990165467
 21
77.04820202040922
 31
0.0
  0
LINE
  5
5C8
330
1F
100
AcDbEntity
  8
OBRYS
100
AcDbLine
 10
230.2486990165467
 20
77.04820202040922
 30
0.0
 11
230.3729410165467
 21
77.02629502040922
 31
0.0
  0
LINE
  5
5C9
330
1F
100
AcDbEntity
  8
OBRYS
100
AcDbLine
 10
230.3729410165467
 20
78.8701090204092
 30
0.0
 11
230.2486990165467
 21
78.8482020204092
 31
0.0
  0
LINE
  5
5CA
330
1F
100
AcDbEntity
  8
OBRYS
100
AcDbLine
 10
230.2486990165467
 20
77.04820202040922
 30
0.0
 11
230.2486990165467
 21
77.34433002040922
 31
0.0
  0
LINE
  5
5CB
330
1F
100
AcDbEntity
  8
OBRYS
100
AcDbLine
 10
230.2486990165467
 20
78.55207402040922
 30
0.0
 11
230.2486990165467
 21
78.8482020204092
 31
0.0
  0
LINE
  5
5CC
330
1F
100
AcDbEntity
  8
OBRYS
100
AcDbLine
 10
230.0886990165467
 20
78.8482020204092
 30
0.0
 11
230.0886990165467
 21
77.04820202040922
 31
0.0
  0
LINE
  5
5CD
330
1F
100
AcDbEntity
  8
OBRYS
100
AcDbLine
 10
230.0886990165467
 20
79.14820202040922
 30
0.0
 11
230.0886990165467
 21
78.8482020204092
 31
0.0
  0
LINE
  5
5CE
330
1F
100
AcDbEntity
  8
OBRYS
100
AcDbLine
 10
230.0886990165467
 20
77.04820202040922
 30
0.0
 11
230.0886990165467
 21
76.74820202040921
 31
0.0
  0
LINE
  5
5CF
330
1F
100
AcDbEntity
  8
OBRYS
100
AcDbLine
 10
230.0886990165467
 20
115.8015620204092
 30
0.0
 11
230.0886990165467
 21
116.3224090204092
 31
0.0
  0
LINE
  5
5D0
330
1F
100
AcDbEntity
  8
OBRYS
100
AcDbLine
 10
230.2387120165467
 20
115.8015620204092
 30
0.0
 11
230.0886990165467
 21
115.8015620204092
 31
0.0
  0
LINE
  5
5D1
330
1F
100
AcDbEntity
  8
OBRYS
100
AcDbLine
 10
230.0886990165467
 20
113.5807150204092
 30
0.0
 11
230.0886990165467
 21
114.1015620204092
 31
0.0
  0
LINE
  5
5D2
330
1F
100
AcDbEntity
  8
OBRYS
100
AcDbLine
 10
230.0886990165467
 20
114.1015620204092
 30
0.0
 11
230.2387120165467
 21
114.1015620204092
 31
0.0
  0
LINE
  5
5D3
330
1F
100
AcDbEntity
  8
OBRYS
100
AcDbLine
 10
230.0886990165467
 20
114.4015620204092
 30
0.0
 11
230.2333370165466
 21
114.4015620204092
 31
0.0
  0
LINE
  5
5D4
330
1F
100
AcDbEntity
  8
OBRYS
100
AcDbLine
 10
230.2333370165466
 20
115.5015620204092
 30
0.0
 11
230.0886990165467
 21
115.5015620204092
 31
0.0
  0
LINE
  5
5D5
330
1F
100
AcDbEntity
  8
OBRYS
100
AcDbLine
 10
230.2386990165467
 20
114.0515620204092
 30
0.0
 11
230.2386990165467
 21
114.3821150204092
 31
0.0
  0
LINE
  5
5D6
330
1F
100
AcDbEntity
  8
OBRYS
100
AcDbLine
 10
230.2386990165467
 20
115.5210090204092
 30
0.0
 11
230.2386990165467
 21
115.8515620204092
 31
0.0
  0
LINE
  5
5D7
330
1F
100
AcDbEntity
  8
OBRYS
100
AcDbLine
 10
230.0886990165467
 20
115.5015620204092
 30
0.0
 11
230.0886990165467
 21
114.4015620204092
 31
0.0
  0
LINE
  5
5D8
330
1F
100
AcDbEntity
  8
OBRYS
100
AcDbLine
 10
230.0886990165467
 20
114.1015620204092
 30
0.0
 11
230.0886990165467
 21
114.4015620204092
 31
0.0
  0
LINE
  5
5D9
330
1F
100
AcDbEntity
  8
OBRYS
100
AcDbLine
 10
230.0886990165467
 20
115.5015620204092
 30
0.0
 11
230.0886990165467
 21
115.8015620204092
 31
0.0
  0
LINE
  5
5DA
330
1F
100
AcDbEntity
  8
OBRYS
100
AcDbLine
 10
230.2019283104311
 20
115.3504368769427
 30
0.0
 11
234.0134790165467
 21
115.3525170204092
 31
0.0
  0
LINE
  5
5DB
330
1F
100
AcDbEntity
  8
OBRYS
100
AcDbLine
 10
230.2023649080149
 20
114.5504369915534
 30
0.0
 11
234.0138580165467
 21
114.5525170204092
 31
0.0
  0
LINE
  5
5DC
330
1F
100
AcDbEntity
  8
OBRYS
100
AcDbLine
 10
230.2019283104311
 20
140.0490368769427
 30
0.0
 11
234.0137670165467
 21
140.0511170204092
 31
0.0
  0
LINE
  5
5DD
330
1F
100
AcDbEntity
  8
OBRYS
100
AcDbLine
 10
230.1988741711989
 20
139.2484227923239
 30
0.0
 11
234.0135700165467
 21
139.2511170204092
 31
0.0
  0
LINE
  5
5DE
330
1F
100
AcDbEntity
  8
OBRYS
100
AcDbLine
 10
229.8586990165467
 20
106.4492290204092
 30
0.0
 11
229.8586990165467
 21
111.1491350204092
 31
0.0
  0
LINE
  5
5DF
330
1F
100
AcDbEntity
  8
OBRYS
100
AcDbLine
 10
230.0886990165467
 20
91.49680202040922
 30
0.0
 11
230.0886990165467
 21
91.66763002040922
 31
0.0
  0
LINE
  5
5E0
330
1F
100
AcDbEntity
  8
OBRYS
100
AcDbLine
 10
230.5337030165467
 20
91.49680202040922
 30
0.0
 11
230.0886990165467
 21
91.49680202040922
 31
0.0
  0
LINE
  5
5E1
330
1F
100
AcDbEntity
  8
OBRYS
100
AcDbLine
 10
230.0886990165467
 20
88.92597402040921
 30
0.0
 11
230.0886990165467
 21
89.09680202040921
 31
0.0
  0
LINE
  5
5E2
330
1F
100
AcDbEntity
  8
OBRYS
100
AcDbLine
 10
230.0886990165467
 20
89.09680202040921
 30
0.0
 11
230.5337030165467
 21
89.09680202040921
 31
0.0
  0
LINE
  5
5E3
330
1F
100
AcDbEntity
  8
OBRYS
100
AcDbLine
 10
230.2486990165467
 20
91.19680202040921
 30
0.0
 11
230.0886990165467
 21
91.19680202040921
 31
0.0
  0
LINE
  5
5E4
330
1F
100
AcDbEntity
  8
OBRYS
100
AcDbLine
 10
230.2487120165466
 20
89.39680202040923
 30
0.0
 11
230.0886990165467
 21
89.39680202040923
 31
0.0
  0
LINE
  5
5E5
330
1F
100
AcDbEntity
  8
OBRYS
100
AcDbLine
 10
230.3729410165467
 20
91.21870902040921
 30
0.0
 11
230.2486990165467
 21
91.19680202040921
 31
0.0
  0
LINE
  5
5E6
330
1F
100
AcDbEntity
  8
OBRYS
100
AcDbLine
 10
230.2486990165467
 20
89.39680202040923
 30
0.0
 11
230.3729410165467
 21
89.37489502040923
 31
0.0
  0
LINE
  5
5E7
330
1F
100
AcDbEntity
  8
OBRYS
100
AcDbLine
 10
230.2486990165467
 20
89.39680202040923
 30
0.0
 11
230.2486990165467
 21
89.69293002040921
 31
0.0
  0
LINE
  5
5E8
330
1F
100
AcDbEntity
  8
OBRYS
100
AcDbLine
 10
230.2486990165467
 20
90.90067402040923
 30
0.0
 11
230.2486990165467
 21
91.19680202040921
 31
0.0
  0
LINE
  5
5E9
330
1F
100
AcDbEntity
  8
OBRYS
100
AcDbLine
 10
230.0886990165467
 20
91.19680202040921
 30
0.0
 11
230.0886990165467
 21
89.39680202040923
 31
0.0
  0
LINE
  5
5EA
330
1F
100
AcDbEntity
  8
OBRYS
100
AcDbLine
 10
230.0886990165467
 20
91.49680202040922
 30
0.0
 11
230.0886990165467
 21
91.19680202040921
 31
0.0
  0
LINE
  5
5EB
330
1F
100
AcDbEntity
  8
OBRYS
100
AcDbLine
 10
230.0886990165467
 20
89.39680202040923
 30
0.0
 11
230.0886990165467
 21
89.09680202040921
 31
0.0
  0
LINE
  5
5EC
330
1F
100
AcDbEntity
  8
OBRYS
100
AcDbLine
 10
230.2019283104311
 20
127.7004368769427
 30
0.0
 11
234.0134790165467
 21
127.7025170204092
 31
0.0
  0
LINE
  5
5ED
330
1F
100
AcDbEntity
  8
OBRYS
100
AcDbLine
 10
230.1988741711989
 20
126.8998227923239
 30
0.0
 11
234.0138580165467
 21
126.9025170204092
 31
0.0
  0
LINE
  5
5EE
330
1F
100
AcDbEntity
  8
OBRYS
100
AcDbLine
 10
230.0886990165467
 20
140.5001620204092
 30
0.0
 11
230.0886990165467
 21
141.0210090204092
 31
0.0
  0
LINE
  5
5EF
330
1F
100
AcDbEntity
  8
OBRYS
100
AcDbLine
 10
230.2387120165467
 20
140.5001620204092
 30
0.0
 11
230.0886990165467
 21
140.5001620204092
 31
0.0
  0
LINE
  5
5F0
330
1F
100
AcDbEntity
  8
OBRYS
100
AcDbLine
 10
230.0886990165467
 20
138.2793150204092
 30
0.0
 11
230.0886990165467
 21
138.8001620204092
 31
0.0
  0
LINE
  5
5F1
330
1F
100
AcDbEntity
  8
OBRYS
100
AcDbLine
 10
230.0886990165467
 20
138.8001620204092
 30
0.0
 11
230.2387120165467
 21
138.8001620204092
 31
0.0
  0
LINE
  5
5F2
330
1F
100
AcDbEntity
  8
OBRYS
100
AcDbLine
 10
230.0886990165467
 20
139.1001620204092
 30
0.0
 11
230.2333370165466
 21
139.1001620204092
 31
0.0
  0
LINE
  5
5F3
330
1F
100
AcDbEntity
  8
OBRYS
100
AcDbLine
 10
230.2333370165466
 20
140.2001620204092
 30
0.0
 11
230.0886990165467
 21
140.2001620204092
 31
0.0
  0
LINE
  5
5F4
330
1F
100
AcDbEntity
  8
OBRYS
100
AcDbLine
 10
230.2386990165467
 20
138.7501620204092
 30
0.0
 11
230.2386990165467
 21
139.0807150204092
 31
0.0
  0
LINE
  5
5F5
330
1F
100
AcDbEntity
  8
OBRYS
100
AcDbLine
 10
230.2386990165467
 20
140.2196090204092
 30
0.0
 11
230.2386990165467
 21
140.5501620204092
 31
0.0
  0
LINE
  5
5F6
330
1F
100
AcDbEntity
  8
OBRYS
100
AcDbLine
 10
230.0886990165467
 20
140.2001620204092
 30
0.0
 11
230.0886990165467
 21
139.1001620204092
 31
0.0
  0
LINE
  5
5F7
330
1F
100
AcDbEntity
  8
OBRYS
100
AcDbLine
 10
230.0886990165467
 20
138.8001620204092
 30
0.0
 11
230.0886990165467
 21
139.1001620204092
 31
0.0
  0
LINE
  5
5F8
330
1F
100
AcDbEntity
  8
OBRYS
100
AcDbLine
 10
230.0886990165467
 20
140.2001620204092
 30
0.0
 11
230.0886990165467
 21
140.5001620204092
 31
0.0
  0
LINE
  5
5F9
330
1F
100
AcDbEntity
  8
OBRYS
100
AcDbLine
 10
235.5886990165467
 20
66.43164902040921
 30
0.0
 11
234.6886990165467
 21
66.43164902040921
 31
0.0
  0
LINE
  5
5FA
330
1F
100
AcDbEntity
  8
OBRYS
100
AcDbLine
 10
235.5886990165467
 20
78.7816490204092
 30
0.0
 11
234.6886990165467
 21
78.7816490204092
 31
0.0
  0
LINE
  5
5FB
330
1F
100
AcDbEntity
  8
OBRYS
100
AcDbLine
 10
235.5886990165467
 20
91.13164902040923
 30
0.0
 11
234.6886990165467
 21
91.13164902040923
 31
0.0
  0
LINE
  5
5FC
330
1F
100
AcDbEntity
  8
OBRYS
100
AcDbLine
 10
229.6886990165467
 20
94.13164902040923
 30
0.0
 11
235.5886990165467
 21
94.13164902040923
 31
0.0
  0
LINE
  5
5FD
330
1F
100
AcDbEntity
  8
OBRYS
100
AcDbLine
 10
235.5886990165467
 20
148.1667150204092
 30
0.0
 11
229.6886990165467
 21
148.1667150204092
 31
0.0
  0
LINE
  5
5FE
330
1F
100
AcDbEntity
  8
OBRYS
100
AcDbLine
 10
229.6886990165467
 20
98.07051702040921
 30
0.0
 11
235.5886990165467
 21
98.07051702040921
 31
0.0
  0
LINE
  5
5FF
330
1F
100
AcDbEntity
  8
OBRYS
100
AcDbLine
 10
235.5886990165467
 20
119.5278470204092
 30
0.0
 11
229.6886990165467
 21
119.5278470204092
 31
0.0
  0
LINE
  5
600
330
1F
100
AcDbEntity
  8
OBRYS
100
AcDbLine
 10
229.6886990165467
 20
81.7816490204092
 30
0.0
 11
235.5886990165467
 21
81.7816490204092
 31
0.0
  0
LINE
  5
601
330
1F
100
AcDbEntity
  8
OBRYS
100
AcDbLine
 10
229.6886990165467
 20
85.72051702040922
 30
0.0
 11
235.5886990165467
 21
85.72051702040922
 31
0.0
  0
LINE
  5
602
330
1F
100
AcDbEntity
  8
OBRYS
100
AcDbLine
 10
229.6886990165467
 20
69.43164902040921
 30
0.0
 11
235.5886990165467
 21
69.43164902040921
 31
0.0
  0
LINE
  5
603
330
1F
100
AcDbEntity
  8
OBRYS
100
AcDbLine
 10
229.6886990165467
 20
73.37051702040921
 30
0.0
 11
235.5886990165467
 21
73.37051702040921
 31
0.0
  0
LINE
  5
604
330
1F
100
AcDbEntity
  8
OBRYS
100
AcDbLine
 10
229.6886990165467
 20
61.02051702040922
 30
0.0
 11
235.5886990165467
 21
61.02051702040922
 31
0.0
  0
LINE
  5
605
330
1F
100
AcDbEntity
  8
OBRYS
100
AcDbLine
 10
229.6886990165467
 20
57.08164902040922
 30
0.0
 11
235.5886990165467
 21
57.08164902040922
 31
0.0
  0
LINE
  5
606
330
1F
100
AcDbEntity
  8
OBRYS
100
AcDbLine
 10
229.6886990165467
 20
111.4516220204092
 30
0.0
 11
235.5886990165467
 21
111.4516220204092
 31
0.0
  0
LINE
  5
607
330
1F
100
AcDbEntity
  8
OBRYS
100
AcDbLine
 10
229.6886990165467
 20
106.1467420204092
 30
0.0
 11
235.5886990165467
 21
106.1467420204092
 31
0.0
  0
LINE
  5
608
330
1F
100
AcDbEntity
  8
OBRYS
100
AcDbLine
 10
229.6886990165467
 20
111.7515620204092
 30
0.0
 11
235.5886990165467
 21
111.7515620204092
 31
0.0
  0
LINE
  5
609
330
1F
100
AcDbEntity
  8
OBRYS
100
AcDbLine
 10
229.6886990165467
 20
112.2515620204092
 30
0.0
 11
235.5886990165467
 21
112.2515620204092
 31
0.0
  0
LINE
  5
60A
330
1F
100
AcDbEntity
  8
OBRYS
100
AcDbLine
 10
229.6886990165467
 20
105.8468020204092
 30
0.0
 11
235.5886990165467
 21
105.8468020204092
 31
0.0
  0
LINE
  5
60B
330
1F
100
AcDbEntity
  8
OBRYS
100
AcDbLine
 10
229.6886990165467
 20
105.3468020204092
 30
0.0
 11
235.5886990165467
 21
105.3468020204092
 31
0.0
  0
LINE
  5
60C
330
1F
100
AcDbEntity
  8
OBRYS
100
AcDbLine
 10
235.0886990165467
 20
134.2360290204092
 30
0.0
 11
229.6886990165467
 21
134.2360290204092
 31
0.0
  0
LINE
  5
60D
330
1F
100
AcDbEntity
  8
OBRYS
100
AcDbLine
 10
235.0886990165467
 20
123.1183120204092
 30
0.0
 11
235.0886990165467
 21
121.8860290204092
 31
0.0
  0
LINE
  5
60E
330
1F
100
AcDbEntity
  8
OBRYS
100
AcDbLine
 10
235.0886990165467
 20
121.1085330204092
 30
0.0
 11
235.0886990165467
 21
119.8762510204092
 31
0.0
  0
LINE
  5
60F
330
1F
100
AcDbEntity
  8
OBRYS
100
AcDbLine
 10
235.0886990165467
 20
134.2360290204092
 30
0.0
 11
235.0886990165467
 21
135.4683120204092
 31
0.0
  0
LINE
  5
610
330
1F
100
AcDbEntity
  8
OBRYS
100
AcDbLine
 10
235.0886990165467
 20
134.4781960204092
 30
0.0
 11
229.6886990165467
 21
134.4781960204092
 31
0.0
  0
LINE
  5
611
330
1F
100
AcDbEntity
  8
OBRYS
100
AcDbLine
 10
235.0886990165467
 20
135.4683120204092
 30
0.0
 11
229.6886990165467
 21
135.4683120204092
 31
0.0
  0
LINE
  5
612
330
1F
100
AcDbEntity
  8
OBRYS
100
AcDbLine
 10
229.6886990165467
 20
83.36233502040922
 30
0.0
 11
235.0886990165467
 21
83.36233502040922
 31
0.0
  0
LINE
  5
613
330
1F
100
AcDbEntity
  8
OBRYS
100
AcDbLine
 10
235.0886990165467
 20
119.8762510204092
 30
0.0
 11
229.6886990165467
 21
119.8762510204092
 31
0.0
  0
LINE
  5
614
330
1F
100
AcDbEntity
  8
OBRYS
100
AcDbLine
 10
235.0886990165467
 20
82.13005202040922
 30
0.0
 11
235.0886990165467
 21
83.36233502040922
 31
0.0
  0
LINE
  5
615
330
1F
100
AcDbEntity
  8
OBRYS
100
AcDbLine
 10
235.0886990165467
 20
121.8860290204092
 30
0.0
 11
229.6886990165467
 21
121.8860290204092
 31
0.0
  0
LINE
  5
616
330
1F
100
AcDbEntity
  8
OBRYS
100
AcDbLine
 10
235.0886990165467
 20
71.01233502040921
 30
0.0
 11
235.0886990165467
 21
69.78005302040921
 31
0.0
  0
LINE
  5
617
330
1F
100
AcDbEntity
  8
OBRYS
100
AcDbLine
 10
229.6886990165467
 20
73.02211402040922
 30
0.0
 11
235.0886990165467
 21
73.02211402040922
 31
0.0
  0
LINE
  5
618
330
1F
100
AcDbEntity
  8
OBRYS
100
AcDbLine
 10
235.0886990165467
 20
95.71233502040921
 30
0.0
 11
235.0886990165467
 21
94.48005202040922
 31
0.0
  0
LINE
  5
619
330
1F
100
AcDbEntity
  8
OBRYS
100
AcDbLine
 10
235.0886990165467
 20
73.02211402040922
 30
0.0
 11
235.0886990165467
 21
71.78983102040921
 31
0.0
  0
LINE
  5
61A
330
1F
100
AcDbEntity
  8
OBRYS
100
AcDbLine
 10
235.0886990165467
 20
97.72211302040922
 30
0.0
 11
235.0886990165467
 21
96.48983102040923
 31
0.0
  0
LINE
  5
61B
330
1F
100
AcDbEntity
  8
OBRYS
100
AcDbLine
 10
229.6886990165467
 20
59.43983102040922
 30
0.0
 11
235.0886990165467
 21
59.43983102040922
 31
0.0
  0
LINE
  5
61C
330
1F
100
AcDbEntity
  8
OBRYS
100
AcDbLine
 10
229.6886990165467
 20
58.66233502040922
 30
0.0
 11
235.0886990165467
 21
58.66233502040922
 31
0.0
  0
LINE
  5
61D
330
1F
100
AcDbEntity
  8
OBRYS
100
AcDbLine
 10
229.6886990165467
 20
71.01233502040921
 30
0.0
 11
235.0886990165467
 21
71.01233502040921
 31
0.0
  0
LINE
  5
61E
330
1F
100
AcDbEntity
  8
OBRYS
100
AcDbLine
 10
235.0886990165467
 20
58.66233502040922
 30
0.0
 11
235.0886990165467
 21
57.43005302040922
 31
0.0
  0
LINE
  5
61F
330
1F
100
AcDbEntity
  8
OBRYS
100
AcDbLine
 10
229.6886990165467
 20
60.67211402040921
 30
0.0
 11
235.0886990165467
 21
60.67211402040921
 31
0.0
  0
LINE
  5
620
330
1F
100
AcDbEntity
  8
OBRYS
100
AcDbLine
 10
235.0886990165467
 20
60.67211402040921
 30
0.0
 11
235.0886990165467
 21
59.43983102040922
 31
0.0
  0
LINE
  5
621
330
1F
100
AcDbEntity
  8
OBRYS
100
AcDbLine
 10
229.6886990165467
 20
95.71233502040921
 30
0.0
 11
235.0886990165467
 21
95.71233502040921
 31
0.0
  0
LINE
  5
622
330
1F
100
AcDbEntity
  8
OBRYS
100
AcDbLine
 10
229.6886990165467
 20
97.72211302040922
 30
0.0
 11
235.0886990165467
 21
97.72211302040922
 31
0.0
  0
LINE
  5
623
330
1F
100
AcDbEntity
  8
OBRYS
100
AcDbLine
 10
235.0886990165467
 20
132.2262510204092
 30
0.0
 11
235.0886990165467
 21
133.4585330204092
 31
0.0
  0
LINE
  5
624
330
1F
100
AcDbEntity
  8
OBRYS
100
AcDbLine
 10
235.0886990165467
 20
145.8085330204092
 30
0.0
 11
235.0886990165467
 21
144.5762500204092
 31
0.0
  0
LINE
  5
625
330
1F
100
AcDbEntity
  8
OBRYS
100
AcDbLine
 10
235.0886990165467
 20
132.2262510204092
 30
0.0
 11
229.6886990165467
 21
132.2262510204092
 31
0.0
  0
LINE
  5
626
330
1F
100
AcDbEntity
  8
OBRYS
100
AcDbLine
 10
235.0886990165467
 20
84.1398310204092
 30
0.0
 11
235.0886990165467
 21
85.3721130204092
 31
0.0
  0
LINE
  5
627
330
1F
100
AcDbEntity
  8
OBRYS
100
AcDbLine
 10
235.0886990165467
 20
123.1183120204092
 30
0.0
 11
229.6886990165467
 21
123.1183120204092
 31
0.0
  0
LINE
  5
628
330
1F
100
AcDbEntity
  8
OBRYS
100
AcDbLine
 10
235.0886990165467
 20
147.8183110204092
 30
0.0
 11
235.0886990165467
 21
146.5860290204092
 31
0.0
  0
LINE
  5
629
330
1F
100
AcDbEntity
  8
OBRYS
100
AcDbLine
 10
229.6886990165467
 20
85.3721130204092
 30
0.0
 11
235.0886990165467
 21
85.3721130204092
 31
0.0
  0
LINE
  5
62A
330
1F
100
AcDbEntity
  8
OBRYS
100
AcDbLine
 10
235.0886990165467
 20
121.1085330204092
 30
0.0
 11
229.6886990165467
 21
121.1085330204092
 31
0.0
  0
LINE
  5
62B
330
1F
100
AcDbEntity
  8
OBRYS
100
AcDbLine
 10
235.0886990165467
 20
122.1281960204092
 30
0.0
 11
229.6886990165467
 21
122.1281960204092
 31
0.0
  0
LINE
  5
62C
330
1F
100
AcDbEntity
  8
OBRYS
100
AcDbLine
 10
235.0886990165467
 20
120.1184180204092
 30
0.0
 11
229.6886990165467
 21
120.1184180204092
 31
0.0
  0
LINE
  5
62D
330
1F
100
AcDbEntity
  8
OBRYS
100
AcDbLine
 10
229.6886990165467
 20
60.42994702040922
 30
0.0
 11
235.0886990165467
 21
60.42994702040922
 31
0.0
  0
LINE
  5
62E
330
1F
100
AcDbEntity
  8
OBRYS
100
AcDbLine
 10
229.6886990165467
 20
85.12994602040921
 30
0.0
 11
235.0886990165467
 21
85.12994602040921
 31
0.0
  0
LINE
  5
62F
330
1F
100
AcDbEntity
  8
OBRYS
100
AcDbLine
 10
229.6886990165467
 20
84.1398310204092
 30
0.0
 11
235.0886990165467
 21
84.1398310204092
 31
0.0
  0
LINE
  5
630
330
1F
100
AcDbEntity
  8
OBRYS
100
AcDbLine
 10
235.0886990165467
 20
145.8085330204092
 30
0.0
 11
229.6886990165467
 21
145.8085330204092
 31
0.0
  0
LINE
  5
631
330
1F
100
AcDbEntity
  8
OBRYS
100
AcDbLine
 10
229.6886990165467
 20
72.77994702040921
 30
0.0
 11
235.0886990165467
 21
72.77994702040921
 31
0.0
  0
LINE
  5
632
330
1F
100
AcDbEntity
  8
OBRYS
100
AcDbLine
 10
229.6886990165467
 20
71.78983102040921
 30
0.0
 11
235.0886990165467
 21
71.78983102040921
 31
0.0
  0
LINE
  5
633
330
1F
100
AcDbEntity
  8
OBRYS
100
AcDbLine
 10
229.6886990165467
 20
95.47016802040922
 30
0.0
 11
235.0886990165467
 21
95.47016802040922
 31
0.0
  0
LINE
  5
634
330
1F
100
AcDbEntity
  8
OBRYS
100
AcDbLine
 10
229.6886990165467
 20
94.48005202040922
 30
0.0
 11
235.0886990165467
 21
94.48005202040922
 31
0.0
  0
LINE
  5
635
330
1F
100
AcDbEntity
  8
OBRYS
100
AcDbLine
 10
229.6886990165467
 20
58.42016802040922
 30
0.0
 11
235.0886990165467
 21
58.42016802040922
 31
0.0
  0
LINE
  5
636
330
1F
100
AcDbEntity
  8
OBRYS
100
AcDbLine
 10
229.6886990165467
 20
57.43005302040922
 30
0.0
 11
235.0886990165467
 21
57.43005302040922
 31
0.0
  0
LINE
  5
637
330
1F
100
AcDbEntity
  8
OBRYS
100
AcDbLine
 10
235.0886990165467
 20
144.5762500204092
 30
0.0
 11
229.6886990165467
 21
144.5762500204092
 31
0.0
  0
LINE
  5
638
330
1F
100
AcDbEntity
  8
OBRYS
100
AcDbLine
 10
235.0886990165467
 20
144.8184170204092
 30
0.0
 11
229.6886990165467
 21
144.8184170204092
 31
0.0
  0
LINE
  5
639
330
1F
100
AcDbEntity
  8
OBRYS
100
AcDbLine
 10
229.6886990165467
 20
97.47994602040923
 30
0.0
 11
235.0886990165467
 21
97.47994602040923
 31
0.0
  0
LINE
  5
63A
330
1F
100
AcDbEntity
  8
OBRYS
100
AcDbLine
 10
229.6886990165467
 20
96.48983102040923
 30
0.0
 11
235.0886990165467
 21
96.48983102040923
 31
0.0
  0
LINE
  5
63B
330
1F
100
AcDbEntity
  8
OBRYS
100
AcDbLine
 10
229.6886990165467
 20
83.12016802040922
 30
0.0
 11
235.0886990165467
 21
83.12016802040922
 31
0.0
  0
LINE
  5
63C
330
1F
100
AcDbEntity
  8
OBRYS
100
AcDbLine
 10
229.6886990165467
 20
82.13005202040922
 30
0.0
 11
235.0886990165467
 21
82.13005202040922
 31
0.0
  0
LINE
  5
63D
330
1F
100
AcDbEntity
  8
OBRYS
100
AcDbLine
 10
235.0886990165467
 20
146.5860290204092
 30
0.0
 11
229.6886990165467
 21
146.5860290204092
 31
0.0
  0
LINE
  5
63E
330
1F
100
AcDbEntity
  8
OBRYS
100
AcDbLine
 10
235.0886990165467
 20
146.8281960204092
 30
0.0
 11
229.6886990165467
 21
146.8281960204092
 31
0.0
  0
LINE
  5
63F
330
1F
100
AcDbEntity
  8
OBRYS
100
AcDbLine
 10
235.0886990165467
 20
147.8183110204092
 30
0.0
 11
229.6886990165467
 21
147.8183110204092
 31
0.0
  0
LINE
  5
640
330
1F
100
AcDbEntity
  8
OBRYS
100
AcDbLine
 10
235.0886990165467
 20
132.4684180204092
 30
0.0
 11
229.6886990165467
 21
132.4684180204092
 31
0.0
  0
LINE
  5
641
330
1F
100
AcDbEntity
  8
OBRYS
100
AcDbLine
 10
235.0886990165467
 20
133.4585330204092
 30
0.0
 11
229.6886990165467
 21
133.4585330204092
 31
0.0
  0
LINE
  5
642
330
1F
100
AcDbEntity
  8
OBRYS
100
AcDbLine
 10
229.6886990165467
 20
70.77016802040922
 30
0.0
 11
235.0886990165467
 21
70.77016802040922
 31
0.0
  0
LINE
  5
643
330
1F
100
AcDbEntity
  8
OBRYS
100
AcDbLine
 10
229.6886990165467
 20
69.78005302040921
 30
0.0
 11
235.0886990165467
 21
69.78005302040921
 31
0.0
  0
LINE
  5
644
330
1F
100
AcDbEntity
  8
OBRYS
100
AcDbLine
 10
234.6886990165467
 20
94.13164902040923
 30
0.0
 11
234.6886990165467
 21
91.13164902040923
 31
0.0
  0
LINE
  5
645
330
1F
100
AcDbEntity
  8
OBRYS
100
AcDbLine
 10
234.6886990165467
 20
69.43164902040921
 30
0.0
 11
234.6886990165467
 21
66.43164902040921
 31
0.0
  0
LINE
  5
646
330
1F
100
AcDbEntity
  8
OBRYS
100
AcDbLine
 10
234.6886990165467
 20
81.7816490204092
 30
0.0
 11
234.6886990165467
 21
78.7816490204092
 31
0.0
  0
LINE
  5
647
330
1F
100
AcDbEntity
  8
OBRYS
100
AcDbLine
 10
234.6886990165467
 20
144.2278470204092
 30
0.0
 11
234.6886990165467
 21
135.8167150204092
 31
0.0
  0
LINE
  5
648
330
1F
100
AcDbEntity
  8
OBRYS
100
AcDbLine
 10
234.6886990165467
 20
144.2278470204092
 30
0.0
 11
229.6886990165467
 21
144.2278470204092
 31
0.0
  0
LINE
  5
649
330
1F
100
AcDbEntity
  8
OBRYS
100
AcDbLine
 10
234.6886990165467
 20
131.8778470204092
 30
0.0
 11
234.6886990165467
 21
123.4667150204092
 31
0.0
  0
LINE
  5
64A
330
1F
100
AcDbEntity
  8
OBRYS
100
AcDbLine
 10
234.6886990165467
 20
131.8778470204092
 30
0.0
 11
229.6886990165467
 21
131.8778470204092
 31
0.0
  0
LINE
  5
64B
330
1F
100
AcDbEntity
  8
OBRYS
100
AcDbLine
 10
234.6886990165467
 20
135.8167150204092
 30
0.0
 11
229.6886990165467
 21
135.8167150204092
 31
0.0
  0
LINE
  5
64C
330
1F
100
AcDbEntity
  8
OBRYS
100
AcDbLine
 10
234.6886990165467
 20
123.4667150204092
 30
0.0
 11
229.6886990165467
 21
123.4667150204092
 31
0.0
  0
LINE
  5
64D
330
1F
100
AcDbEntity
  8
OBRYS
100
AcDbLine
 10
232.2586990165466
 20
88.49674202040923
 30
0.0
 11
229.6886990165467
 21
88.49674202040923
 31
0.0
  0
LINE
  5
64E
330
1F
100
AcDbEntity
  8
OBRYS
100
AcDbLine
 10
232.2586990165466
 20
92.09674202040922
 30
0.0
 11
229.6886990165467
 21
92.09674202040922
 31
0.0
  0
LINE
  5
64F
330
1F
100
AcDbEntity
  8
OBRYS
100
AcDbLine
 10
229.6886990165467
 20
137.8516220204092
 30
0.0
 11
232.2586990165466
 21
137.8516220204092
 31
0.0
  0
LINE
  5
650
330
1F
100
AcDbEntity
  8
OBRYS
100
AcDbLine
 10
232.2586990165466
 20
79.74674202040923
 30
0.0
 11
229.6886990165467
 21
79.74674202040923
 31
0.0
  0
LINE
  5
651
330
1F
100
AcDbEntity
  8
OBRYS
100
AcDbLine
 10
232.2586990165466
 20
63.79674202040921
 30
0.0
 11
229.6886990165467
 21
63.79674202040921
 31
0.0
  0
LINE
  5
652
330
1F
100
AcDbEntity
  8
OBRYS
100
AcDbLine
 10
229.6886990165467
 20
129.1016220204092
 30
0.0
 11
232.2586990165466
 21
129.1016220204092
 31
0.0
  0
LINE
  5
653
330
1F
100
AcDbEntity
  8
OBRYS
100
AcDbLine
 10
232.2586990165466
 20
100.8467420204092
 30
0.0
 11
229.6886990165467
 21
100.8467420204092
 31
0.0
  0
LINE
  5
654
330
1F
100
AcDbEntity
  8
OBRYS
100
AcDbLine
 10
232.2586990165466
 20
67.39674202040922
 30
0.0
 11
229.6886990165467
 21
67.39674202040922
 31
0.0
  0
LINE
  5
655
330
1F
100
AcDbEntity
  8
OBRYS
100
AcDbLine
 10
232.2586990165466
 20
111.1491820204092
 30
0.0
 11
229.6886990165467
 21
111.1491820204092
 31
0.0
  0
LINE
  5
656
330
1F
100
AcDbEntity
  8
OBRYS
100
AcDbLine
 10
229.6886990165467
 20
141.4516220204092
 30
0.0
 11
232.2586990165466
 21
141.4516220204092
 31
0.0
  0
LINE
  5
657
330
1F
100
AcDbEntity
  8
OBRYS
100
AcDbLine
 10
229.6886990165467
 20
125.5016220204092
 30
0.0
 11
232.2586990165466
 21
125.5016220204092
 31
0.0
  0
LINE
  5
658
330
1F
100
AcDbEntity
  8
OBRYS
100
AcDbLine
 10
229.6886990165467
 20
116.7516220204092
 30
0.0
 11
232.2586990165466
 21
116.7516220204092
 31
0.0
  0
LINE
  5
659
330
1F
100
AcDbEntity
  8
OBRYS
100
AcDbLine
 10
229.6886990165467
 20
113.1516220204092
 30
0.0
 11
232.2586990165466
 21
113.1516220204092
 31
0.0
  0
LINE
  5
65A
330
1F
100
AcDbEntity
  8
OBRYS
100
AcDbLine
 10
232.2586990165466
 20
76.14674202040922
 30
0.0
 11
229.6886990165467
 21
76.14674202040922
 31
0.0
  0
LINE
  5
65B
330
1F
100
AcDbEntity
  8
OBRYS
100
AcDbLine
 10
232.2586990165466
 20
104.4467420204092
 30
0.0
 11
229.6886990165467
 21
104.4467420204092
 31
0.0
  0
LINE
  5
65C
330
1F
100
AcDbEntity
  8
OBRYS
100
AcDbLine
 10
229.6886990165467
 20
106.4491820204092
 30
0.0
 11
232.2586990165466
 21
106.4491820204092
 31
0.0
  0
LINE
  5
65D
330
1F
100
AcDbEntity
  8
OBRYS
100
AcDbLine
 10
230.5355280165467
 20
140.8494640204092
 30
0.0
 11
229.6886990165467
 21
141.1745310204092
 31
0.0
  0
LINE
  5
65E
330
1F
100
AcDbEntity
  8
OBRYS
100
AcDbLine
 10
229.6886990165467
 20
113.4271930204092
 30
0.0
 11
230.5355280165467
 21
113.7522600204092
 31
0.0
  0
LINE
  5
65F
330
1F
100
AcDbEntity
  8
OBRYS
100
AcDbLine
 10
230.5355280165467
 20
103.8461040204092
 30
0.0
 11
229.6886990165467
 21
104.1711710204092
 31
0.0
  0
LINE
  5
660
330
1F
100
AcDbEntity
  8
OBRYS
100
AcDbLine
 10
229.6886990165467
 20
76.42383302040922
 30
0.0
 11
230.5355280165467
 21
76.74890002040921
 31
0.0
  0
LINE
  5
661
330
1F
100
AcDbEntity
  8
OBRYS
100
AcDbLine
 10
229.6886990165467
 20
64.05707602040921
 30
0.0
 11
230.5355280165467
 21
64.38214302040922
 31
0.0
  0
LINE
  5
662
330
1F
100
AcDbEntity
  8
OBRYS
100
AcDbLine
 10
229.6886990165467
 20
88.77243302040922
 30
0.0
 11
230.5355280165467
 21
89.09750002040921
 31
0.0
  0
LINE
  5
663
330
1F
100
AcDbEntity
  8
OBRYS
100
AcDbLine
 10
230.5355280165467
 20
128.5008640204092
 30
0.0
 11
229.6886990165467
 21
128.8259310204092
 31
0.0
  0
LINE
  5
664
330
1F
100
AcDbEntity
  8
OBRYS
100
AcDbLine
 10
230.5355280165467
 20
101.4475000204092
 30
0.0
 11
229.6886990165467
 21
101.1224330204092
 31
0.0
  0
LINE
  5
665
330
1F
100
AcDbEntity
  8
OBRYS
100
AcDbLine
 10
229.6886990165467
 20
116.4759310204092
 30
0.0
 11
230.5355280165467
 21
116.1508640204092
 31
0.0
  0
LINE
  5
666
330
1F
100
AcDbEntity
  8
OBRYS
100
AcDbLine
 10
230.5355280165467
 20
66.78074702040922
 30
0.0
 11
229.6886990165467
 21
67.10581402040921
 31
0.0
  0
LINE
  5
667
330
1F
100
AcDbEntity
  8
OBRYS
100
AcDbLine
 10
230.5355280165467
 20
91.49610402040922
 30
0.0
 11
229.6886990165467
 21
91.82117102040921
 31
0.0
  0
LINE
  5
668
330
1F
100
AcDbEntity
  8
OBRYS
100
AcDbLine
 10
230.5355280165467
 20
79.14750402040922
 30
0.0
 11
229.6886990165467
 21
79.4725710204092
 31
0.0
  0
LINE
  5
669
330
1F
100
AcDbEntity
  8
OBRYS
100
AcDbLine
 10
229.6886990165467
 20
125.7771930204092
 30
0.0
 11
230.5355280165467
 21
126.1022600204092
 31
0.0
  0
LINE
  5
66A
330
1F
100
AcDbEntity
  8
OBRYS
100
AcDbLine
 10
229.6886990165467
 20
138.1257930204092
 30
0.0
 11
230.5355280165467
 21
138.4508600204092
 31
0.0
  0
LINE
  5
66B
330
1F
100
AcDbEntity
  8
OBRYS
100
AcDbLine
 10
229.8587160165467
 20
111.0516220204092
 30
0.0
 11
229.6886990165467
 21
111.0516220204092
 31
0.0
  0
LINE
  5
66C
330
1F
100
AcDbEntity
  8
OBRYS
100
AcDbLine
 10
229.6886990165467
 20
106.5467420204092
 30
0.0
 11
229.8587160165467
 21
106.5467420204092
 31
0.0
  0
LINE
  5
66D
330
1F
100
AcDbEntity
  8
OBRYS
100
AcDbLine
 10
229.6886990165467
 20
119.5278470204092
 30
0.0
 11
229.6886990165467
 21
119.5279120204092
 31
0.0
  0
LINE
  5
66E
330
1F
100
AcDbEntity
  8
OBRYS
100
AcDbLine
 10
229.6886990165467
 20
111.7515620204092
 30
0.0
 11
229.6886990165467
 21
112.2515620204092
 31
0.0
  0
LINE
  5
66F
330
1F
100
AcDbEntity
  8
OBRYS
100
AcDbLine
 10
229.6886990165467
 20
112.2515620204092
 30
0.0
 11
229.6886990165467
 21
113.1516220204092
 31
0.0
  0
LINE
  5
670
330
1F
100
AcDbEntity
  8
OBRYS
100
AcDbLine
 10
229.6886990165467
 20
94.13164902040923
 30
0.0
 11
228.7886990165466
 21
94.13164902040923
 31
0.0
  0
LINE
  5
671
330
1F
100
AcDbEntity
  8
OBRYS
100
AcDbLine
 10
229.6886990165467
 20
69.43164902040921
 30
0.0
 11
228.7886990165466
 21
69.43164902040921
 31
0.0
  0
LINE
  5
672
330
1F
100
AcDbEntity
  8
OBRYS
100
AcDbLine
 10
229.6886990165467
 20
81.7816490204092
 30
0.0
 11
228.7886990165466
 21
81.7816490204092
 31
0.0
  0
LINE
  5
673
330
1F
100
AcDbEntity
  8
OBRYS
100
AcDbLine
 10
229.6886990165467
 20
73.37051702040921
 30
0.0
 11
228.7886990165466
 21
73.37051702040921
 31
0.0
  0
LINE
  5
674
330
1F
100
AcDbEntity
  8
OBRYS
100
AcDbLine
 10
229.6886990165467
 20
85.72051702040922
 30
0.0
 11
228.7886990165466
 21
85.72051702040922
 31
0.0
  0
LINE
  5
675
330
1F
100
AcDbEntity
  8
OBRYS
100
AcDbLine
 10
229.6886990165467
 20
61.02051702040922
 30
0.0
 11
228.7886990165466
 21
61.02051702040922
 31
0.0
  0
LINE
  5
676
330
1F
100
AcDbEntity
  8
OBRYS
100
AcDbLine
 10
228.7886990165466
 20
91.13164902040923
 30
0.0
 11
229.6886990165467
 21
91.13164902040923
 31
0.0
  0
LINE
  5
677
330
1F
100
AcDbEntity
  8
OBRYS
100
AcDbLine
 10
228.7886990165466
 20
78.7816490204092
 30
0.0
 11
229.6886990165467
 21
78.7816490204092
 31
0.0
  0
LINE
  5
678
330
1F
100
AcDbEntity
  8
OBRYS
100
AcDbLine
 10
228.7886990165466
 20
66.43164902040921
 30
0.0
 11
229.6886990165467
 21
66.43164902040921
 31
0.0
  0
LINE
  5
679
330
1F
100
AcDbEntity
  8
OBRYS
100
AcDbLine
 10
229.6886990165467
 20
57.09674202040921
 30
0.0
 11
228.7886990165466
 21
57.09674202040921
 31
0.0
  0
LINE
  5
67A
330
1F
100
AcDbEntity
  8
OBRYS
100
AcDbLine
 10
228.7886990165466
 20
98.07051702040921
 30
0.0
 11
229.6886990165467
 21
98.07051702040921
 31
0.0
  0
LINE
  5
67B
330
1F
100
AcDbEntity
  8
OBRYS
100
AcDbLine
 10
228.7886990165466
 20
119.5279070204092
 30
0.0
 11
229.6886990165467
 21
119.5279070204092
 31
0.0
  0
LINE
  5
67C
330
1F
100
AcDbEntity
  8
OBRYS
100
AcDbLine
 10
229.6886990165467
 20
148.1667130204092
 30
0.0
 11
228.7886990165466
 21
148.1667130204092
 31
0.0
  0
LINE
  5
67D
330
1F
100
AcDbEntity
  8
OBRYS
100
AcDbLine
 10
235.5886990165467
 20
57.08164902040922
 30
0.0
 11
235.5886990165467
 21
61.02051702040922
 31
0.0
  0
LINE
  5
67E
330
1F
100
AcDbEntity
  8
OBRYS
100
AcDbLine
 10
235.5886990165467
 20
66.43164902040921
 30
0.0
 11
235.5886990165467
 21
61.02051702040922
 31
0.0
  0
LINE
  5
67F
330
1F
100
AcDbEntity
  8
OBRYS
100
AcDbLine
 10
235.5886990165467
 20
69.43164902040921
 30
0.0
 11
235.5886990165467
 21
66.43164902040921
 31
0.0
  0
LINE
  5
680
330
1F
100
AcDbEntity
  8
OBRYS
100
AcDbLine
 10
235.5886990165467
 20
69.43164902040921
 30
0.0
 11
235.5886990165467
 21
73.37051702040921
 31
0.0
  0
LINE
  5
681
330
1F
100
AcDbEntity
  8
OBRYS
100
AcDbLine
 10
235.5886990165467
 20
78.7816490204092
 30
0.0
 11
235.5886990165467
 21
73.37051702040921
 31
0.0
  0
LINE
  5
682
330
1F
100
AcDbEntity
  8
OBRYS
100
AcDbLine
 10
235.5886990165467
 20
81.7816490204092
 30
0.0
 11
235.5886990165467
 21
78.7816490204092
 31
0.0
  0
LINE
  5
683
330
1F
100
AcDbEntity
  8
OBRYS
100
AcDbLine
 10
235.5886990165467
 20
81.7816490204092
 30
0.0
 11
235.5886990165467
 21
85.72051702040922
 31
0.0
  0
LINE
  5
684
330
1F
100
AcDbEntity
  8
OBRYS
100
AcDbLine
 10
235.5886990165467
 20
91.13164902040923
 30
0.0
 11
235.5886990165467
 21
85.72051702040922
 31
0.0
  0
LINE
  5
685
330
1F
100
AcDbEntity
  8
OBRYS
100
AcDbLine
 10
235.5886990165467
 20
94.13164902040923
 30
0.0
 11
235.5886990165467
 21
91.13164902040923
 31
0.0
  0
LINE
  5
686
330
1F
100
AcDbEntity
  8
OBRYS
100
AcDbLine
 10
235.5886990165467
 20
94.13164902040923
 30
0.0
 11
235.5886990165467
 21
98.07051702040921
 31
0.0
  0
LINE
  5
687
330
1F
100
AcDbEntity
  8
OBRYS
100
AcDbLine
 10
235.5886990165467
 20
98.07051702040921
 30
0.0
 11
235.5886990165467
 21
105.3468020204092
 31
0.0
  0
LINE
  5
688
330
1F
100
AcDbEntity
  8
OBRYS
100
AcDbLine
 10
235.5886990165467
 20
105.3468020204092
 30
0.0
 11
235.5886990165467
 21
105.8468020204092
 31
0.0
  0
LINE
  5
689
330
1F
100
AcDbEntity
  8
OBRYS
100
AcDbLine
 10
235.5886990165467
 20
105.8468020204092
 30
0.0
 11
235.5886990165467
 21
106.1467420204092
 31
0.0
  0
LINE
  5
68A
330
1F
100
AcDbEntity
  8
OBRYS
100
AcDbLine
 10
235.5886990165467
 20
106.1467420204092
 30
0.0
 11
235.5886990165467
 21
111.4516220204092
 31
0.0
  0
LINE
  5
68B
330
1F
100
AcDbEntity
  8
OBRYS
100
AcDbLine
 10
235.5886990165467
 20
111.4516220204092
 30
0.0
 11
235.5886990165467
 21
111.7515620204092
 31
0.0
  0
LINE
  5
68C
330
1F
100
AcDbEntity
  8
OBRYS
100
AcDbLine
 10
235.5886990165467
 20
111.7515620204092
 30
0.0
 11
235.5886990165467
 21
112.2515620204092
 31
0.0
  0
LINE
  5
68D
330
1F
100
AcDbEntity
  8
OBRYS
100
AcDbLine
 10
235.5886990165467
 20
112.2515620204092
 30
0.0
 11
235.5886990165467
 21
119.5278470204092
 31
0.0
  0
LINE
  5
68E
330
1F
100
AcDbEntity
  8
OBRYS
100
AcDbLine
 10
235.5886990165467
 20
148.1667150204092
 30
0.0
 11
235.5886990165467
 21
119.5278470204092
 31
0.0
  0
ARC
  5
68F
330
1F
100
AcDbEntity
  8
OBRYS
100
AcDbCircle
 10
-164.3211740165466
 20
128.1443040204092
 30
0.0
 40
0.5000000000000521
210
0.0
220
0.0
230
-1.0
100
AcDbArc
 50
259.1139319999989
 51
0.0
  0
ARC
  5
690
330
1F
100
AcDbEntity
  8
OBRYS
100
AcDbCircle
 10
-169.0202960165466
 20
93.18073802040921
 30
0.0
 40
1.80000000001215
210
0.0
220
0.0
230
-1.0
100
AcDbArc
 50
156.9968260000001
 51
204.9999999999999
  0
ARC
  5
691
330
1F
100
AcDbEntity
  8
OBRYS
100
AcDbCircle
 10
-171.7811520165467
 20
90.33600102040923
 30
0.0
 40
2.000000000000055
210
0.0
220
0.0
230
-1.0
100
AcDbArc
 50
210.0
 51
255.0
  0
ARC
  5
692
330
1F
100
AcDbEntity
  8
OBRYS
100
AcDbCircle
 10
-169.0202960165466
 20
93.18073802040921
 30
0.0
 40
0.9999999999999759
210
0.0
220
0.0
230
-1.0
100
AcDbArc
 50
156.9999999999995
 51
205.0
  0
ARC
  5
693
330
1F
100
AcDbEntity
  8
OBRYS
100
AcDbCircle
 10
-168.7211740165467
 20
127.2472810204092
 30
0.0
 40
2.0
210
0.0
220
0.0
230
-1.0
100
AcDbArc
 50
26.40936200000079
 51
90.0
  0
ARC
  5
694
330
1F
100
AcDbEntity
  8
OBRYS
100
AcDbCircle
 10
-169.2881850165467
 20
105.7372380204092
 30
0.0
 40
1.99999999999995
210
0.0
220
0.0
230
-1.0
100
AcDbArc
 50
124.5749770000001
 51
177.7400399999996
  0
ARC
  5
695
330
1F
100
AcDbEntity
  8
OBRYS
100
AcDbCircle
 10
-168.2211740165467
 20
118.4772990204092
 30
0.0
 40
2.0
210
0.0
220
0.0
230
-1.0
100
AcDbArc
 50
180.0
 51
221.4091779999996
  0
ARC
  5
696
330
1F
100
AcDbEntity
  8
OBRYS
100
AcDbCircle
 10
-170.4740360165467
 20
101.0476060204092
 30
0.0
 40
1.000000000000058
210
0.0
220
0.0
230
-1.0
100
AcDbArc
 50
177.7400399999998
 51
254.9999999999997
  0
ARC
  5
697
330
1F
100
AcDbEntity
  8
OBRYS
100
AcDbCircle
 10
-172.4430450165466
 20
91.48243502040923
 30
0.0
 40
2.000000000000035
210
0.0
220
0.0
230
-1.0
100
AcDbArc
 50
135.3183550000001
 51
209.9999999999997
  0
ARC
  5
698
330
1F
100
AcDbEntity
  8
OBRYS
100
AcDbCircle
 10
-172.8561380165467
 20
93.19793202040923
 30
0.0
 40
0.499999999999973
210
0.0
220
0.0
230
-1.0
100
AcDbArc
 50
30.00000000000054
 51
135.3183549999992
  0
ARC
  5
699
330
1F
100
AcDbEntity
  8
OBRYS
100
AcDbCircle
 10
-172.7211740165467
 20
91.51511902040922
 30
0.0
 40
3.0
210
0.0
220
0.0
230
-1.0
100
AcDbArc
 50
314.9999999999998
 51
0.0
  0
ARC
  5
69A
330
1F
100
AcDbEntity
  8
OBRYS
100
AcDbCircle
 10
171.7213270165466
 20
84.02968502040922
 30
0.0
 40
3.0
100
AcDbArc
 50
0.0
 51
44.99999999999981
  0
ARC
  5
69B
330
1F
100
AcDbEntity
  8
OBRYS
100
AcDbCircle
 10
169.4211740165467
 20
123.3106620204092
 30
0.0
 40
0.29999999999996
100
AcDbArc
 50
0.0
 51
90.0
  0
ARC
  5
69C
330
1F
100
AcDbEntity
  8
OBRYS
100
AcDbCircle
 10
172.7213270165466
 20
59.08164902040922
 30
0.0
 40
2.0
100
AcDbArc
 50
270.0
 51
0.0
  0
ARC
  5
69D
330
1F
100
AcDbEntity
  8
OBRYS
100
AcDbCircle
 10
-152.5210990165467
 20
66.43164902040921
 30
0.0
 40
2.999999999999972
210
0.0
220
0.0
230
-1.0
100
AcDbArc
 50
90.0
 51
180.0
  0
ARC
  5
69E
330
1F
100
AcDbEntity
  8
OBRYS
100
AcDbCircle
 10
-138.0211800165467
 20
78.7816490204092
 30
0.0
 40
2.999999999999979
210
0.0
220
0.0
230
-1.0
100
AcDbArc
 50
90.0
 51
180.0
  0
ARC
  5
69F
330
1F
100
AcDbEntity
  8
OBRYS
100
AcDbCircle
 10
-123.5212600165466
 20
91.13164902040923
 30
0.0
 40
2.999999999999979
210
0.0
220
0.0
230
-1.0
100
AcDbArc
 50
90.0
 51
180.0
  0
ARC
  5
6A0
330
1F
100
AcDbEntity
  8
OBRYS
100
AcDbCircle
 10
-112.5213410165467
 20
105.3468020204092
 30
0.0
 40
0.499999999999973
210
0.0
220
0.0
230
-1.0
100
AcDbArc
 50
0.0
 51
90.0
  0
ARC
  5
6A1
330
1F
100
AcDbEntity
  8
OBRYS
100
AcDbCircle
 10
-112.5213410165467
 20
112.2515620204092
 30
0.0
 40
0.499999999999973
210
0.0
220
0.0
230
-1.0
100
AcDbArc
 50
270.0
 51
0.0
  0
ARC
  5
6A2
330
1F
100
AcDbEntity
  8
OBRYS
100
AcDbCircle
 10
159.2186010165466
 20
146.1667150204092
 30
0.0
 40
2.0
100
AcDbArc
 50
36.93880999999905
 51
90.0
  0
ARC
  5
6A3
330
1F
100
AcDbEntity
  8
OBRYS
100
AcDbCircle
 10
163.9215390165467
 20
139.9118180204092
 30
0.0
 40
2.0
100
AcDbArc
 50
0.0
 51
36.93868599999996
  0
ARC
  5
6A4
330
1F
100
AcDbEntity
  8
OBRYS
100
AcDbCircle
 10
166.2215390165467
 20
139.8167200204092
 30
0.0
 40
0.2999999999999849
100
AcDbArc
 50
180.0
 51
280.8860680000016
  0
ARC
  5
6A5
330
1F
100
AcDbEntity
  8
OBRYS
100
AcDbCircle
 10
-172.7715420165467
 20
143.1967460204092
 30
0.0
 40
0.899999999999957
210
0.0
220
0.0
230
-1.0
100
AcDbArc
 50
0.0
 51
90.0
  0
ARC
  5
6A6
330
1F
100
AcDbEntity
  8
OBRYS
100
AcDbCircle
 10
-174.9215380165467
 20
143.0967460204092
 30
0.0
 40
0.99999999999998
210
0.0
220
0.0
230
-1.0
100
AcDbArc
 50
90.0
 51
179.9999579999997
  0
ARC
  5
6A7
330
1F
100
AcDbEntity
  8
OBRYS
100
AcDbCircle
 10
-174.1215490165467
 20
127.9451510204092
 30
0.0
 40
1.8
210
0.0
220
0.0
230
-1.0
100
AcDbArc
 50
179.9999580000002
 51
232.574173
  0
ARC
  5
6A8
330
1F
100
AcDbEntity
  8
OBRYS
100
AcDbCircle
 10
-169.0161700165467
 20
134.6164740204092
 30
0.0
 40
10.20068084545994
210
0.0
220
0.0
230
-1.0
100
AcDbArc
 50
232.5741729999999
 51
250.570137
  0
ARC
  5
6A9
330
1F
100
AcDbEntity
  8
OBRYS
100
AcDbCircle
 10
-171.6157940165467
 20
125.1967280204092
 30
0.0
 40
0.199999999999978
210
0.0
220
0.0
230
-1.0
100
AcDbArc
 50
270.0
 51
345.0000000000043
  0
ARC
  5
6AA
330
1F
100
AcDbEntity
  8
OBRYS
100
AcDbCircle
 10
169.5117450165467
 20
126.5967280204092
 30
0.0
 40
0.500000000000026
100
AcDbArc
 50
90.0
 51
100.8860680000011
  0
ARC
  5
6AB
330
1F
100
AcDbEntity
  8
OBRYS
100
AcDbCircle
 10
163.9311880165467
 20
124.8106620204092
 30
0.0
 40
1.200000000000062
100
AcDbArc
 50
100.8860680000002
 51
270.0
  0
ARC
  5
6AC
330
1F
100
AcDbEntity
  8
OBRYS
100
AcDbCircle
 10
169.3688170165466
 20
128.0967280204092
 30
0.0
 40
0.4999999999999131
100
AcDbArc
 50
90.0
 51
100.8860680000003
  0
ARC
  5
6AD
330
1F
100
AcDbEntity
  8
OBRYS
100
AcDbCircle
 10
-172.3211740165466
 20
129.0967280204092
 30
0.0
 40
0.500000000000028
210
0.0
220
0.0
230
-1.0
100
AcDbArc
 50
180.0
 51
270.0
  0
ARC
  5
6AE
330
1F
100
AcDbEntity
  8
OBRYS
100
AcDbCircle
 10
-172.3211740165466
 20
138.9531360204092
 30
0.0
 40
0.499999999999941
210
0.0
220
0.0
230
-1.0
100
AcDbArc
 50
79.1139320000009
 51
180.0
  0
ARC
  5
6AF
330
1F
100
AcDbEntity
  8
OBRYS
100
AcDbCircle
 10
-166.5028650165467
 20
137.3250110204092
 30
0.0
 40
1.00000000000006
210
0.0
220
0.0
230
-1.0
100
AcDbArc
 50
15.00000000000032
 51
79.11393199999894
  0
ARC
  5
6B0
330
1F
100
AcDbEntity
  8
OBRYS
100
AcDbCircle
 10
-165.4502850165467
 20
133.3967280204092
 30
0.0
 40
1.0
210
0.0
220
0.0
230
-1.0
100
AcDbArc
 50
270.0
 51
14.9999999999976
  0
ARC
  5
6B1
330
1F
100
AcDbEntity
  8
OBRYS
100
AcDbCircle
 10
170.0489700165467
 20
131.8967280204092
 30
0.0
 40
0.499999999999952
100
AcDbArc
 50
9.999999999999739
 51
90.0
  0
ARC
  5
6B2
330
1F
100
AcDbEntity
  8
OBRYS
100
AcDbCircle
 10
170.4636480165466
 20
130.6967280204092
 30
0.0
 40
0.3000000000000235
100
AcDbArc
 50
270.0
 51
9.9999999999971
  0
ARC
  5
6B3
330
1F
100
AcDbEntity
  8
OBRYS
100
AcDbCircle
 10
-164.8211740165466
 20
129.3967280204092
 30
0.0
 40
1.0
210
0.0
220
0.0
230
-1.0
100
AcDbArc
 50
0.0
 51
90.0
  0
ARC
  5
6B4
330
1F
100
AcDbEntity
  8
OBRYS
100
AcDbCircle
 10
201.5231590165467
 20
102.6468020204092
 30
0.0
 40
2.103543688480952
100
AcDbArc
 50
121.1651650000002
 51
169.0667099999998
  0
ARC
  5
6B5
330
1F
100
AcDbEntity
  8
OBRYS
100
AcDbCircle
 10
201.5231590165467
 20
102.6468020204092
 30
0.0
 40
2.103543688480952
100
AcDbArc
 50
191.0101050000001
 51
238.8409139999999
  0
ARC
  5
6B6
330
1F
100
AcDbEntity
  8
OBRYS
100
AcDbCircle
 10
201.5231590165467
 20
65.58144502040922
 30
0.0
 40
2.103543688480952
100
AcDbArc
 50
120.3476509999996
 51
169.0667100000001
  0
ARC
  5
6B7
330
1F
100
AcDbEntity
  8
OBRYS
100
AcDbCircle
 10
201.5231590165467
 20
65.58144502040922
 30
0.0
 40
2.103543688480952
100
AcDbArc
 50
191.0101050000001
 51
238.0432290000004
  0
ARC
  5
6B8
330
1F
100
AcDbEntity
  8
OBRYS
100
AcDbCircle
 10
201.5231590165467
 20
90.2968020204092
 30
0.0
 40
2.103543688480952
100
AcDbArc
 50
121.1651650000002
 51
169.0667099999998
  0
ARC
  5
6B9
330
1F
100
AcDbEntity
  8
OBRYS
100
AcDbCircle
 10
201.5231590165467
 20
90.2968020204092
 30
0.0
 40
2.103543688480952
100
AcDbArc
 50
191.0101050000001
 51
238.8409139999999
  0
ARC
  5
6BA
330
1F
100
AcDbEntity
  8
OBRYS
100
AcDbCircle
 10
201.5231590165467
 20
77.94820202040923
 30
0.0
 40
2.103543688480952
100
AcDbArc
 50
121.2392510000002
 51
169.0667099999998
  0
ARC
  5
6BB
330
1F
100
AcDbEntity
  8
OBRYS
100
AcDbCircle
 10
201.5231590165467
 20
77.94820202040923
 30
0.0
 40
2.103543688480952
100
AcDbArc
 50
191.0101050000001
 51
238.9150010000003
  0
ARC
  5
6BC
330
1F
100
AcDbEntity
  8
OBRYS
100
AcDbCircle
 10
201.5231590165467
 20
114.9515620204092
 30
0.0
 40
2.103543688480952
100
AcDbArc
 50
121.1577560000004
 51
169.0667099999998
  0
ARC
  5
6BD
330
1F
100
AcDbEntity
  8
OBRYS
100
AcDbCircle
 10
201.5231590165467
 20
114.9515620204092
 30
0.0
 40
2.103543688480952
100
AcDbArc
 50
191.0101050000001
 51
238.8359570000002
  0
ARC
  5
6BE
330
1F
100
AcDbEntity
  8
OBRYS
100
AcDbCircle
 10
201.5231590165467
 20
139.6501620204092
 30
0.0
 40
2.103543688480952
100
AcDbArc
 50
121.0836419999997
 51
169.0667099999998
  0
ARC
  5
6BF
330
1F
100
AcDbEntity
  8
OBRYS
100
AcDbCircle
 10
201.5231590165467
 20
139.6501620204092
 30
0.0
 40
2.103543688480952
100
AcDbArc
 50
191.0101049999993
 51
238.7618699999995
  0
ARC
  5
6C0
330
1F
100
AcDbEntity
  8
OBRYS
100
AcDbCircle
 10
201.5231590165467
 20
127.3015620204092
 30
0.0
 40
2.103543688480952
100
AcDbArc
 50
121.1577560000006
 51
169.0667099999998
  0
ARC
  5
6C1
330
1F
100
AcDbEntity
  8
OBRYS
100
AcDbCircle
 10
201.5231590165467
 20
127.3015620204092
 30
0.0
 40
2.103543688480952
100
AcDbArc
 50
191.0101050000001
 51
238.8359570000002
  0
ARC
  5
6C2
330
1F
100
AcDbEntity
  8
OBRYS
100
AcDbCircle
 10
201.5231590165467
 20
102.6468020204092
 30
0.0
 40
2.09999990375498
100
AcDbArc
 50
169.0506929999999
 51
191.0118449999999
  0
ARC
  5
6C3
330
1F
100
AcDbEntity
  8
OBRYS
100
AcDbCircle
 10
201.5231590165467
 20
102.6468020204092
 30
0.0
 40
1.8839072783412
100
AcDbArc
 50
107.1693549999998
 51
167.7991199999998
  0
ARC
  5
6C4
330
1F
100
AcDbEntity
  8
OBRYS
100
AcDbCircle
 10
201.5231590165467
 20
102.6468020204092
 30
0.0
 40
1.8839072783412
100
AcDbArc
 50
192.2634180000002
 51
252.8421490000004
  0
ARC
  5
6C5
330
1F
100
AcDbEntity
  8
OBRYS
100
AcDbCircle
 10
201.5231590165467
 20
65.58144502040922
 30
0.0
 40
2.09999990375498
100
AcDbArc
 50
169.0506929999999
 51
191.0118449999999
  0
ARC
  5
6C6
330
1F
100
AcDbEntity
  8
OBRYS
100
AcDbCircle
 10
201.5231590165467
 20
65.58144502040922
 30
0.0
 40
1.8839072783412
100
AcDbArc
 50
105.5094900000001
 51
167.7991200000002
  0
ARC
  5
6C7
330
1F
100
AcDbEntity
  8
OBRYS
100
AcDbCircle
 10
201.5231590165467
 20
65.58144502040922
 30
0.0
 40
1.8839072783412
100
AcDbArc
 50
192.2634180000002
 51
251.3256830000002
  0
ARC
  5
6C8
330
1F
100
AcDbEntity
  8
OBRYS
100
AcDbCircle
 10
201.5231590165467
 20
90.2968020204092
 30
0.0
 40
2.09999990375498
100
AcDbArc
 50
169.0506929999999
 51
191.0118449999999
  0
ARC
  5
6C9
330
1F
100
AcDbEntity
  8
OBRYS
100
AcDbCircle
 10
201.5231590165467
 20
90.2968020204092
 30
0.0
 40
1.8839072783412
100
AcDbArc
 50
107.1693549999998
 51
167.7991199999998
  0
ARC
  5
6CA
330
1F
100
AcDbEntity
  8
OBRYS
100
AcDbCircle
 10
201.5231590165467
 20
90.2968020204092
 30
0.0
 40
1.8839072783412
100
AcDbArc
 50
192.2634180000002
 51
252.8421490000004
  0
ARC
  5
6CB
330
1F
100
AcDbEntity
  8
OBRYS
100
AcDbCircle
 10
-199.4981590165467
 20
128.5015620204092
 30
0.0
 40
0.3
210
0.0
220
0.0
230
-1.0
100
AcDbArc
 50
242.0308739999983
 51
270.0
  0
ARC
  5
6CC
330
1F
100
AcDbEntity
  8
OBRYS
100
AcDbCircle
 10
-199.4981590165467
 20
126.1015620204092
 30
0.0
 40
0.3
210
0.0
220
0.0
230
-1.0
100
AcDbArc
 50
90.0
 51
117.9691260000017
  0
ARC
  5
6CD
330
1F
100
AcDbEntity
  8
OBRYS
100
AcDbCircle
 10
201.5481590165467
 20
108.7843590204092
 30
0.0
 40
2.649999999999565
100
AcDbArc
 50
156.4931200000003
 51
180.0
  0
ARC
  5
6CE
330
1F
100
AcDbEntity
  8
OBRYS
100
AcDbCircle
 10
201.5481590165467
 20
108.7843590204092
 30
0.0
 40
2.649999999999565
100
AcDbArc
 50
180.0
 51
203.5068799999997
  0
CIRCLE
  5
6CF
330
1F
100
AcDbEntity
  8
OBRYS
100
AcDbCircle
 10
201.5481590165467
 20
108.7843590204092
 30
0.0
 40
0.5299999999997845
  0
ARC
  5
6D0
330
1F
100
AcDbEntity
  8
OBRYS
100
AcDbCircle
 10
201.5231590165467
 20
77.94820202040923
 30
0.0
 40
2.09999990375498
100
AcDbArc
 50
169.0506929999999
 51
191.0118449999999
  0
ARC
  5
6D1
330
1F
100
AcDbEntity
  8
OBRYS
100
AcDbCircle
 10
201.5231590165467
 20
77.94820202040923
 30
0.0
 40
1.8839072783412
100
AcDbArc
 50
107.3127530000002
 51
167.7991199999998
  0
ARC
  5
6D2
330
1F
100
AcDbEntity
  8
OBRYS
100
AcDbCircle
 10
201.5231590165467
 20
77.94820202040923
 30
0.0
 40
1.8839072783412
100
AcDbArc
 50
192.2634180000002
 51
252.98795
  0
ARC
  5
6D3
330
1F
100
AcDbEntity
  8
OBRYS
100
AcDbCircle
 10
-199.4981590165467
 20
113.7515620204092
 30
0.0
 40
0.3
210
0.0
220
0.0
230
-1.0
100
AcDbArc
 50
90.0
 51
117.9691260000017
  0
ARC
  5
6D4
330
1F
100
AcDbEntity
  8
OBRYS
100
AcDbCircle
 10
-199.4981590165467
 20
116.1515620204092
 30
0.0
 40
0.3
210
0.0
220
0.0
230
-1.0
100
AcDbArc
 50
242.0308739999983
 51
270.0
  0
ARC
  5
6D5
330
1F
100
AcDbEntity
  8
OBRYS
100
AcDbCircle
 10
201.5231590165467
 20
114.9515620204092
 30
0.0
 40
2.09999990375498
100
AcDbArc
 50
169.0506929999999
 51
191.0118449999999
  0
ARC
  5
6D6
330
1F
100
AcDbEntity
  8
OBRYS
100
AcDbCircle
 10
201.5231590165467
 20
114.9515620204092
 30
0.0
 40
1.8839072783412
100
AcDbArc
 50
107.1572199999998
 51
167.7991199999998
  0
ARC
  5
6D7
330
1F
100
AcDbEntity
  8
OBRYS
100
AcDbCircle
 10
201.5231590165467
 20
114.9515620204092
 30
0.0
 40
1.8839072783412
100
AcDbArc
 50
192.2634180000002
 51
252.8299839999997
  0
ARC
  5
6D8
330
1F
100
AcDbEntity
  8
OBRYS
100
AcDbCircle
 10
201.5231590165467
 20
139.6501620204092
 30
0.0
 40
2.09999990375498
100
AcDbArc
 50
169.0506929999999
 51
191.0118449999999
  0
ARC
  5
6D9
330
1F
100
AcDbEntity
  8
OBRYS
100
AcDbCircle
 10
201.5231590165467
 20
139.6501620204092
 30
0.0
 40
1.8839072783412
100
AcDbArc
 50
107.0113880000003
 51
167.7991199999998
  0
ARC
  5
6DA
330
1F
100
AcDbEntity
  8
OBRYS
100
AcDbCircle
 10
201.5231590165467
 20
139.6501620204092
 30
0.0
 40
1.8839072783412
100
AcDbArc
 50
192.2634180000002
 51
252.6866159999996
  0
CIRCLE
  5
6DB
330
1F
100
AcDbEntity
  8
OBRYS
100
AcDbCircle
 10
201.5181590165467
 20
108.7991820204092
 30
0.0
 40
1.025
  0
ARC
  5
6DC
330
1F
100
AcDbEntity
  8
OBRYS
100
AcDbCircle
 10
201.5231590165467
 20
127.3015620204092
 30
0.0
 40
2.09999990375498
100
AcDbArc
 50
169.0506929999999
 51
191.0118449999999
  0
ARC
  5
6DD
330
1F
100
AcDbEntity
  8
OBRYS
100
AcDbCircle
 10
201.5231590165467
 20
127.3015620204092
 30
0.0
 40
1.8839072783412
100
AcDbArc
 50
107.1572199999998
 51
167.7991199999998
  0
ARC
  5
6DE
330
1F
100
AcDbEntity
  8
OBRYS
100
AcDbCircle
 10
201.5231590165467
 20
127.3015620204092
 30
0.0
 40
1.8839072783412
100
AcDbArc
 50
192.2634180000002
 51
252.8299839999997
  0
ARC
  5
6DF
330
1F
100
AcDbEntity
  8
OBRYS
100
AcDbCircle
 10
-199.4981590165467
 20
138.4501620204092
 30
0.0
 40
0.3
210
0.0
220
0.0
230
-1.0
100
AcDbArc
 50
90.0
 51
117.9691260000017
  0
ARC
  5
6E0
330
1F
100
AcDbEntity
  8
OBRYS
100
AcDbCircle
 10
-199.4981590165467
 20
140.8501620204092
 30
0.0
 40
0.3
210
0.0
220
0.0
230
-1.0
100
AcDbArc
 50
242.0308739999983
 51
270.0
  0
ARC
  5
6E1
330
1F
100
AcDbEntity
  8
OBRYS
100
AcDbCircle
 10
201.5181590165467
 20
108.7991820204092
 30
0.0
 40
2.35
100
AcDbArc
 50
270.0
 51
90.0
  0
ARC
  5
6E2
330
1F
100
AcDbEntity
  8
OBRYS
100
AcDbCircle
 10
-201.5181590165467
 20
65.59674202040921
 30
0.0
 40
1.8
210
0.0
220
0.0
230
-1.0
100
AcDbArc
 50
90.0
 51
270.0
  0
ARC
  5
6E3
330
1F
100
AcDbEntity
  8
OBRYS
100
AcDbCircle
 10
-201.5181590165467
 20
139.6516220204092
 30
0.0000000000000042
 40
1.8
210
6.123233995736766E-17
220
0.0
230
-1.0
100
AcDbArc
 50
90.0
 51
270.0
  0
ARC
  5
6E4
330
1F
100
AcDbEntity
  8
OBRYS
100
AcDbCircle
 10
-201.5181590165467
 20
77.94674202040922
 30
0.0
 40
1.8
210
0.0
220
0.0
230
-1.0
100
AcDbArc
 50
90.0
 51
270.0
  0
ARC
  5
6E5
330
1F
100
AcDbEntity
  8
OBRYS
100
AcDbCircle
 10
-201.5181590165467
 20
102.6467420204092
 30
0.0
 40
1.8
210
0.0
220
0.0
230
-1.0
100
AcDbArc
 50
90.0
 51
270.0
  0
ARC
  5
6E6
330
1F
100
AcDbEntity
  8
OBRYS
100
AcDbCircle
 10
-201.5181590165467
 20
127.3016220204092
 30
0.0000000000000042
 40
1.8
210
6.123233995736766E-17
220
0.0
230
-1.0
100
AcDbArc
 50
90.0
 51
270.0
  0
ARC
  5
6E7
330
1F
100
AcDbEntity
  8
OBRYS
100
AcDbCircle
 10
-201.5181590165467
 20
114.9516220204092
 30
0.0000000000000042
 40
1.8
210
6.123233995736766E-17
220
0.0
230
-1.0
100
AcDbArc
 50
90.0
 51
270.0
  0
ARC
  5
6E8
330
1F
100
AcDbEntity
  8
OBRYS
100
AcDbCircle
 10
-201.5181590165467
 20
90.29674202040921
 30
0.0
 40
1.8
210
0.0
220
0.0
230
-1.0
100
AcDbArc
 50
90.0
 51
270.0
  0
ARC
  5
6E9
330
1F
100
AcDbEntity
  8
OBRYS
100
AcDbCircle
 10
232.2636990165467
 20
102.6468020204092
 30
0.0
 40
2.103543688480952
100
AcDbArc
 50
121.1651650000002
 51
169.0667099999996
  0
ARC
  5
6EA
330
1F
100
AcDbEntity
  8
OBRYS
100
AcDbCircle
 10
232.2636990165467
 20
102.6468020204092
 30
0.0
 40
2.103543688480952
100
AcDbArc
 50
191.0101050000001
 51
238.8409139999999
  0
ARC
  5
6EB
330
1F
100
AcDbEntity
  8
OBRYS
100
AcDbCircle
 10
232.2636990165467
 20
90.2968020204092
 30
0.0
 40
2.103543688480952
100
AcDbArc
 50
121.1651650000002
 51
169.0667099999996
  0
ARC
  5
6EC
330
1F
100
AcDbEntity
  8
OBRYS
100
AcDbCircle
 10
232.2636990165467
 20
90.2968020204092
 30
0.0
 40
2.103543688480952
100
AcDbArc
 50
191.0101050000001
 51
238.8409139999999
  0
ARC
  5
6ED
330
1F
100
AcDbEntity
  8
OBRYS
100
AcDbCircle
 10
232.2636990165467
 20
65.58144502040922
 30
0.0
 40
2.103543688480952
100
AcDbArc
 50
120.3476509999996
 51
169.0667100000001
  0
ARC
  5
6EE
330
1F
100
AcDbEntity
  8
OBRYS
100
AcDbCircle
 10
232.2636990165467
 20
65.58144502040922
 30
0.0
 40
2.103543688480952
100
AcDbArc
 50
191.0101050000001
 51
238.0432290000004
  0
ARC
  5
6EF
330
1F
100
AcDbEntity
  8
OBRYS
100
AcDbCircle
 10
232.2636990165467
 20
77.94820202040923
 30
0.0
 40
2.103543688480952
100
AcDbArc
 50
121.2392510000002
 51
169.0667099999996
  0
ARC
  5
6F0
330
1F
100
AcDbEntity
  8
OBRYS
100
AcDbCircle
 10
232.2636990165467
 20
77.94820202040923
 30
0.0
 40
2.103543688480952
100
AcDbArc
 50
191.0101050000001
 51
238.9150010000003
  0
ARC
  5
6F1
330
1F
100
AcDbEntity
  8
OBRYS
100
AcDbCircle
 10
232.2636990165467
 20
114.9515620204092
 30
0.0
 40
2.103543688480952
100
AcDbArc
 50
121.1577560000004
 51
169.0667099999996
  0
ARC
  5
6F2
330
1F
100
AcDbEntity
  8
OBRYS
100
AcDbCircle
 10
232.2636990165467
 20
114.9515620204092
 30
0.0
 40
2.103543688480952
100
AcDbArc
 50
191.0101050000001
 51
238.8359570000002
  0
ARC
  5
6F3
330
1F
100
AcDbEntity
  8
OBRYS
100
AcDbCircle
 10
232.2636990165467
 20
139.6501620204092
 30
0.0
 40
2.103543688480952
100
AcDbArc
 50
121.0836419999997
 51
169.0667099999996
  0
ARC
  5
6F4
330
1F
100
AcDbEntity
  8
OBRYS
100
AcDbCircle
 10
232.2636990165467
 20
139.6501620204092
 30
0.0
 40
2.103543688480952
100
AcDbArc
 50
191.0101049999993
 51
238.7618699999995
  0
ARC
  5
6F5
330
1F
100
AcDbEntity
  8
OBRYS
100
AcDbCircle
 10
232.2636990165467
 20
127.3015620204092
 30
0.0
 40
2.103543688480952
100
AcDbArc
 50
121.1577560000006
 51
169.0667099999996
  0
ARC
  5
6F6
330
1F
100
AcDbEntity
  8
OBRYS
100
AcDbCircle
 10
232.2636990165467
 20
127.3015620204092
 30
0.0
 40
2.103543688480952
100
AcDbArc
 50
191.0101050000001
 51
238.8359570000002
  0
ARC
  5
6F7
330
1F
100
AcDbEntity
  8
OBRYS
100
AcDbCircle
 10
232.2636990165467
 20
102.6468020204092
 30
0.0
 40
2.09999990375498
100
AcDbArc
 50
169.0506929999999
 51
191.0118449999999
  0
ARC
  5
6F8
330
1F
100
AcDbEntity
  8
OBRYS
100
AcDbCircle
 10
232.2636990165467
 20
102.6468020204092
 30
0.0
 40
1.8839072783412
100
AcDbArc
 50
107.1693549999998
 51
167.7991199999998
  0
ARC
  5
6F9
330
1F
100
AcDbEntity
  8
OBRYS
100
AcDbCircle
 10
232.2636990165467
 20
102.6468020204092
 30
0.0
 40
1.8839072783412
100
AcDbArc
 50
192.263418
 51
252.8421490000004
  0
ARC
  5
6FA
330
1F
100
AcDbEntity
  8
OBRYS
100
AcDbCircle
 10
232.2636990165467
 20
65.58144502040922
 30
0.0
 40
2.09999990375498
100
AcDbArc
 50
169.0506929999999
 51
191.0118449999999
  0
ARC
  5
6FB
330
1F
100
AcDbEntity
  8
OBRYS
100
AcDbCircle
 10
232.2636990165467
 20
65.58144502040922
 30
0.0
 40
1.8839072783412
100
AcDbArc
 50
105.5094900000001
 51
167.7991200000002
  0
ARC
  5
6FC
330
1F
100
AcDbEntity
  8
OBRYS
100
AcDbCircle
 10
232.2636990165467
 20
65.58144502040922
 30
0.0
 40
1.8839072783412
100
AcDbArc
 50
192.263418
 51
251.3256830000002
  0
ARC
  5
6FD
330
1F
100
AcDbEntity
  8
OBRYS
100
AcDbCircle
 10
232.2636990165467
 20
90.2968020204092
 30
0.0
 40
2.09999990375498
100
AcDbArc
 50
169.0506929999999
 51
191.0118449999999
  0
ARC
  5
6FE
330
1F
100
AcDbEntity
  8
OBRYS
100
AcDbCircle
 10
232.2636990165467
 20
90.2968020204092
 30
0.0
 40
1.8839072783412
100
AcDbArc
 50
107.1693549999998
 51
167.7991199999998
  0
ARC
  5
6FF
330
1F
100
AcDbEntity
  8
OBRYS
100
AcDbCircle
 10
232.2636990165467
 20
90.2968020204092
 30
0.0
 40
1.8839072783412
100
AcDbArc
 50
192.263418
 51
252.8421490000004
  0
ARC
  5
700
330
1F
100
AcDbEntity
  8
OBRYS
100
AcDbCircle
 10
-230.2386990165467
 20
128.5015620204092
 30
0.0
 40
0.3
210
0.0
220
0.0
230
-1.0
100
AcDbArc
 50
242.0308739999983
 51
270.0
  0
ARC
  5
701
330
1F
100
AcDbEntity
  8
OBRYS
100
AcDbCircle
 10
-230.2386990165467
 20
126.1015620204092
 30
0.0
 40
0.3
210
0.0
220
0.0
230
-1.0
100
AcDbArc
 50
90.0
 51
117.9691260000017
  0
ARC
  5
702
330
1F
100
AcDbEntity
  8
OBRYS
100
AcDbCircle
 10
232.2886990165466
 20
108.7843590204092
 30
0.0
 40
2.649999999999565
100
AcDbArc
 50
156.4931199999995
 51
168.8568790000001
  0
ARC
  5
703
330
1F
100
AcDbEntity
  8
OBRYS
100
AcDbCircle
 10
232.2886990165466
 20
108.7843590204092
 30
0.0
 40
2.649999999999565
100
AcDbArc
 50
191.1431219999997
 51
203.5068809999997
  0
CIRCLE
  5
704
330
1F
100
AcDbEntity
  8
OBRYS
100
AcDbCircle
 10
232.2886990165466
 20
108.7843590204092
 30
0.0
 40
0.5299999999997845
  0
ARC
  5
705
330
1F
100
AcDbEntity
  8
OBRYS
100
AcDbCircle
 10
232.2636990165467
 20
77.94820202040923
 30
0.0
 40
2.09999990375498
100
AcDbArc
 50
169.0506929999999
 51
191.0118449999999
  0
ARC
  5
706
330
1F
100
AcDbEntity
  8
OBRYS
100
AcDbCircle
 10
232.2636990165467
 20
77.94820202040923
 30
0.0
 40
1.8839072783412
100
AcDbArc
 50
107.3127530000002
 51
167.7991199999998
  0
ARC
  5
707
330
1F
100
AcDbEntity
  8
OBRYS
100
AcDbCircle
 10
232.2636990165467
 20
77.94820202040923
 30
0.0
 40
1.8839072783412
100
AcDbArc
 50
192.263418
 51
252.98795
  0
ARC
  5
708
330
1F
100
AcDbEntity
  8
OBRYS
100
AcDbCircle
 10
-230.2386990165467
 20
113.7515620204092
 30
0.0
 40
0.3
210
0.0
220
0.0
230
-1.0
100
AcDbArc
 50
90.0
 51
117.9691260000017
  0
ARC
  5
709
330
1F
100
AcDbEntity
  8
OBRYS
100
AcDbCircle
 10
-230.2386990165467
 20
116.1515620204092
 30
0.0
 40
0.3
210
0.0
220
0.0
230
-1.0
100
AcDbArc
 50
242.0308739999983
 51
270.0
  0
ARC
  5
70A
330
1F
100
AcDbEntity
  8
OBRYS
100
AcDbCircle
 10
232.2636990165467
 20
114.9515620204092
 30
0.0
 40
2.09999990375498
100
AcDbArc
 50
169.0506929999999
 51
191.0118449999999
  0
ARC
  5
70B
330
1F
100
AcDbEntity
  8
OBRYS
100
AcDbCircle
 10
232.2636990165467
 20
114.9515620204092
 30
0.0
 40
1.8839072783412
100
AcDbArc
 50
107.1572199999998
 51
167.7991199999998
  0
ARC
  5
70C
330
1F
100
AcDbEntity
  8
OBRYS
100
AcDbCircle
 10
232.2636990165467
 20
114.9515620204092
 30
0.0
 40
1.8839072783412
100
AcDbArc
 50
192.263418
 51
252.8299839999997
  0
ARC
  5
70D
330
1F
100
AcDbEntity
  8
OBRYS
100
AcDbCircle
 10
232.2636990165467
 20
139.6501620204092
 30
0.0
 40
2.09999990375498
100
AcDbArc
 50
169.0506929999999
 51
191.0118449999999
  0
ARC
  5
70E
330
1F
100
AcDbEntity
  8
OBRYS
100
AcDbCircle
 10
232.2636990165467
 20
139.6501620204092
 30
0.0
 40
1.8839072783412
100
AcDbArc
 50
107.0113880000003
 51
167.7991199999998
  0
ARC
  5
70F
330
1F
100
AcDbEntity
  8
OBRYS
100
AcDbCircle
 10
232.2636990165467
 20
139.6501620204092
 30
0.0
 40
1.8839072783412
100
AcDbArc
 50
192.263418
 51
252.6866159999996
  0
CIRCLE
  5
710
330
1F
100
AcDbEntity
  8
OBRYS
100
AcDbCircle
 10
232.2586990165466
 20
108.7991820204092
 30
0.0
 40
1.025
  0
ARC
  5
711
330
1F
100
AcDbEntity
  8
OBRYS
100
AcDbCircle
 10
232.2636990165467
 20
127.3015620204092
 30
0.0
 40
2.09999990375498
100
AcDbArc
 50
169.0506929999999
 51
191.0118449999999
  0
ARC
  5
712
330
1F
100
AcDbEntity
  8
OBRYS
100
AcDbCircle
 10
232.2636990165467
 20
127.3015620204092
 30
0.0
 40
1.8839072783412
100
AcDbArc
 50
107.1572199999998
 51
167.7991199999998
  0
ARC
  5
713
330
1F
100
AcDbEntity
  8
OBRYS
100
AcDbCircle
 10
232.2636990165467
 20
127.3015620204092
 30
0.0
 40
1.8839072783412
100
AcDbArc
 50
192.263418
 51
252.8299839999997
  0
ARC
  5
714
330
1F
100
AcDbEntity
  8
OBRYS
100
AcDbCircle
 10
-230.2386990165467
 20
138.4501620204092
 30
0.0
 40
0.3
210
0.0
220
0.0
230
-1.0
100
AcDbArc
 50
90.0
 51
117.9691260000017
  0
ARC
  5
715
330
1F
100
AcDbEntity
  8
OBRYS
100
AcDbCircle
 10
-230.2386990165467
 20
140.8501620204092
 30
0.0
 40
0.3
210
0.0
220
0.0
230
-1.0
100
AcDbArc
 50
242.0308739999983
 51
270.0
  0
ARC
  5
716
330
1F
100
AcDbEntity
  8
OBRYS
100
AcDbCircle
 10
232.2586990165466
 20
108.7991820204092
 30
0.0
 40
2.35
100
AcDbArc
 50
270.0
 51
90.0
  0
ARC
  5
717
330
1F
100
AcDbEntity
  8
OBRYS
100
AcDbCircle
 10
-232.2586990165466
 20
65.59674202040921
 30
0.0
 40
1.8
210
0.0
220
0.0
230
-1.0
100
AcDbArc
 50
90.0
 51
270.0
  0
ARC
  5
718
330
1F
100
AcDbEntity
  8
OBRYS
100
AcDbCircle
 10
-232.2586990165466
 20
139.6516220204092
 30
0.0000000000000042
 40
1.8
210
6.123233995736766E-17
220
0.0
230
-1.0
100
AcDbArc
 50
90.0
 51
270.0
  0
ARC
  5
719
330
1F
100
AcDbEntity
  8
OBRYS
100
AcDbCircle
 10
-232.2586990165466
 20
77.94674202040922
 30
0.0
 40
1.8
210
0.0
220
0.0
230
-1.0
100
AcDbArc
 50
90.0
 51
270.0
  0
ARC
  5
71A
330
1F
100
AcDbEntity
  8
OBRYS
100
AcDbCircle
 10
-232.2586990165466
 20
102.6467420204092
 30
0.0
 40
1.8
210
0.0
220
0.0
230
-1.0
100
AcDbArc
 50
90.0
 51
270.0
  0
ARC
  5
71B
330
1F
100
AcDbEntity
  8
OBRYS
100
AcDbCircle
 10
-232.2586990165466
 20
127.3016220204092
 30
0.0000000000000042
 40
1.8
210
6.123233995736766E-17
220
0.0
230
-1.0
100
AcDbArc
 50
90.0
 51
270.0
  0
ARC
  5
71C
330
1F
100
AcDbEntity
  8
OBRYS
100
AcDbCircle
 10
-232.2586990165466
 20
114.9516220204092
 30
0.0000000000000042
 40
1.8
210
6.123233995736766E-17
220
0.0
230
-1.0
100
AcDbArc
 50
90.0
 51
270.0
  0
ARC
  5
71D
330
1F
100
AcDbEntity
  8
OBRYS
100
AcDbCircle
 10
-232.2586990165466
 20
90.29674202040921
 30
0.0
 40
1.8
210
0.0
220
0.0
230
-1.0
100
AcDbArc
 50
90.0
 51
270.0
  0
LINE
  5
71E
330
1F
100
AcDbEntity
  8
OBRYS
100
AcDbLine
 10
228.7886990165466
 20
148.1667130204092
 30
0.0
 11
228.7886990165466
 21
57.09674202040921
 31
0.0
  0
LINE
  5
71F
330
1F
100
AcDbEntity
  8
OBRYS
100
AcDbLine
 10
229.6886990165467
 20
57.08164902040922
 30
0.0
 11
229.6886990165467
 21
148.1667150204092
 31
0.0
  0
DIMENSION
  5
720
330
1F
100
AcDbEntity
  8
KOTY
100
AcDbDimension
  2
*D1
 10
204.8481590165466
 20
48.37258863077584
 30
0.0
 11
201.8981590165466
 21
51.41458863077584
 31
0.0
 70
    32
  3
STANDARD
100
AcDbAlignedDimension
 13
198.9481590165467
 23
57.08164902040922
 33
0.0
 14
204.8481590165466
 24
57.08164902040922
 34
0.0
100
AcDbRotatedDimension
1001
ACAD
1000
DSTYLE
1002
{
1070
   271
1070
     0
1070
   278
1070
    44
1070
    73
1070
     0
1070
    77
1070
     1
1070
   140
1040
4.0
1070
   147
1040
1.0
1070
    41
1040
4.0
1002
}
  0
DIMENSION
  5
723
330
1F
100
AcDbEntity
  8
KOTY
100
AcDbDimension
  2
*D2
 10
235.5886990165467
 20
48.37258863077584
 30
0.0
 11
232.1886990165467
 21
51.37258863077584
 31
0.0
 70
    32
  3
STANDARD
100
AcDbAlignedDimension
 13
228.7886990165466
 23
57.09674202040921
 33
0.0
 14
235.5886990165467
 24
57.09674202040921
 34
0.0
100
AcDbRotatedDimension
1001
ACAD
1000
DSTYLE
1002
{
1070
   271
1070
     0
1070
   278
1070
    44
1070
    73
1070
     0
1070
    77
1070
     1
1070
   140
1040
4.0
1070
   147
1040
1.0
1070
    41
1040
4.0
1002
}
  0
DIMENSION
  5
726
330
1F
100
AcDbEntity
  8
KOTY
100
AcDbDimension
  2
*D3
 10
95.24474996069148
 20
148.1667150204092
 30
0.0
 11
92.20274996069148
 21
102.6241820204092
 31
0.0
 70
    32
  3
STANDARD
100
AcDbAlignedDimension
 13
160.1456550165466
 23
57.08164902040922
 33
0.0
 14
145.6457360165467
 24
148.1667150204092
 34
0.0
 50
90.0
100
AcDbRotatedDimension
1001
ACAD
1000
DSTYLE
1002
{
1070
   271
1070
     0
1070
   278
1070
    44
1070
    73
1070
     0
1070
    77
1070
     1
1070
   140
1040
4.0
1070
   147
1040
1.0
1070
    41
1040
4.0
1002
}
  0
DIMENSION
  5
729
330
1F
100
AcDbEntity
  8
KOTY
100
AcDbDimension
  2
*D4
 10
170.2211740165467
 20
159.3700047634458
 30
0.0
 11
141.1212575165467
 21
162.4120047634458
 31
0.0
 70
    32
  3
STANDARD
100
AcDbAlignedDimension
 13
112.0213410165467
 23
119.5279070204092
 33
0.0
 14
170.2211740165467
 24
126.4143800204092
 34
0.0
100
AcDbRotatedDimension
1001
ACAD
1000
DSTYLE
1002
{
1070
   271
1070
     0
1070
   278
1070
    44
1070
    73
1070
     0
1070
    77
1070
     1
1070
   140
1040
4.0
1070
   147
1040
1.0
1070
    41
1040
4.0
1002
}
  0
MTEXT
  5
75E
330
1F
100
AcDbEntity
  8
POZNAMKA
100
AcDbMText
 10
191.738475861412
 20
46.21084605937044
 30
0.0
 40
2.3
 41
21.93504396803471
 71
     1
 72
     1
  1
{šířka bez víčka}
1001
ACAD
1000
ACAD_MTEXT_DEFINED_HEIGHT_BEGIN
1070
    46
1040
2.3
1000
ACAD_MTEXT_DEFINED_HEIGHT_END
  0
MTEXT
  5
784
330
1F
100
AcDbEntity
  8
POZNAMKA
100
AcDbMText
 10
222.2209782770846
 20
46.39033618534906
 30
0.0
 40
2.3
 41
21.93504396803471
 71
     1
 72
     1
  1
{šířka s víčkem}
1001
ACAD
1000
ACAD_MTEXT_DEFINED_HEIGHT_BEGIN
1070
    46
1040
2.3
1000
ACAD_MTEXT_DEFINED_HEIGHT_END
  0
VIEWPORT
  5
785
330
58
100
AcDbEntity
 67
     1
  8
0
100
AcDbViewport
 10
0.0
 20
0.0
 30
0.0
 40
8.976
 41
6.936000000000001
 68
     1
 69
     1
1001
ACAD
1000
MVIEW
1002
{
1070
    16
1010
0.0
1020
0.0
1030
0.0
1010
0.0
1020
0.0
1030
1.0
1040
0.0
1040
6.936000000000001
1040
5.25
1040
4.0
1040
50.0
1040
0.0
1040
0.0
1070
     0
1070
   100
1070
     0
1070
     3
1070
     0
1070
     0
1070
     0
1070
     0
1040
0.0
1040
0.0
1040
0.0
1040
0.5
1040
0.5
1040
0.0
1040
0.0
1070
     0
1002
{
1002
}
1002
}
  0
VIEWPORT
  5
786
330
58
100
AcDbEntity
 67
     1
  8
0
100
AcDbViewport
 10
5.25
 20
4.0
 30
0.0
 40
8.4
 41
6.4
 68
     2
 69
     2
1001
ACAD
1000
MVIEW
1002
{
1070
    16
1010
0.0
1020
0.0
1030
0.0
1010
0.0
1020
0.0
1030
1.0
1040
0.0
1040
121.9679878781569
1040
166.8045641188881
1040
103.6507754114081
1040
50.0
1040
0.0
1040
0.0
1070
     0
1070
   100
1070
     0
1070
     3
1070
     0
1070
     0
1070
     0
1070
     0
1040
0.0
1040
0.0
1040
0.0
1040
0.5
1040
0.5
1040
0.0
1040
0.0
1070
     0
1002
{
1002
}
1002
}
  0
ENDSEC
  0
SECTION
  2
OBJECTS
  0
DICTIONARY
  5
C
330
0
100
AcDbDictionary
  3
ACAD_DETAILVIEWSTYLE
350
122
  3
ACAD_GROUP
350
D
  3
ACAD_IMAGE_VARS
350
DC
  3
ACAD_MLINESTYLE
350
17
  3
ACAD_SCALELIST
350
797
  3
ACAD_SECTIONVIEWSTYLE
350
123
  3
ACDBVARIABLEDICTIONARY
350
66
  3
APPDATA
350
E1
  3
DWGPROPS
350
7DD
  0
DICTIONARY
  5
788
330
2
100
AcDbDictionary
280
     1
  3
ACAD_LAYERSTATES
360
789
  3
ACLYDICTIONARY
360
795
  0
DICTIONARY
  5
122
102
{ACAD_REACTORS
330
C
102
}
330
C
100
AcDbDictionary
  0
DICTIONARY
  5
D
102
{ACAD_REACTORS
330
C
102
}
330
C
100
AcDbDictionary
  0
RASTERVARIABLES
  5
DC
102
{ACAD_REACTORS
330
C
102
}
330
C
100
AcDbRasterVariables
 90
        0
 70
     1
 71
     1
 72
     5
  0
DICTIONARY
  5
17
102
{ACAD_REACTORS
330
C
102
}
330
C
100
AcDbDictionary
  3
STANDARD
350
18
  0
DICTIONARY
  5
797
102
{ACAD_REACTORS
330
C
102
}
330
C
100
AcDbDictionary
  0
DICTIONARY
  5
123
102
{ACAD_REACTORS
330
C
102
}
330
C
100
AcDbDictionary
  0
DICTIONARY
  5
66
102
{ACAD_REACTORS
330
C
102
}
330
C
100
AcDbDictionary
  3
DIMASSOC
350
67
  3
HIDETEXT
350
6B
  0
DICTIONARY
  5
E1
102
{ACAD_REACTORS
330
C
102
}
330
C
100
AcDbDictionary
  0
XRECORD
  5
7DD
102
{ACAD_REACTORS
330
C
102
}
330
C
100
AcDbXrecord
  1
DWGPROPS COOKIE
  2

  3

  4

  6

  7

  8
jaromir.podrabsky
  9

300
=
301
=
302
=
303
=
304
=
305
=
306
=
307
=
308
=
309
=
 40
0.0
 41
2452643.021717593
 42
2456765.233181921
  1

 90
        0
  0
DICTIONARY
  5
789
102
{ACAD_REACTORS
330
788
102
}
330
788
100
AcDbDictionary
  0
DICTIONARY
  5
795
102
{ACAD_REACTORS
330
788
102
}
330
788
100
AcDbDictionary
1001
ACAD
1000
<All
  0
MLINESTYLE
  5
18
102
{ACAD_REACTORS
330
17
102
}
330
17
100
AcDbMlineStyle
  2
STANDARD
 70
     0
  3

 62
   256
 51
90.0
 52
90.0
 71
     2
 49
0.5
 62
   256
  6
BYLAYER
 49
-0.5
 62
   256
  6
BYLAYER
  0
DICTIONARYVAR
  5
67
102
{ACAD_REACTORS
330
66
102
}
330
66
100
DictionaryVariables
280
     0
  1
2
  0
DICTIONARYVAR
  5
6B
102
{ACAD_REACTORS
330
66
102
}
330
66
100
DictionaryVariables
280
     0
  1
1
  0
ENDSEC
  0
EOF
