  0
SECTION
  2
HEADER
  9
$ACADVER
  1
AC1014
  9
$ACADMAINTVER
 70
     9
  9
$DWGCODEPAGE
  3
ANSI_1250
  9
$INSBASE
 10
0.0
 20
0.0
 30
0.0
  9
$EXTMIN
 10
35.80366574398972
 20
47.91340426768295
 30
0.0
  9
$EXTMAX
 10
223.441356610093
 20
125.761716810112
 30
0.0
  9
$LIMMIN
 10
0.0
 20
0.0
  9
$LIMMAX
 10
12.0
 20
9.0
  9
$ORTHOMODE
 70
     0
  9
$REGENMODE
 70
     1
  9
$FILLMODE
 70
     1
  9
$QTEXTMODE
 70
     0
  9
$MIRRTEXT
 70
     0
  9
$DRAGMODE
 70
     2
  9
$LTSCALE
 40
1.0
  9
$OSMODE
 70
 15359
  9
$ATTMODE
 70
     1
  9
$TEXTSIZE
 40
0.2
  9
$TRACEWID
 40
0.05
  9
$TEXTSTYLE
  7
STANDARD
  9
$CLAYER
  8
0
  9
$CELTYPE
  6
BYLAYER
  9
$CECOLOR
 62
   256
  9
$CELTSCALE
 40
1.0
  9
$DELOBJ
 70
     1
  9
$DISPSILH
 70
     0
  9
$DIMSCALE
 40
1.0
  9
$DIMASZ
 40
0.18
  9
$DIMEXO
 40
0.0625
  9
$DIMDLI
 40
0.38
  9
$DIMRND
 40
0.0
  9
$DIMDLE
 40
0.0
  9
$DIMEXE
 40
0.18
  9
$DIMTP
 40
0.0
  9
$DIMTM
 40
0.0
  9
$DIMTXT
 40
0.18
  9
$DIMCEN
 40
0.09
  9
$DIMTSZ
 40
0.0
  9
$DIMTOL
 70
     0
  9
$DIMLIM
 70
     0
  9
$DIMTIH
 70
     1
  9
$DIMTOH
 70
     1
  9
$DIMSE1
 70
     0
  9
$DIMSE2
 70
     0
  9
$DIMTAD
 70
     0
  9
$DIMZIN
 70
     0
  9
$DIMBLK
  1

  9
$DIMASO
 70
     1
  9
$DIMSHO
 70
     1
  9
$DIMPOST
  1

  9
$DIMAPOST
  1

  9
$DIMALT
 70
     0
  9
$DIMALTD
 70
     2
  9
$DIMALTF
 40
25.4
  9
$DIMLFAC
 40
1.0
  9
$DIMTOFL
 70
     0
  9
$DIMTVP
 40
0.0
  9
$DIMTIX
 70
     0
  9
$DIMSOXD
 70
     0
  9
$DIMSAH
 70
     0
  9
$DIMBLK1
  1

  9
$DIMBLK2
  1

  9
$DIMSTYLE
  2
STANDARD
  9
$DIMCLRD
 70
     0
  9
$DIMCLRE
 70
     0
  9
$DIMCLRT
 70
     0
  9
$DIMTFAC
 40
1.0
  9
$DIMGAP
 40
0.09
  9
$DIMJUST
 70
     0
  9
$DIMSD1
 70
     0
  9
$DIMSD2
 70
     0
  9
$DIMTOLJ
 70
     1
  9
$DIMTZIN
 70
     0
  9
$DIMALTZ
 70
     0
  9
$DIMALTTZ
 70
     0
  9
$DIMFIT
 70
     5
  9
$DIMUPT
 70
     0
  9
$DIMUNIT
 70
     2
  9
$DIMDEC
 70
     4
  9
$DIMTDEC
 70
     4
  9
$DIMALTU
 70
     2
  9
$DIMALTTD
 70
     2
  9
$DIMTXSTY
  7
STANDARD
  9
$DIMAUNIT
 70
     0
  9
$LUNITS
 70
     2
  9
$LUPREC
 70
     4
  9
$SKETCHINC
 40
0.1
  9
$FILLETRAD
 40
0.0
  9
$AUNITS
 70
     0
  9
$AUPREC
 70
     0
  9
$MENU
  1
.
  9
$ELEVATION
 40
0.0
  9
$PELEVATION
 40
0.0
  9
$THICKNESS
 40
0.0
  9
$LIMCHECK
 70
     0
  9
$CHAMFERA
 40
0.0
  9
$CHAMFERB
 40
0.0
  9
$CHAMFERC
 40
0.0
  9
$CHAMFERD
 40
0.0
  9
$SKPOLY
 70
     0
  9
$TDCREATE
 40
2452643.105050926
  9
$TDUPDATE
 40
2456765.310106933
  9
$TDINDWG
 40
0.0189419097
  9
$TDUSRTIMER
 40
2456765.22627581
  9
$USRTIMER
 70
     1
  9
$ANGBASE
 50
0.0
  9
$ANGDIR
 70
     0
  9
$PDMODE
 70
     0
  9
$PDSIZE
 40
0.0
  9
$PLINEWID
 40
0.0
  9
$COORDS
 70
     2
  9
$SPLFRAME
 70
     0
  9
$SPLINETYPE
 70
     6
  9
$SPLINESEGS
 70
     8
  9
$ATTDIA
 70
     0
  9
$ATTREQ
 70
     1
  9
$HANDLING
 70
     1
  9
$HANDSEED
  5
647
  9
$SURFTAB1
 70
     6
  9
$SURFTAB2
 70
     6
  9
$SURFTYPE
 70
     6
  9
$SURFU
 70
     6
  9
$SURFV
 70
     6
  9
$UCSNAME
  2

  9
$UCSORG
 10
0.0
 20
0.0
 30
0.0
  9
$UCSXDIR
 10
1.0
 20
0.0
 30
0.0
  9
$UCSYDIR
 10
0.0
 20
1.0
 30
0.0
  9
$PUCSNAME
  2

  9
$PUCSORG
 10
0.0
 20
0.0
 30
0.0
  9
$PUCSXDIR
 10
1.0
 20
0.0
 30
0.0
  9
$PUCSYDIR
 10
0.0
 20
1.0
 30
0.0
  9
$USERI1
 70
     0
  9
$USERI2
 70
     0
  9
$USERI3
 70
     0
  9
$USERI4
 70
     0
  9
$USERI5
 70
     0
  9
$USERR1
 40
0.0
  9
$USERR2
 40
0.0
  9
$USERR3
 40
0.0
  9
$USERR4
 40
0.0
  9
$USERR5
 40
0.0
  9
$WORLDVIEW
 70
     1
  9
$SHADEDGE
 70
     3
  9
$SHADEDIF
 70
    70
  9
$TILEMODE
 70
     0
  9
$MAXACTVP
 70
    64
  9
$PINSBASE
 10
0.0
 20
0.0
 30
0.0
  9
$PLIMCHECK
 70
     0
  9
$PEXTMIN
 10
1.05
 20
0.7999999999999998
 30
0.0
  9
$PEXTMAX
 10
9.45
 20
7.2
 30
0.0
  9
$PLIMMIN
 10
0.8500000000000006
 20
0.5999999999999998
  9
$PLIMMAX
 10
9.650000000000002
 20
7.4
  9
$UNITMODE
 70
     0
  9
$VISRETAIN
 70
     1
  9
$PLINEGEN
 70
     0
  9
$PSLTSCALE
 70
     1
  9
$TREEDEPTH
 70
  3020
  9
$PICKSTYLE
 70
     0
  9
$CMLSTYLE
  2
STANDARD
  9
$CMLJUST
 70
     0
  9
$CMLSCALE
 40
1.0
  9
$PROXYGRAPHICS
 70
     1
  9
$MEASUREMENT
 70
     0
  0
ENDSEC
  0
SECTION
  2
CLASSES
  0
CLASS
  1
ACDBDICTIONARYWDFLT
  2
AcDbDictionaryWithDefault
  3
ObjectDBX Classes
 90
        0
280
     0
281
     0
  0
CLASS
  1
ACDBPLACEHOLDER
  2
AcDbPlaceHolder
  3
ObjectDBX Classes
 90
        0
280
     0
281
     0
  0
CLASS
  1
LAYOUT
  2
AcDbLayout
  3
ObjectDBX Classes
 90
        0
280
     0
281
     0
  0
CLASS
  1
DICTIONARYVAR
  2
AcDbDictionaryVar
  3
ObjectDBX Classes
 90
        0
280
     0
281
     0
  0
CLASS
  1
TABLESTYLE
  2
AcDbTableStyle
  3
ObjectDBX Classes
 90
     4095
280
     0
281
     0
  0
CLASS
  1
MATERIAL
  2
AcDbMaterial
  3
ObjectDBX Classes
 90
     1153
280
     0
281
     0
  0
CLASS
  1
VISUALSTYLE
  2
AcDbVisualStyle
  3
ObjectDBX Classes
 90
     4095
280
     0
281
     0
  0
CLASS
  1
SCALE
  2
AcDbScale
  3
ObjectDBX Classes
 90
     1153
280
     0
281
     0
  0
CLASS
  1
CELLSTYLEMAP
  2
AcDbCellStyleMap
  3
ObjectDBX Classes
 90
     1152
280
     0
281
     0
  0
CLASS
  1
RASTERVARIABLES
  2
AcDbRasterVariables
  3
ISM
 90
        0
280
     0
281
     0
  0
CLASS
  1
SUN
  2
AcDbSun
  3
SCENEOE
 90
     1153
280
     0
281
     0
  0
CLASS
  1
DIMASSOC
  2
AcDbDimAssoc
  3
"AcDbDimAssoc|Product Desc:     AcDim ARX App For Dimension|Company:          Autodesk, Inc.|WEB Address:      www.autodesk.com"
 90
        0
280
     0
281
     0
  0
CLASS
  1
XRECORD
  2
AcDbXrecord
  3
ObjectDBX Classes
 90
        0
280
     0
281
     0
  0
CLASS
  1
LWPOLYLINE
  2
AcDbPolyline
  3
ObjectDBX Classes
 90
        0
280
     0
281
     1
  0
CLASS
  1
HATCH
  2
AcDbHatch
  3
ObjectDBX Classes
 90
        0
280
     0
281
     1
  0
ENDSEC
  0
SECTION
  2
TABLES
  0
TABLE
  2
VPORT
  5
8
330
0
100
AcDbSymbolTable
 70
     1
  0
VPORT
  5
94
330
8
100
AcDbSymbolTableRecord
100
AcDbViewportTableRecord
  2
*ACTIVE
 70
     0
 10
0.0
 20
0.0
 11
1.0
 21
1.0
 12
166.5675564499174
 22
102.5770143321922
 13
0.0
 23
0.0
 14
0.5
 24
0.5
 15
0.5
 25
0.5
 16
0.0
 26
0.0
 36
1.0
 17
-27.66959356597977
 27
-19.53870295786214
 37
0.0
 40
129.7963801747138
 41
1.689189189189189
 42
50.0
 43
0.0
 44
0.0
 50
0.0
 51
0.0
 71
    16
 72
  1000
 73
     1
 74
     3
 75
     0
 76
     0
 77
     0
 78
     0
  0
ENDTAB
  0
TABLE
  2
LTYPE
  5
5
330
0
100
AcDbSymbolTable
 70
     1
  0
LTYPE
  5
14
330
5
100
AcDbSymbolTableRecord
100
AcDbLinetypeTableRecord
  2
BYBLOCK
 70
     0
  3

 72
    65
 73
     0
 40
0.0
  0
LTYPE
  5
15
330
5
100
AcDbSymbolTableRecord
100
AcDbLinetypeTableRecord
  2
BYLAYER
 70
     0
  3

 72
    65
 73
     0
 40
0.0
  0
LTYPE
  5
16
330
5
100
AcDbSymbolTableRecord
100
AcDbLinetypeTableRecord
  2
CONTINUOUS
 70
     0
  3
Solid line
 72
    65
 73
     0
 40
0.0
  0
ENDTAB
  0
TABLE
  2
LAYER
  5
2
330
0
100
AcDbSymbolTable
 70
     4
  0
LAYER
  5
10
330
2
100
AcDbSymbolTableRecord
100
AcDbLayerTableRecord
  2
0
 70
     0
 62
     7
  6
CONTINUOUS
  0
LAYER
  5
125
330
2
100
AcDbSymbolTableRecord
100
AcDbLayerTableRecord
  2
DEFPOINTS
 70
     0
 62
     7
  6
CONTINUOUS
  0
LAYER
  5
126
330
2
100
AcDbSymbolTableRecord
100
AcDbLayerTableRecord
  2
OBRYS
 70
     0
 62
     5
  6
CONTINUOUS
  0
LAYER
  5
128
330
2
100
AcDbSymbolTableRecord
100
AcDbLayerTableRecord
  2
KOTY
 70
     0
 62
     1
  6
CONTINUOUS
  0
ENDTAB
  0
TABLE
  2
STYLE
  5
3
330
0
100
AcDbSymbolTable
 70
     1
  0
STYLE
  5
11
330
3
100
AcDbSymbolTableRecord
100
AcDbTextStyleTableRecord
  2
STANDARD
 70
     0
 40
0.0
 41
1.0
 50
0.0
 71
     0
 42
0.2
  3
arial.ttf
  4

1001
ACAD
1000
Arial
1071
        0
  0
ENDTAB
  0
TABLE
  2
VIEW
  5
6
330
0
100
AcDbSymbolTable
 70
     0
  0
ENDTAB
  0
TABLE
  2
UCS
  5
7
330
0
100
AcDbSymbolTable
 70
     0
  0
ENDTAB
  0
TABLE
  2
APPID
  5
9
330
0
100
AcDbSymbolTable
 70
     1
  0
APPID
  5
12
330
9
100
AcDbSymbolTableRecord
100
AcDbRegAppTableRecord
  2
ACAD
 70
     0
  0
ENDTAB
  0
TABLE
  2
DIMSTYLE
  5
A
330
0
100
AcDbSymbolTable
 70
     2
  0
DIMSTYLE
105
27
330
A
100
AcDbSymbolTableRecord
100
AcDbDimStyleTableRecord
  2
STANDARD
 70
     0
  3

  4

  5

  6

  7

 40
1.0
 41
0.18
 42
0.0625
 43
0.38
 44
0.18
 45
0.0
 46
0.0
 47
0.0
 48
0.0
140
0.18
141
0.09
142
0.0
143
25.4
144
1.0
145
0.0
146
1.0
147
0.09
 71
     0
 72
     0
 73
     1
 74
     1
 75
     0
 76
     0
 77
     0
 78
     0
170
     0
171
     2
172
     0
173
     0
174
     0
175
     0
176
     0
177
     0
178
     0
270
     2
271
     4
272
     4
273
     2
274
     2
340
11
275
     0
280
     0
281
     0
282
     0
283
     1
284
     0
285
     0
286
     0
287
     3
288
     0
  0
DIMSTYLE
105
129
102
{ACAD_REACTORS
330
58B
330
58D
330
590
330
5B4
102
}
330
A
100
AcDbSymbolTableRecord
100
AcDbDimStyleTableRecord
  2
ISO-25
 70
     0
  3

  4

  5

  6

  7

 40
1.0
 41
6.0
 42
0.0
 43
3.75
 44
1.25
 45
0.0
 46
0.0
 47
0.0
 48
0.0
140
3.0
141
2.5
142
0.0
143
0.03937007874016
144
1.0
145
0.0
146
1.0
147
0.625
 71
     0
 72
     0
 73
     0
 74
     1
 75
     0
 76
     0
 77
     1
 78
     8
170
     0
171
     3
172
     1
173
     0
174
     0
175
     0
176
     5
177
     5
178
     5
270
     2
271
     4
272
     4
273
     2
274
     2
340
11
275
     0
280
     0
281
     0
282
     0
283
     1
284
     0
285
     0
286
     0
287
     3
288
     0
  0
ENDTAB
  0
TABLE
  2
BLOCK_RECORD
  5
1
330
0
100
AcDbSymbolTable
 70
     5
  0
BLOCK_RECORD
  5
1F
330
1
100
AcDbSymbolTableRecord
100
AcDbBlockTableRecord
  2
*MODEL_SPACE
  0
BLOCK_RECORD
  5
58
330
1
100
AcDbSymbolTableRecord
100
AcDbBlockTableRecord
  2
*PAPER_SPACE
  0
BLOCK_RECORD
  5
5D
330
1
100
AcDbSymbolTableRecord
100
AcDbBlockTableRecord
  2
*PAPER_SPACE0
  0
BLOCK_RECORD
  5
5C7
330
1
100
AcDbSymbolTableRecord
100
AcDbBlockTableRecord
  2
*D1
  0
BLOCK_RECORD
  5
5D3
330
1
100
AcDbSymbolTableRecord
100
AcDbBlockTableRecord
  2
*D2
  0
BLOCK_RECORD
  5
5DF
330
1
100
AcDbSymbolTableRecord
100
AcDbBlockTableRecord
  2
*D3
  0
BLOCK_RECORD
  5
5EB
330
1
100
AcDbSymbolTableRecord
100
AcDbBlockTableRecord
  2
*D4
  0
ENDTAB
  0
ENDSEC
  0
SECTION
  2
BLOCKS
  0
BLOCK
  5
20
330
1F
100
AcDbEntity
  8
0
100
AcDbBlockBegin
  2
*MODEL_SPACE
 70
     0
 10
0.0
 20
0.0
 30
0.0
  3
*MODEL_SPACE
  1

  0
ENDBLK
  5
21
330
1F
100
AcDbEntity
  8
0
100
AcDbBlockEnd
  0
BLOCK
  5
5A
330
58
100
AcDbEntity
 67
     1
  8
0
100
AcDbBlockBegin
  2
*PAPER_SPACE
 70
     0
 10
0.0
 20
0.0
 30
0.0
  3
*PAPER_SPACE
  1

  0
ENDBLK
  5
5B
330
58
100
AcDbEntity
 67
     1
  8
0
100
AcDbBlockEnd
  0
BLOCK
  5
5F
330
5D
100
AcDbEntity
  8
0
100
AcDbBlockBegin
  2
*PAPER_SPACE0
 70
     0
 10
0.0
 20
0.0
 30
0.0
  3
*PAPER_SPACE0
  1
*PAPER_SPACE0
  0
ENDBLK
  5
60
330
5D
100
AcDbEntity
  8
0
100
AcDbBlockEnd
  0
BLOCK
  5
5C8
330
5C7
100
AcDbEntity
  8
0
100
AcDbBlockBegin
  2
*D1
 70
     1
 10
0.0
 20
0.0
 30
0.0
  3
*D1
  1
*D6
  0
LINE
  5
5CA
330
5C7
100
AcDbEntity
  8
KOTY
100
AcDbLine
 10
77.71712831344215
 20
101.963507335768
 30
0.0
 11
77.71712831344215
 21
120.896716810112
 31
0.0
  0
LINE
  5
5CB
330
5C7
100
AcDbEntity
  8
KOTY
100
AcDbLine
 10
167.3176884581426
 20
101.963507335768
 30
0.0
 11
167.3176884581426
 21
120.896716810112
 31
0.0
  0
LINE
  5
5CC
330
5C7
100
AcDbEntity
  8
KOTY
100
AcDbLine
 10
81.71712831344215
 20
119.646716810112
 30
0.0
 11
163.3176884581426
 21
119.646716810112
 31
0.0
  0
SOLID
  5
5CD
330
5C7
100
AcDbEntity
  8
KOTY
100
AcDbTrace
 10
81.71712831344215
 20
120.3133834767787
 30
0.0
 11
81.71712831344215
 21
118.9800501434453
 31
0.0
 12
77.71712831344215
 22
119.646716810112
 32
0.0
 13
77.71712831344215
 23
119.646716810112
 33
0.0
  0
SOLID
  5
5CE
330
5C7
100
AcDbEntity
  8
KOTY
100
AcDbTrace
 10
163.3176884581426
 20
118.9800501434453
 30
0.0
 11
163.3176884581426
 21
120.3133834767787
 31
0.0
 12
167.3176884581426
 22
119.646716810112
 32
0.0
 13
167.3176884581426
 23
119.646716810112
 33
0.0
  0
MTEXT
  5
5CF
330
5C7
100
AcDbEntity
  8
KOTY
100
AcDbMText
 10
122.5174083857924
 20
122.688716810112
 30
0.0
 40
4.0
 41
0.0
 71
     5
 72
     1
  1
\A1;90
  0
POINT
  5
5D0
330
5C7
100
AcDbEntity
  8
DEFPOINTS
 62
     0
100
AcDbPoint
 10
77.71712831344215
 20
101.963507335768
 30
0.0
  0
POINT
  5
5D1
330
5C7
100
AcDbEntity
  8
DEFPOINTS
 62
     0
100
AcDbPoint
 10
167.3176884581426
 20
101.963507335768
 30
0.0
  0
POINT
  5
5D2
330
5C7
100
AcDbEntity
  8
DEFPOINTS
 62
     0
100
AcDbPoint
 10
167.3176884581426
 20
119.646716810112
 30
0.0
  0
ENDBLK
  5
5C9
330
5C7
100
AcDbEntity
  8
0
100
AcDbBlockEnd
  0
BLOCK
  5
5D4
330
5D3
100
AcDbEntity
  8
0
100
AcDbBlockBegin
  2
*D2
 70
     1
 10
0.0
 20
0.0
 30
0.0
  3
*D2
  1
*D7
  0
LINE
  5
5D6
330
5D3
100
AcDbEntity
  8
KOTY
100
AcDbLine
 10
78.51759624943989
 20
102.3138735466169
 30
0.0
 11
59.35119983631799
 21
102.3138735466169
 31
0.0
  0
LINE
  5
5D7
330
5D3
100
AcDbEntity
  8
KOTY
100
AcDbLine
 10
78.51759624943989
 20
54.81375826986402
 30
0.0
 11
59.35119983631799
 21
54.81375826986402
 31
0.0
  0
LINE
  5
5D8
330
5D3
100
AcDbEntity
  8
KOTY
100
AcDbLine
 10
60.60119983631799
 20
98.3138735466169
 30
0.0
 11
60.60119983631799
 21
58.81375826986402
 31
0.0
  0
SOLID
  5
5D9
330
5D3
100
AcDbEntity
  8
KOTY
100
AcDbTrace
 10
61.26786650298465
 20
98.3138735466169
 30
0.0
 11
59.93453316965132
 21
98.3138735466169
 31
0.0
 12
60.60119983631799
 22
102.3138735466169
 32
0.0
 13
60.60119983631799
 23
102.3138735466169
 33
0.0
  0
SOLID
  5
5DA
330
5D3
100
AcDbEntity
  8
KOTY
100
AcDbTrace
 10
59.93453316965132
 20
58.81375826986402
 30
0.0
 11
61.26786650298465
 21
58.81375826986402
 31
0.0
 12
60.60119983631799
 22
54.81375826986402
 32
0.0
 13
60.60119983631799
 23
54.81375826986402
 33
0.0
  0
MTEXT
  5
5DB
330
5D3
100
AcDbEntity
  8
KOTY
100
AcDbMText
 10
57.55919983631799
 20
78.56381590824046
 30
0.0
 40
4.0
 41
0.0
 71
     5
 72
     1
  1
\A1;48
 11
0.0
 21
1.0
 31
0.0
  0
POINT
  5
5DC
330
5D3
100
AcDbEntity
  8
DEFPOINTS
 62
     0
100
AcDbPoint
 10
78.51759624943989
 20
102.3138735466169
 30
0.0
  0
POINT
  5
5DD
330
5D3
100
AcDbEntity
  8
DEFPOINTS
 62
     0
100
AcDbPoint
 10
78.51759624943989
 20
54.81375826986402
 30
0.0
  0
POINT
  5
5DE
330
5D3
100
AcDbEntity
  8
DEFPOINTS
 62
     0
100
AcDbPoint
 10
60.60119983631799
 20
54.81375826986402
 30
0.0
  0
ENDBLK
  5
5D5
330
5D3
100
AcDbEntity
  8
0
100
AcDbBlockEnd
  0
BLOCK
  5
5E0
330
5DF
100
AcDbEntity
  8
0
100
AcDbBlockBegin
  2
*D3
 70
     1
 10
0.0
 20
0.0
 30
0.0
  3
*D3
  1
*D8
  0
LINE
  5
5E2
330
5DF
100
AcDbEntity
  8
KOTY
100
AcDbLine
 10
78.51759624943989
 20
102.3138735466169
 30
0.0
 11
40.63366574398972
 21
102.3138735466169
 31
0.0
  0
LINE
  5
5E3
330
5DF
100
AcDbEntity
  8
KOTY
100
AcDbLine
 10
109.2673710899054
 20
47.91340426768295
 30
0.0
 11
40.63366574398972
 21
47.91340426768296
 31
0.0
  0
LINE
  5
5E4
330
5DF
100
AcDbEntity
  8
KOTY
100
AcDbLine
 10
41.88366574398972
 20
98.3138735466169
 30
0.0
 11
41.88366574398972
 21
51.91340426768296
 31
0.0
  0
SOLID
  5
5E5
330
5DF
100
AcDbEntity
  8
KOTY
100
AcDbTrace
 10
42.55033241065638
 20
98.3138735466169
 30
0.0
 11
41.21699907732305
 21
98.3138735466169
 31
0.0
 12
41.88366574398972
 22
102.3138735466169
 32
0.0
 13
41.88366574398972
 23
102.3138735466169
 33
0.0
  0
SOLID
  5
5E6
330
5DF
100
AcDbEntity
  8
KOTY
100
AcDbTrace
 10
41.21699907732305
 20
51.91340426768296
 30
0.0
 11
42.55033241065638
 21
51.91340426768296
 31
0.0
 12
41.88366574398972
 22
47.91340426768296
 32
0.0
 13
41.88366574398972
 23
47.91340426768296
 33
0.0
  0
MTEXT
  5
5E7
330
5DF
100
AcDbEntity
  8
KOTY
100
AcDbMText
 10
38.84966574398971
 20
75.11363890714993
 30
0.0
 40
4.0
 41
0.0
 71
     5
 72
     1
  1
\A1;54
 11
0.0
 21
1.0
 31
0.0
  0
POINT
  5
5E8
330
5DF
100
AcDbEntity
  8
DEFPOINTS
 62
     0
100
AcDbPoint
 10
78.51759624943989
 20
102.3138735466169
 30
0.0
  0
POINT
  5
5E9
330
5DF
100
AcDbEntity
  8
DEFPOINTS
 62
     0
100
AcDbPoint
 10
109.2673710899054
 20
47.91340426768295
 30
0.0
  0
POINT
  5
5EA
330
5DF
100
AcDbEntity
  8
DEFPOINTS
 62
     0
100
AcDbPoint
 10
41.88366574398972
 20
47.91340426768296
 30
0.0
  0
ENDBLK
  5
5E1
330
5DF
100
AcDbEntity
  8
0
100
AcDbBlockEnd
  0
BLOCK
  5
5EC
330
5EB
100
AcDbEntity
  8
0
100
AcDbBlockBegin
  2
*D4
 70
     1
 10
0.0
 20
0.0
 30
0.0
  3
*D4
  1
*D9
  0
LINE
  5
5EE
330
5EB
100
AcDbEntity
  8
KOTY
100
AcDbLine
 10
198.3913783177444
 20
99.38775085398322
 30
0.0
 11
198.3913783177444
 21
120.896716810112
 31
0.0
  0
LINE
  5
5EF
330
5EB
100
AcDbEntity
  8
KOTY
100
AcDbLine
 10
223.441356610093
 20
99.51336630852131
 30
0.0
 11
223.441356610093
 21
120.896716810112
 31
0.0
  0
LINE
  5
5F0
330
5EB
100
AcDbEntity
  8
KOTY
100
AcDbLine
 10
202.3913783177444
 20
119.646716810112
 30
0.0
 11
219.441356610093
 21
119.646716810112
 31
0.0
  0
SOLID
  5
5F1
330
5EB
100
AcDbEntity
  8
KOTY
100
AcDbTrace
 10
202.3913783177444
 20
120.3133834767787
 30
0.0
 11
202.3913783177444
 21
118.9800501434453
 31
0.0
 12
198.3913783177444
 22
119.646716810112
 32
0.0
 13
198.3913783177444
 23
119.646716810112
 33
0.0
  0
SOLID
  5
5F2
330
5EB
100
AcDbEntity
  8
KOTY
100
AcDbTrace
 10
219.441356610093
 20
118.9800501434453
 30
0.0
 11
219.441356610093
 21
120.3133834767787
 31
0.0
 12
223.441356610093
 22
119.646716810112
 32
0.0
 13
223.441356610093
 23
119.646716810112
 33
0.0
  0
MTEXT
  5
5F3
330
5EB
100
AcDbEntity
  8
KOTY
100
AcDbMText
 10
210.9163674639187
 20
122.688716810112
 30
0.0
 40
4.0
 41
0.0
 71
     5
 72
     1
  1
\A1;25
  0
POINT
  5
5F4
330
5EB
100
AcDbEntity
  8
DEFPOINTS
 62
     0
100
AcDbPoint
 10
198.3913783177444
 20
99.38775085398322
 30
0.0
  0
POINT
  5
5F5
330
5EB
100
AcDbEntity
  8
DEFPOINTS
 62
     0
100
AcDbPoint
 10
223.441356610093
 20
99.51336630852131
 30
0.0
  0
POINT
  5
5F6
330
5EB
100
AcDbEntity
  8
DEFPOINTS
 62
     0
100
AcDbPoint
 10
223.441356610093
 20
119.646716810112
 30
0.0
  0
ENDBLK
  5
5ED
330
5EB
100
AcDbEntity
  8
0
100
AcDbBlockEnd
  0
ENDSEC
  0
SECTION
  2
ENTITIES
  0
LWPOLYLINE
  5
3A1
330
1F
100
AcDbEntity
  8
OBRYS
100
AcDbPolyline
 90
        2
 70
     0
 43
0.0
 10
202.3918231952166
 20
98.95853232498541
 10
202.3911341761196
 20
98.95853232498541
  0
LWPOLYLINE
  5
3A2
330
1F
100
AcDbEntity
  8
OBRYS
100
AcDbPolyline
 90
        2
 70
     0
 43
0.0
 10
201.7913430521376
 20
95.96836169856226
 10
201.7913430521376
 20
95.96836169856226
  0
LWPOLYLINE
  5
3A3
330
1F
100
AcDbEntity
  8
OBRYS
100
AcDbPolyline
 90
        2
 70
     0
 43
0.0
 10
202.3918231952166
 20
68.65874527743824
 10
202.3911341761196
 20
68.65874527743824
  0
LWPOLYLINE
  5
3A4
330
1F
100
AcDbEntity
  8
OBRYS
100
AcDbPolyline
 90
        2
 70
     0
 43
0.0
 10
201.7913430521376
 20
65.66823014146723
 10
201.7913430521376
 20
65.66823014146723
  0
LWPOLYLINE
  5
3A5
330
1F
100
AcDbEntity
  8
OBRYS
100
AcDbPolyline
 90
        2
 70
     0
 43
0.0
 10
221.236495499533
 20
97.76360095592634
 10
221.236495499533
 20
97.76360095592634
  0
LWPOLYLINE
  5
3A6
330
1F
100
AcDbEntity
  8
OBRYS
100
AcDbPolyline
 90
        2
 70
     0
 43
0.0
 10
220.0417363852487
 20
98.95853232498541
 10
220.0417363852487
 20
98.95853232498541
  0
LWPOLYLINE
  5
3A7
330
1F
100
AcDbEntity
  8
OBRYS
100
AcDbPolyline
 90
        2
 70
     0
 43
0.0
 10
219.4416007517181
 20
95.96836169856226
 10
219.4416007517181
 20
95.96836169856226
  0
LWPOLYLINE
  5
3A8
330
1F
100
AcDbEntity
  8
OBRYS
100
AcDbPolyline
 90
        2
 70
     0
 43
0.0
 10
218.2464971278847
 20
66.8635060200753
 10
218.2464971278847
 20
66.8635060200753
  0
LWPOLYLINE
  5
3A9
330
1F
100
AcDbEntity
  8
OBRYS
100
AcDbPolyline
 90
        2
 70
     0
 43
0.0
 10
220.0417363852487
 20
68.65874527743824
 10
220.0417363852487
 20
68.65874527743824
  0
LWPOLYLINE
  5
3AA
330
1F
100
AcDbEntity
  8
OBRYS
100
AcDbPolyline
 90
        2
 70
     0
 43
0.0
 10
219.4416007517181
 20
65.66823014146723
 10
219.4416007517181
 20
65.66823014146723
  0
LWPOLYLINE
  5
3AB
330
1F
100
AcDbEntity
  8
OBRYS
100
AcDbPolyline
 90
        6
 70
     0
 43
0.0
 10
222.7413132074903
 20
69.09765044225935
 10
222.7633618185959
 20
68.67958810512425
 10
222.8288186328156
 20
68.26617664689422
 10
222.9373391406009
 20
67.86155018215129
 10
223.0872007942094
 20
67.47070409935043
 10
223.277370064995
 20
67.0977725130723
  0
LWPOLYLINE
  5
3AC
330
1F
100
AcDbEntity
  8
OBRYS
100
AcDbPolyline
 90
        6
 70
     0
 43
0.0
 10
223.277370064995
 20
97.52933446292934
 10
223.0872007942094
 20
97.15623062187626
 10
222.9373391406009
 20
96.76521228430022
 10
222.8288186328156
 20
96.36110258388032
 10
222.7633618185959
 20
95.94751887087625
 10
222.7413132074903
 20
95.52945653374138
  0
LWPOLYLINE
  5
3AD
330
1F
100
AcDbEntity
  8
OBRYS
100
AcDbPolyline
 90
        2
 70
     0
 43
0.0
 10
222.5769821528438
 20
75.1844451455994
 10
222.8594799826343
 20
75.24972970504439
  0
LWPOLYLINE
  5
3AE
330
1F
100
AcDbEntity
  8
OBRYS
100
AcDbPolyline
 90
        2
 70
     0
 43
0.0
 10
222.7988463020939
 20
74.75311919084527
 10
222.5356410070208
 20
74.88713340522133
  0
LWPOLYLINE
  5
3AF
330
1F
100
AcDbEntity
  8
OBRYS
100
AcDbPolyline
 90
        2
 70
     0
 43
0.0
 10
222.7061732335408
 20
76.22383045349841
 10
222.9738571527446
 20
76.29049305113824
  0
LWPOLYLINE
  5
3B0
330
1F
100
AcDbEntity
  8
OBRYS
100
AcDbPolyline
 90
        2
 70
     0
 43
0.0
 10
222.9221807204658
 20
75.79336577261631
 10
222.6706887500427
 20
75.91583891711741
  0
LWPOLYLINE
  5
3B1
330
1F
100
AcDbEntity
  8
OBRYS
100
AcDbPolyline
 90
        2
 70
     0
 43
0.0
 10
222.813315703132
 20
77.26407703526922
 10
223.0699753167832
 20
77.3328066902003
  0
LWPOLYLINE
  5
3B2
330
1F
100
AcDbEntity
  8
OBRYS
100
AcDbPolyline
 90
        2
 70
     0
 43
0.0
 10
223.0265671136689
 20
76.83516264735624
 10
222.782998862862
 20
76.94867854359529
  0
LWPOLYLINE
  5
3B3
330
1F
100
AcDbEntity
  8
OBRYS
100
AcDbPolyline
 90
        2
 70
     0
 43
0.0
 10
222.898065052069
 20
78.30587391000938
 10
223.1478344747498
 20
78.37753189610237
  0
LWPOLYLINE
  5
3B4
330
1F
100
AcDbEntity
  8
OBRYS
100
AcDbPolyline
 90
        2
 70
     0
 43
0.0
 10
223.1130390103488
 20
77.87868206983842
 10
222.8615470399256
 20
77.99081992788331
  0
LWPOLYLINE
  5
3B5
330
1F
100
AcDbEntity
  8
OBRYS
100
AcDbPolyline
 90
        2
 70
     0
 43
0.0
 10
222.9600767708036
 20
79.34767078474931
 10
223.2074346266445
 20
79.42277386632725
  0
LWPOLYLINE
  5
3B6
330
1F
100
AcDbEntity
  8
OBRYS
100
AcDbPolyline
 90
        2
 70
     0
 43
0.0
 10
223.1812519009566
 20
78.9235795305143
 10
222.9211471918202
 20
79.0339948408174
  0
LWPOLYLINE
  5
3B7
330
1F
100
AcDbEntity
  8
OBRYS
100
AcDbPolyline
 90
        2
 70
     0
 43
0.0
 10
223.0007288975296
 20
80.38860638561721
 10
223.2487757724676
 20
80.46939387474629
  0
LWPOLYLINE
  5
3B8
330
1F
100
AcDbEntity
  8
OBRYS
100
AcDbPolyline
 90
        2
 70
     0
 43
0.0
 10
223.2312057854929
 20
79.96985502938526
 10
222.9903936110738
 20
80.06683446729437
  0
LWPOLYLINE
  5
3B9
330
1F
100
AcDbEntity
  8
OBRYS
100
AcDbPolyline
 90
        2
 70
     0
 43
0.0
 10
223.0182988845043
 20
81.42936973171129
 10
223.2718579122187
 20
81.51653064748837
  0
LWPOLYLINE
  5
3BA
330
1F
100
AcDbEntity
  8
OBRYS
100
AcDbPolyline
 90
        2
 70
     0
 43
0.0
 10
223.2632451735056
 20
81.01664729257834
 10
223.0151982985676
 20
81.11155967319621
  0
LWPOLYLINE
  5
3BB
330
1F
100
AcDbEntity
  8
OBRYS
100
AcDbPolyline
 90
        2
 70
     0
 43
0.0
 10
222.7988463020939
 20
89.87347102083243
 10
222.7413132074903
 20
90.31340971429938
  0
LWPOLYLINE
  5
3BC
330
1F
100
AcDbEntity
  8
OBRYS
100
AcDbPolyline
 90
        2
 70
     0
 43
0.0
 10
222.9221807204658
 20
88.83374120338442
 10
222.8594799826343
 20
89.37737727095634
  0
LWPOLYLINE
  5
3BD
330
1F
100
AcDbEntity
  8
OBRYS
100
AcDbPolyline
 90
        2
 70
     0
 43
0.0
 10
223.0265671136689
 20
87.79211658341922
 10
222.9738571527446
 20
88.33644167008822
  0
LWPOLYLINE
  5
3BE
330
1F
100
AcDbEntity
  8
OBRYS
100
AcDbPolyline
 90
        2
 70
     0
 43
0.0
 10
223.1130390103488
 20
86.74825265138827
 10
223.0699753167832
 20
87.29361126670335
  0
LWPOLYLINE
  5
3BF
330
1F
100
AcDbEntity
  8
OBRYS
100
AcDbPolyline
 90
        2
 70
     0
 43
0.0
 10
223.1812519009566
 20
85.70352744548643
 10
223.1478344747498
 20
86.2497473346724
  0
LWPOLYLINE
  5
3C0
330
1F
100
AcDbEntity
  8
OBRYS
100
AcDbPolyline
 90
        2
 70
     0
 43
0.0
 10
223.2312057854929
 20
84.65725194661638
 10
223.2074346266445
 20
85.2036440905764
  0
LWPOLYLINE
  5
3C1
330
1F
100
AcDbEntity
  8
OBRYS
100
AcDbPolyline
 90
        2
 70
     0
 43
0.0
 10
223.2632451735056
 20
83.61063193819734
 10
223.2487757724676
 20
84.15771310125422
  0
LWPOLYLINE
  5
3C2
330
1F
100
AcDbEntity
  8
OBRYS
100
AcDbPolyline
 90
        2
 70
     0
 43
0.0
 10
223.2770255554467
 20
82.56349516545527
 10
223.2718579122187
 20
83.11074858328732
  0
LWPOLYLINE
  5
3C3
330
1F
100
AcDbEntity
  8
OBRYS
100
AcDbPolyline
 90
        2
 70
     0
 43
0.0
 10
222.7413132074903
 20
74.3135250069273
 10
222.7988463020939
 20
74.75346370039426
  0
LWPOLYLINE
  5
3C4
330
1F
100
AcDbEntity
  8
OBRYS
100
AcDbPolyline
 90
        2
 70
     0
 43
0.0
 10
222.8594799826343
 20
75.24972970504439
 10
222.9221807204658
 20
75.79336577261631
  0
LWPOLYLINE
  5
3C5
330
1F
100
AcDbEntity
  8
OBRYS
100
AcDbPolyline
 90
        2
 70
     0
 43
0.0
 10
222.9738571527446
 20
76.29049305113824
 10
223.0265671136689
 20
76.83516264735624
  0
LWPOLYLINE
  5
3C6
330
1F
100
AcDbEntity
  8
OBRYS
100
AcDbPolyline
 90
        2
 70
     0
 43
0.0
 10
223.0699753167832
 20
77.3328066902003
 10
223.1130390103488
 20
77.87868206983842
  0
LWPOLYLINE
  5
3C7
330
1F
100
AcDbEntity
  8
OBRYS
100
AcDbPolyline
 90
        2
 70
     0
 43
0.0
 10
223.1478344747498
 20
78.37753189610237
 10
223.1812519009566
 20
78.9235795305143
  0
LWPOLYLINE
  5
3C8
330
1F
100
AcDbEntity
  8
OBRYS
100
AcDbPolyline
 90
        2
 70
     0
 43
0.0
 10
223.2074346266445
 20
79.42277386632725
 10
223.2312057854929
 20
79.96985502938526
  0
LWPOLYLINE
  5
3C9
330
1F
100
AcDbEntity
  8
OBRYS
100
AcDbPolyline
 90
        2
 70
     0
 43
0.0
 10
223.2718579122187
 20
81.51653064748837
 10
223.2770255554467
 20
82.06361181054524
  0
LWPOLYLINE
  5
3CA
330
1F
100
AcDbEntity
  8
OBRYS
100
AcDbPolyline
 90
        2
 70
     0
 43
0.0
 10
223.2487757724676
 20
80.46939387474629
 10
223.2632451735056
 20
81.01664729257834
  0
LWPOLYLINE
  5
3CB
330
1F
100
AcDbEntity
  8
OBRYS
100
AcDbPolyline
 90
        2
 70
     0
 43
0.0
 10
223.0179543749557
 20
82.46927180393425
 10
223.2770255554467
 20
82.56349516545527
  0
LWPOLYLINE
  5
3CC
330
1F
100
AcDbEntity
  8
OBRYS
100
AcDbPolyline
 90
        2
 70
     0
 43
0.0
 10
223.2770255554467
 20
82.06361181054524
 10
223.0179543749557
 20
82.1574906625184
  0
LWPOLYLINE
  5
3CD
330
1F
100
AcDbEntity
  8
OBRYS
100
AcDbPolyline
 90
        2
 70
     0
 43
0.0
 10
214.1165166601675
 20
63.81339073220931
 10
213.3162209789439
 20
63.81339073220931
  0
LWPOLYLINE
  5
3CE
330
1F
100
AcDbEntity
  8
OBRYS
100
AcDbPolyline
 90
        2
 70
     0
 43
0.0
 10
208.5168584584422
 20
63.81339073220931
 10
207.71621826767
 20
63.81339073220931
  0
LWPOLYLINE
  5
3CF
330
1F
100
AcDbEntity
  8
OBRYS
100
AcDbPolyline
 90
        2
 70
     0
 43
0.0
 10
217.2412182652888
 20
62.31374066747924
 10
217.2412182652888
 20
62.61363622947022
  0
LWPOLYLINE
  5
3D0
330
1F
100
AcDbEntity
  8
OBRYS
100
AcDbPolyline
 90
        2
 70
     0
 43
0.0
 10
220.4413674615375
 20
62.31374066747924
 10
220.4162182644953
 20
62.31374066747924
  0
LWPOLYLINE
  5
3D1
330
1F
100
AcDbEntity
  8
OBRYS
100
AcDbPolyline
 90
        2
 70
     0
 43
0.0
 10
217.3163213468672
 20
62.31374066747924
 10
217.2412182652888
 20
62.31374066747924
  0
LWPOLYLINE
  5
3D2
330
1F
100
AcDbEntity
  8
OBRYS
100
AcDbPolyline
 90
        4
 70
     0
 43
0.0
 10
223.441356610093
 20
66.81337988076427
 10
223.441356610093
 20
65.11374066747919
 42
-0.414213562373095
 10
220.641356610093
 20
62.31374066747924
 10
217.3163213468672
 20
62.31374066747924
  0
LWPOLYLINE
  5
3D3
330
1F
100
AcDbEntity
  8
OBRYS
100
AcDbPolyline
 90
        2
 70
     0
 43
0.0
 10
223.441356610093
 20
66.81337988076427
 10
223.277370064995
 20
67.0977725130723
  0
LWPOLYLINE
  5
3D4
330
1F
100
AcDbEntity
  8
OBRYS
100
AcDbPolyline
 90
        2
 70
     0
 43
0.0
 10
222.7413132074903
 20
69.09765044225935
 10
222.7413132074903
 20
74.3135250069273
  0
LWPOLYLINE
  5
3D5
330
1F
100
AcDbEntity
  8
OBRYS
100
AcDbPolyline
 90
        2
 70
     0
 43
0.0
 10
222.7413132074903
 20
90.31340971429938
 10
222.7413132074903
 20
95.52945653374138
  0
LWPOLYLINE
  5
3D6
330
1F
100
AcDbEntity
  8
OBRYS
100
AcDbPolyline
 90
        5
 70
     0
 43
0.0
 10
217.2412182652888
 20
102.3133663085213
 10
220.641356610093
 20
102.3133663085213
 42
-0.4142135623731427
 10
223.441356610093
 20
99.51336630852131
 10
223.441356610093
 20
97.81338258568837
 10
223.277370064995
 20
97.52933446292934
  0
LWPOLYLINE
  5
3D7
330
1F
100
AcDbEntity
  8
OBRYS
100
AcDbPolyline
 90
        2
 70
     0
 43
0.0
 10
217.2412182652888
 20
102.0131262369824
 10
217.2412182652888
 20
102.3133663085213
  0
LWPOLYLINE
  5
3D8
330
1F
100
AcDbEntity
  8
OBRYS
100
AcDbPolyline
 90
        2
 70
     0
 43
0.0
 10
223.2718579122187
 20
83.11074858328732
 10
223.0182988845043
 20
83.19773724428921
  0
LWPOLYLINE
  5
3D9
330
1F
100
AcDbEntity
  8
OBRYS
100
AcDbPolyline
 90
        2
 70
     0
 43
0.0
 10
223.0151982985676
 20
83.51571955757834
 10
223.2632451735056
 20
83.61063193819734
  0
LWPOLYLINE
  5
3DA
330
1F
100
AcDbEntity
  8
OBRYS
100
AcDbPolyline
 90
        2
 70
     0
 43
0.0
 10
223.2487757724676
 20
84.15771310125422
 10
223.0007288975296
 20
84.2385005903842
  0
LWPOLYLINE
  5
3DB
330
1F
100
AcDbEntity
  8
OBRYS
100
AcDbPolyline
 90
        2
 70
     0
 43
0.0
 10
222.9903936110738
 20
84.55992799915737
 10
223.2312057854929
 20
84.65725194661638
  0
LWPOLYLINE
  5
3DC
330
1F
100
AcDbEntity
  8
OBRYS
100
AcDbPolyline
 90
        2
 70
     0
 43
0.0
 10
223.2074346266445
 20
85.2036440905764
 10
222.9600767708036
 20
85.27960844602637
  0
LWPOLYLINE
  5
3DD
330
1F
100
AcDbEntity
  8
OBRYS
100
AcDbPolyline
 90
        2
 70
     0
 43
0.0
 10
222.9435403124744
 20
85.60241389299438
 10
223.1812519009566
 20
85.70352744548643
  0
LWPOLYLINE
  5
3DE
330
1F
100
AcDbEntity
  8
OBRYS
100
AcDbPolyline
 90
        2
 70
     0
 43
0.0
 10
223.1478344747498
 20
86.2497473346724
 10
222.898065052069
 20
86.32088855644326
  0
LWPOLYLINE
  5
3DF
330
1F
100
AcDbEntity
  8
OBRYS
100
AcDbPolyline
 90
        2
 70
     0
 43
0.0
 10
222.874293893221
 20
86.64197145566834
 10
223.1130390103488
 20
86.74825265138827
  0
LWPOLYLINE
  5
3E0
330
1F
100
AcDbEntity
  8
OBRYS
100
AcDbPolyline
 90
        2
 70
     0
 43
0.0
 10
223.0699753167832
 20
87.29361126670335
 10
222.813315703132
 20
87.36234092163443
  0
LWPOLYLINE
  5
3E1
330
1F
100
AcDbEntity
  8
OBRYS
100
AcDbPolyline
 90
        2
 70
     0
 43
0.0
 10
222.782998862862
 20
87.67842843240635
 10
223.0265671136689
 20
87.79211658341922
  0
LWPOLYLINE
  5
3E2
330
1F
100
AcDbEntity
  8
OBRYS
100
AcDbPolyline
 90
        2
 70
     0
 43
0.0
 10
222.9738571527446
 20
88.33644167008822
 10
222.7061732335408
 20
88.40344877727728
  0
LWPOLYLINE
  5
3E3
330
1F
100
AcDbEntity
  8
OBRYS
100
AcDbPolyline
 90
        2
 70
     0
 43
0.0
 10
222.6706887500427
 20
88.71144031365736
 10
222.9221807204658
 20
88.83374120338442
  0
LWPOLYLINE
  5
3E4
330
1F
100
AcDbEntity
  8
OBRYS
100
AcDbPolyline
 90
        2
 70
     0
 43
0.0
 10
222.8598244921829
 20
89.37737727095634
 10
222.5769821528438
 20
89.44266183040224
  0
LWPOLYLINE
  5
3E5
330
1F
100
AcDbEntity
  8
OBRYS
100
AcDbPolyline
 90
        2
 70
     0
 43
0.0
 10
222.5356410070208
 20
89.73980131600536
 10
222.7988463020939
 20
89.87347102083243
  0
LWPOLYLINE
  5
3E6
330
1F
100
AcDbEntity
  8
OBRYS
100
AcDbPolyline
 90
        6
 70
     0
 43
0.0
 10
199.0915939751214
 20
95.52945653374138
 10
199.0697176187901
 20
95.94751887087625
 10
199.0040885497962
 20
96.36110258388032
 10
198.8957402967849
 20
96.76521228430022
 10
198.7455341336281
 20
97.15623062187626
 10
198.5557093723908
 20
97.52933446292934
  0
LWPOLYLINE
  5
3E7
330
1F
100
AcDbEntity
  8
OBRYS
100
AcDbPolyline
 90
        6
 70
     0
 43
0.0
 10
198.5557093723908
 20
67.0977725130723
 10
198.7455341336281
 20
67.47070409935043
 10
198.8957402967849
 20
67.86155018215129
 10
199.0040885497962
 20
68.26617664689422
 10
199.0697176187901
 20
68.67958810512425
 10
199.0915939751214
 20
69.09765044225935
  0
LWPOLYLINE
  5
3E8
330
1F
100
AcDbEntity
  8
OBRYS
100
AcDbPolyline
 90
        2
 70
     0
 43
0.0
 10
199.2559250297677
 20
89.44266183040224
 10
198.9730826904288
 20
89.37737727095634
  0
LWPOLYLINE
  5
3E9
330
1F
100
AcDbEntity
  8
OBRYS
100
AcDbPolyline
 90
        2
 70
     0
 43
0.0
 10
199.0337163709692
 20
89.87347102083243
 10
199.2969216660422
 20
89.73980131600536
  0
LWPOLYLINE
  5
3EA
330
1F
100
AcDbEntity
  8
OBRYS
100
AcDbPolyline
 90
        2
 70
     0
 43
0.0
 10
199.1269062038452
 20
88.40344877727728
 10
198.8587055203185
 20
88.33644167008822
  0
LWPOLYLINE
  5
3EB
330
1F
100
AcDbEntity
  8
OBRYS
100
AcDbPolyline
 90
        2
 70
     0
 43
0.0
 10
198.9112432264685
 20
88.83374120338442
 10
199.1625629421176
 20
88.71144031365736
  0
LWPOLYLINE
  5
3EC
330
1F
100
AcDbEntity
  8
OBRYS
100
AcDbPolyline
 90
        2
 70
     0
 43
0.0
 10
199.0195914794797
 20
87.36234092163443
 10
198.7627596110542
 20
87.29361126670335
  0
LWPOLYLINE
  5
3ED
330
1F
100
AcDbEntity
  8
OBRYS
100
AcDbPolyline
 90
        2
 70
     0
 43
0.0
 10
198.8061678141686
 20
87.79211658341922
 10
199.0495638102014
 20
87.67842843240635
  0
LWPOLYLINE
  5
3EE
330
1F
100
AcDbEntity
  8
OBRYS
100
AcDbPolyline
 90
        2
 70
     0
 43
0.0
 10
198.9350143853168
 20
86.32088855644326
 10
198.6852449626363
 20
86.2497473346724
  0
LWPOLYLINE
  5
3EF
330
1F
100
AcDbEntity
  8
OBRYS
100
AcDbPolyline
 90
        2
 70
     0
 43
0.0
 10
198.7196959174887
 20
86.74825265138827
 10
198.9586132893907
 20
86.64197145566834
  0
LWPOLYLINE
  5
3F0
330
1F
100
AcDbEntity
  8
OBRYS
100
AcDbPolyline
 90
        2
 70
     0
 43
0.0
 10
198.8724859022596
 20
85.27960844602637
 10
198.6253003011931
 20
85.2036440905764
  0
LWPOLYLINE
  5
3F1
330
1F
100
AcDbEntity
  8
OBRYS
100
AcDbPolyline
 90
        2
 70
     0
 43
0.0
 10
198.6516552816551
 20
85.70352744548643
 10
198.8893668701373
 20
85.60241389299438
  0
LWPOLYLINE
  5
3F2
330
1F
100
AcDbEntity
  8
OBRYS
100
AcDbPolyline
 90
        2
 70
     0
 43
0.0
 10
198.8323505398564
 20
84.2385005903842
 10
198.5839591553697
 20
84.15771310125422
  0
LWPOLYLINE
  5
3F3
330
1F
100
AcDbEntity
  8
OBRYS
100
AcDbPolyline
 90
        2
 70
     0
 43
0.0
 10
198.6015291423446
 20
84.65725194661638
 10
198.8425135715379
 20
84.55992799915737
  0
LWPOLYLINE
  5
3F4
330
1F
100
AcDbEntity
  8
OBRYS
100
AcDbPolyline
 90
        2
 70
     0
 43
0.0
 10
198.8146082981074
 20
83.19773724428921
 10
198.5610492703928
 20
83.11074858328732
  0
LWPOLYLINE
  5
3F5
330
1F
100
AcDbEntity
  8
OBRYS
100
AcDbPolyline
 90
        2
 70
     0
 43
0.0
 10
198.5698342638805
 20
83.61063193819734
 10
198.8175366292698
 20
83.51571955757834
  0
LWPOLYLINE
  5
3F6
330
1F
100
AcDbEntity
  8
OBRYS
100
AcDbPolyline
 90
        2
 70
     0
 43
0.0
 10
199.0337163709692
 20
74.75311919084527
 10
199.0915939751214
 20
74.3135250069273
  0
LWPOLYLINE
  5
3F7
330
1F
100
AcDbEntity
  8
OBRYS
100
AcDbPolyline
 90
        2
 70
     0
 43
0.0
 10
198.9112432264685
 20
75.79336577261631
 10
198.9730826904288
 20
75.24972970504439
  0
LWPOLYLINE
  5
3F8
330
1F
100
AcDbEntity
  8
OBRYS
100
AcDbPolyline
 90
        2
 70
     0
 43
0.0
 10
198.8061678141686
 20
76.83516264735624
 10
198.8587055203185
 20
76.29049305113824
  0
LWPOLYLINE
  5
3F9
330
1F
100
AcDbEntity
  8
OBRYS
100
AcDbPolyline
 90
        2
 70
     0
 43
0.0
 10
198.7196959174887
 20
77.87868206983842
 10
198.7627596110542
 20
77.3328066902003
  0
LWPOLYLINE
  5
3FA
330
1F
100
AcDbEntity
  8
OBRYS
100
AcDbPolyline
 90
        2
 70
     0
 43
0.0
 10
198.6516552816551
 20
78.9235795305143
 10
198.6852449626363
 20
78.37753189610237
  0
LWPOLYLINE
  5
3FB
330
1F
100
AcDbEntity
  8
OBRYS
100
AcDbPolyline
 90
        2
 70
     0
 43
0.0
 10
198.6015291423446
 20
79.96985502938526
 10
198.6253003011931
 20
79.42277386632725
  0
LWPOLYLINE
  5
3FC
330
1F
100
AcDbEntity
  8
OBRYS
100
AcDbPolyline
 90
        2
 70
     0
 43
0.0
 10
198.5698342638805
 20
81.01664729257834
 10
198.5839591553697
 20
80.46939387474629
  0
LWPOLYLINE
  5
3FD
330
1F
100
AcDbEntity
  8
OBRYS
100
AcDbPolyline
 90
        2
 70
     0
 43
0.0
 10
198.5560538819393
 20
82.06361181054524
 10
198.5610492703928
 20
81.51653064748837
  0
LWPOLYLINE
  5
3FE
330
1F
100
AcDbEntity
  8
OBRYS
100
AcDbPolyline
 90
        2
 70
     0
 43
0.0
 10
199.0915939751214
 20
90.31340971429938
 10
199.0337163709692
 20
89.87347102083243
  0
LWPOLYLINE
  5
3FF
330
1F
100
AcDbEntity
  8
OBRYS
100
AcDbPolyline
 90
        2
 70
     0
 43
0.0
 10
198.9730826904288
 20
89.37737727095634
 10
198.9112432264685
 20
88.83374120338442
  0
LWPOLYLINE
  5
400
330
1F
100
AcDbEntity
  8
OBRYS
100
AcDbPolyline
 90
        2
 70
     0
 43
0.0
 10
198.8587055203185
 20
88.33644167008822
 10
198.8061678141686
 20
87.79211658341922
  0
LWPOLYLINE
  5
401
330
1F
100
AcDbEntity
  8
OBRYS
100
AcDbPolyline
 90
        2
 70
     0
 43
0.0
 10
198.7627596110542
 20
87.29361126670335
 10
198.7196959174887
 20
86.74825265138827
  0
LWPOLYLINE
  5
402
330
1F
100
AcDbEntity
  8
OBRYS
100
AcDbPolyline
 90
        2
 70
     0
 43
0.0
 10
198.6852449626363
 20
86.2497473346724
 10
198.6516552816551
 20
85.70352744548643
  0
LWPOLYLINE
  5
403
330
1F
100
AcDbEntity
  8
OBRYS
100
AcDbPolyline
 90
        2
 70
     0
 43
0.0
 10
198.6253003011931
 20
85.2036440905764
 10
198.6015291423446
 20
84.65725194661638
  0
LWPOLYLINE
  5
404
330
1F
100
AcDbEntity
  8
OBRYS
100
AcDbPolyline
 90
        2
 70
     0
 43
0.0
 10
198.5610492703928
 20
83.11074858328732
 10
198.5560538819393
 20
82.56349516545527
  0
LWPOLYLINE
  5
405
330
1F
100
AcDbEntity
  8
OBRYS
100
AcDbPolyline
 90
        2
 70
     0
 43
0.0
 10
198.5839591553697
 20
84.15771310125422
 10
198.5698342638805
 20
83.61063193819734
  0
LWPOLYLINE
  5
406
330
1F
100
AcDbEntity
  8
OBRYS
100
AcDbPolyline
 90
        2
 70
     0
 43
0.0
 10
198.8149528076557
 20
82.1574906625184
 10
198.5560538819393
 20
82.06361181054524
  0
LWPOLYLINE
  5
407
330
1F
100
AcDbEntity
  8
OBRYS
100
AcDbPolyline
 90
        2
 70
     0
 43
0.0
 10
198.5560538819393
 20
82.56349516545527
 10
198.8149528076557
 20
82.46927180393425
  0
LWPOLYLINE
  5
408
330
1F
100
AcDbEntity
  8
OBRYS
100
AcDbPolyline
 90
        2
 70
     0
 43
0.0
 10
204.5918611720972
 20
102.3133663085213
 10
204.5918611720972
 20
102.0131262369824
  0
LWPOLYLINE
  5
409
330
1F
100
AcDbEntity
  8
OBRYS
100
AcDbPolyline
 90
        4
 70
     0
 43
0.0
 10
198.3913783177444
 20
97.81338258568837
 10
198.3913783177444
 20
99.51336630852131
 42
-0.4142135623731188
 10
201.1913783177444
 20
102.3133663085213
 10
204.5918611720972
 20
102.3133663085213
  0
LWPOLYLINE
  5
40A
330
1F
100
AcDbEntity
  8
OBRYS
100
AcDbPolyline
 90
        2
 70
     0
 43
0.0
 10
198.3913783177444
 20
97.81338258568837
 10
198.5557093723908
 20
97.52933446292934
  0
LWPOLYLINE
  5
40B
330
1F
100
AcDbEntity
  8
OBRYS
100
AcDbPolyline
 90
        2
 70
     0
 43
0.0
 10
199.0915939751214
 20
95.52945653374138
 10
199.0915939751214
 20
90.31340971429938
  0
LWPOLYLINE
  5
40C
330
1F
100
AcDbEntity
  8
OBRYS
100
AcDbPolyline
 90
        2
 70
     0
 43
0.0
 10
199.0915939751214
 20
74.3135250069273
 10
199.0915939751214
 20
69.09765044225935
  0
LWPOLYLINE
  5
40D
330
1F
100
AcDbEntity
  8
OBRYS
100
AcDbPolyline
 90
        2
 70
     0
 43
0.0
 10
204.5918611720972
 20
62.31374066747924
 10
204.5160690714215
 20
62.31374066747924
  0
LWPOLYLINE
  5
40E
330
1F
100
AcDbEntity
  8
OBRYS
100
AcDbPolyline
 90
        2
 70
     0
 43
0.0
 10
201.4165166633424
 20
62.31374066747924
 10
201.3917119758486
 20
62.31374066747924
  0
LWPOLYLINE
  5
40F
330
1F
100
AcDbEntity
  8
OBRYS
100
AcDbPolyline
 90
        2
 70
     0
 43
0.0
 10
204.5918611720972
 20
62.61363622947022
 10
204.5918611720972
 20
62.31374066747924
  0
LWPOLYLINE
  5
410
330
1F
100
AcDbEntity
  8
OBRYS
100
AcDbPolyline
 90
        2
 70
     0
 43
0.0
 10
198.5610492703928
 20
81.51653064748837
 10
198.8146082981074
 20
81.42936973171129
  0
LWPOLYLINE
  5
411
330
1F
100
AcDbEntity
  8
OBRYS
100
AcDbPolyline
 90
        2
 70
     0
 43
0.0
 10
198.8175366292698
 20
81.11155967319621
 10
198.5698342638805
 20
81.01664729257834
  0
LWPOLYLINE
  5
412
330
1F
100
AcDbEntity
  8
OBRYS
100
AcDbPolyline
 90
        2
 70
     0
 43
0.0
 10
198.5839591553697
 20
80.46939387474629
 10
198.8323505398564
 20
80.38860638561721
  0
LWPOLYLINE
  5
413
330
1F
100
AcDbEntity
  8
OBRYS
100
AcDbPolyline
 90
        2
 70
     0
 43
0.0
 10
198.8425135715379
 20
80.06683446729437
 10
198.6015291423446
 20
79.96985502938526
  0
LWPOLYLINE
  5
414
330
1F
100
AcDbEntity
  8
OBRYS
100
AcDbPolyline
 90
        2
 70
     0
 43
0.0
 10
198.6253003011931
 20
79.42277386632725
 10
198.8724859022596
 20
79.34767078474931
  0
LWPOLYLINE
  5
415
330
1F
100
AcDbEntity
  8
OBRYS
100
AcDbPolyline
 90
        2
 70
     0
 43
0.0
 10
198.9115877360171
 20
79.0339948408174
 10
198.6516552816551
 20
78.9235795305143
  0
LWPOLYLINE
  5
416
330
1F
100
AcDbEntity
  8
OBRYS
100
AcDbPolyline
 90
        2
 70
     0
 43
0.0
 10
198.6852449626363
 20
78.37753189610237
 10
198.9350143853168
 20
78.30587391000938
  0
LWPOLYLINE
  5
417
330
1F
100
AcDbEntity
  8
OBRYS
100
AcDbPolyline
 90
        2
 70
     0
 43
0.0
 10
198.9717046522348
 20
77.99081992788331
 10
198.7196959174887
 20
77.87868206983842
  0
LWPOLYLINE
  5
418
330
1F
100
AcDbEntity
  8
OBRYS
100
AcDbPolyline
 90
        2
 70
     0
 43
0.0
 10
198.7627596110542
 20
77.3328066902003
 10
199.0195914794797
 20
77.26407703526922
  0
LWPOLYLINE
  5
419
330
1F
100
AcDbEntity
  8
OBRYS
100
AcDbPolyline
 90
        2
 70
     0
 43
0.0
 10
199.0495638102014
 20
76.94867854359529
 10
198.8061678141686
 20
76.83516264735624
  0
LWPOLYLINE
  5
41A
330
1F
100
AcDbEntity
  8
OBRYS
100
AcDbPolyline
 90
        2
 70
     0
 43
0.0
 10
198.8587055203185
 20
76.29049305113824
 10
199.1269062038452
 20
76.22383045349841
  0
LWPOLYLINE
  5
41B
330
1F
100
AcDbEntity
  8
OBRYS
100
AcDbPolyline
 90
        2
 70
     0
 43
0.0
 10
199.1625629421176
 20
75.91583891711741
 10
198.9112432264685
 20
75.79336577261631
  0
LWPOLYLINE
  5
41C
330
1F
100
AcDbEntity
  8
OBRYS
100
AcDbPolyline
 90
        2
 70
     0
 43
0.0
 10
198.9730826904288
 20
75.24972970504439
 10
199.2559250297677
 20
75.1844451455994
  0
LWPOLYLINE
  5
41D
330
1F
100
AcDbEntity
  8
OBRYS
100
AcDbPolyline
 90
        2
 70
     0
 43
0.0
 10
199.3134581243717
 20
74.89557388916035
 10
199.0337163709692
 20
74.75311919084527
  0
LWPOLYLINE
  5
41E
330
1F
100
AcDbEntity
  8
OBRYS
100
AcDbPolyline
 90
        2
 70
     0
 43
0.0
 10
220.4162182644953
 20
51.81326188321225
 10
201.4165166633424
 20
51.81326188321225
  0
LWPOLYLINE
  5
41F
330
1F
100
AcDbEntity
  8
OBRYS
100
AcDbPolyline
 90
        2
 70
     0
 43
0.0
 10
220.4162182644953
 20
51.01348296631124
 10
219.9163349095853
 20
51.01348296631124
  0
LWPOLYLINE
  5
420
330
1F
100
AcDbEntity
  8
OBRYS
100
AcDbPolyline
 90
        2
 70
     0
 43
0.0
 10
201.9167445278007
 20
51.01348296631124
 10
201.4165166633424
 20
51.01348296631124
  0
LWPOLYLINE
  5
421
330
1F
100
AcDbEntity
  8
OBRYS
100
AcDbPolyline
 90
        2
 70
     0
 43
0.0
 10
207.71621826767
 20
63.61340293929027
 10
208.5168584584422
 20
63.61340293929027
  0
LWPOLYLINE
  5
422
330
1F
100
AcDbEntity
  8
OBRYS
100
AcDbPolyline
 90
        2
 70
     0
 43
0.0
 10
213.3162209789439
 20
63.61340293929027
 10
214.1165166601675
 20
63.61340293929027
  0
LWPOLYLINE
  5
423
330
1F
100
AcDbEntity
  8
OBRYS
100
AcDbPolyline
 90
        5
 70
     0
 43
0.0
 10
198.5557093723908
 20
67.0977725130723
 10
198.3913783177444
 20
66.81337988076427
 10
198.3913783177444
 20
65.11374066747919
 42
0.4142135623730594
 10
201.1913783177444
 20
62.31374066747924
 10
204.5160690714215
 20
62.31374066747924
  0
LWPOLYLINE
  5
424
330
1F
100
AcDbEntity
  8
OBRYS
100
AcDbPolyline
 90
        2
 70
     0
 43
0.0
 10
220.4162182644953
 20
54.81359554131643
 10
201.4165166633424
 20
54.81359554131643
  0
LWPOLYLINE
  5
425
330
1F
100
AcDbEntity
  8
OBRYS
100
AcDbPolyline
 90
        3
 70
     0
 43
0.0
 10
205.1658140799398
 20
102.3133663085213
 10
206.5431632549425
 20
102.1378386935484
 10
207.9260245827219
 20
102.0100256510453
  0
LWPOLYLINE
  5
426
330
1F
100
AcDbEntity
  8
OBRYS
100
AcDbPolyline
 90
        3
 70
     0
 43
0.0
 10
213.9528746246179
 20
102.0136430013043
 10
215.3116202840004
 20
102.1402502603872
 10
216.6655428097036
 20
102.3133663085213
  0
LWPOLYLINE
  5
427
330
1F
100
AcDbEntity
  8
OBRYS
100
AcDbPolyline
 90
        2
 70
     0
 43
0.0
 10
204.6655862154815
 20
102.3133663085213
 10
205.1658140799398
 20
102.3133663085213
  0
LWPOLYLINE
  5
428
330
1F
100
AcDbEntity
  8
OBRYS
100
AcDbPolyline
 90
        2
 70
     0
 43
0.0
 10
204.6655862154815
 20
102.0131262369824
 10
204.6655862154815
 20
102.3133663085213
  0
LWPOLYLINE
  5
429
330
1F
100
AcDbEntity
  8
OBRYS
100
AcDbPolyline
 90
        2
 70
     0
 43
0.0
 10
217.1657706741619
 20
102.3133663085213
 10
217.1657706741619
 20
102.0131262369824
  0
LWPOLYLINE
  5
42A
330
1F
100
AcDbEntity
  8
OBRYS
100
AcDbPolyline
 90
        2
 70
     0
 43
0.0
 10
216.6655428097036
 20
102.3133663085213
 10
217.1657706741619
 20
102.3133663085213
  0
LWPOLYLINE
  5
42B
330
1F
100
AcDbEntity
  8
OBRYS
100
AcDbPolyline
 90
        2
 70
     0
 43
0.0
 10
201.9167445278007
 20
51.81326188321225
 10
201.9167445278007
 20
47.9134137939094
  0
LWPOLYLINE
  5
42D
330
1F
100
AcDbEntity
  8
OBRYS
100
AcDbPolyline
 90
        2
 70
     0
 43
0.0
 10
199.3258604681185
 20
56.91975466622432
 10
199.6729538382574
 20
55.96546321680933
  0
LWPOLYLINE
  5
42E
330
1F
100
AcDbEntity
  8
OBRYS
100
AcDbPolyline
 90
        2
 70
     0
 43
0.0
 10
198.6880010390245
 20
56.8076168081792
 10
199.3258604681185
 20
56.91975466622432
  0
LWPOLYLINE
  5
42F
330
1F
100
AcDbEntity
  8
OBRYS
100
AcDbPolyline
 90
        2
 70
     0
 43
0.0
 10
198.6880010390245
 20
55.79200265912721
 10
198.6880010390245
 20
56.8076168081792
  0
LWPOLYLINE
  5
430
330
1F
100
AcDbEntity
  8
OBRYS
100
AcDbPolyline
 90
        2
 70
     0
 43
0.0
 10
220.7638283989568
 20
57.38329226376425
 10
220.488909779234
 20
55.82645361398033
  0
LWPOLYLINE
  5
431
330
1F
100
AcDbEntity
  8
OBRYS
100
AcDbPolyline
 90
        2
 70
     0
 43
0.0
 10
221.7487811981897
 20
57.20931494175932
 10
220.7638283989568
 20
57.38329226376425
  0
LWPOLYLINE
  5
432
330
1F
100
AcDbEntity
  8
OBRYS
100
AcDbPolyline
 90
        2
 70
     0
 43
0.0
 10
220.4162182644953
 20
55.6412797316483
 10
220.4892542887825
 20
55.82645361398033
  0
LWPOLYLINE
  5
433
330
1F
100
AcDbEntity
  8
OBRYS
100
AcDbPolyline
 90
        2
 70
     0
 43
0.0
 10
201.0689065288807
 20
57.38329226376425
 10
200.0842982391963
 20
57.20931494175932
  0
LWPOLYLINE
  5
434
330
1F
100
AcDbEntity
  8
OBRYS
100
AcDbPolyline
 90
        2
 70
     0
 43
0.0
 10
201.3434806390552
 20
55.82645361398033
 10
201.0689065288807
 20
57.38329226376425
  0
LWPOLYLINE
  5
435
330
1F
100
AcDbEntity
  8
OBRYS
100
AcDbPolyline
 90
        2
 70
     0
 43
0.0
 10
201.3438251486034
 20
55.82645361398033
 10
201.4165166633424
 20
55.6412797316483
  0
LWPOLYLINE
  5
436
330
1F
100
AcDbEntity
  8
OBRYS
100
AcDbPolyline
 90
       12
 70
     0
 43
0.0
 10
219.9163349095853
 20
48.91352501327731
 10
220.1163783121881
 20
48.91352501327731
 42
0.4142135623731616
 10
220.6163783121881
 20
49.41352501327731
 10
220.6163783121881
 20
50.41351958755524
 10
221.6164895315561
 20
50.41351958755524
 10
221.6164895315561
 20
49.41341379390963
 42
-0.4142135623731395
 10
220.1164895315561
 20
47.9134137939094
 10
219.9163349095853
 20
47.9134137939094
 10
201.9167445278007
 20
47.9134137939094
 10
201.3356869669292
 20
47.9134137939094
 42
-0.3639773192778125
 10
199.8584688195981
 20
49.15297849446677
 10
198.6880010390245
 20
55.79200265912721
  0
LWPOLYLINE
  5
437
330
1F
100
AcDbEntity
  8
OBRYS
100
AcDbPolyline
 90
        5
 70
     0
 43
0.0
 10
201.9167445278007
 20
48.91352501327731
 10
201.3363264511409
 20
48.91352501327731
 42
-0.3639525303235146
 10
200.8439280049036
 20
49.32667013348885
 10
199.7597702444856
 20
55.47298681719337
 10
199.6729538382574
 20
55.96546321680933
  0
LWPOLYLINE
  5
438
330
1F
100
AcDbEntity
  8
OBRYS
100
AcDbPolyline
 90
        3
 70
     0
 43
0.0
 10
219.9163349095853
 20
47.9134137939094
 10
219.9163349095853
 20
49.41375287773542
 10
219.9163349095853
 20
51.81326188321225
  0
LWPOLYLINE
  5
439
330
1F
100
AcDbEntity
  8
OBRYS
100
AcDbPolyline
 90
        2
 70
     0
 43
0.0
 10
200.1504440725131
 20
53.25727365585442
 10
200.1504440725131
 20
53.25727365585442
  0
LWPOLYLINE
  5
43A
330
1F
100
AcDbEntity
  8
OBRYS
100
AcDbPolyline
 90
        2
 70
     0
 43
0.0
 10
199.7597702444856
 20
55.47298681719337
 10
198.7751619548012
 20
55.2993540047363
  0
LWPOLYLINE
  5
43B
330
1F
100
AcDbEntity
  8
OBRYS
100
AcDbPolyline
 90
        2
 70
     0
 43
0.0
 10
210.7165519257742
 20
74.56363893915739
 10
210.7165519257742
 20
74.06341107469837
  0
LWPOLYLINE
  5
43C
330
1F
100
AcDbEntity
  8
OBRYS
100
AcDbPolyline
 90
       10
 70
     0
 43
0.0
 10
214.0665627756312
 20
74.06341107469837
 10
218.0162481043799
 20
74.06341107469837
 42
0.4142135623731616
 10
218.5162481043799
 20
74.56341107469837
 10
218.5162481043799
 20
85.06348431401159
 42
0.4142135623731616
 10
218.0162481043799
 20
85.56348431401136
 10
203.8168313330063
 20
85.56348431401136
 42
0.4142135623732948
 10
203.316831333006
 20
85.06348431401136
 10
203.316831333006
 20
74.56341107469837
 42
0.414213562373095
 10
203.816831333006
 20
74.06341107469837
 10
207.7665166617549
 20
74.06341107469837
  0
LWPOLYLINE
  5
43D
330
1F
100
AcDbEntity
  8
OBRYS
100
AcDbPolyline
 90
        2
 70
     0
 43
0.0
 10
207.7665166617549
 20
74.56363893915739
 10
207.7665166617549
 20
76.88373849369839
  0
LWPOLYLINE
  5
43E
330
1F
100
AcDbEntity
  8
OBRYS
100
AcDbPolyline
 90
        2
 70
     0
 43
0.0
 10
207.7665166617549
 20
74.56363893915739
 10
207.7665166617549
 20
74.06341107469837
  0
LWPOLYLINE
  5
43F
330
1F
100
AcDbEntity
  8
OBRYS
100
AcDbPolyline
 90
        2
 70
     0
 43
0.0
 10
214.0665627756312
 20
74.56363893915739
 10
214.0665627756312
 20
76.88373849369839
  0
LWPOLYLINE
  5
440
330
1F
100
AcDbEntity
  8
OBRYS
100
AcDbPolyline
 90
        2
 70
     0
 43
0.0
 10
214.0665627756312
 20
74.06341107469837
 10
214.0665627756312
 20
74.56363893915739
  0
LWPOLYLINE
  5
442
330
1F
100
AcDbEntity
  8
OBRYS
100
AcDbPolyline
 90
        2
 70
     0
 43
0.0
 10
208.8665356501951
 20
75.3635901108322
 10
208.8665356501951
 20
74.06341107469837
  0
LWPOLYLINE
  5
445
330
1F
100
AcDbEntity
  8
OBRYS
100
AcDbPolyline
 90
        3
 70
     0
 43
0.0
 10
212.9665437871909
 20
74.06341107469837
 10
212.9665437871909
 20
74.56363893915739
 10
212.9665437871909
 20
75.3635901108322
  0
LWPOLYLINE
  5
446
330
1F
100
AcDbEntity
  8
OBRYS
100
AcDbPolyline
 90
        2
 70
     0
 43
0.0
 10
215.2664895331438
 20
83.76376643251626
 10
214.6973597589803
 20
83.76376643251626
  0
LWPOLYLINE
  5
447
330
1F
100
AcDbEntity
  8
OBRYS
100
AcDbPolyline
 90
        2
 70
     0
 43
0.0
 10
214.2477747981552
 20
83.76376643251626
 10
213.6814011003802
 20
83.76376643251626
  0
LWPOLYLINE
  5
448
330
1F
100
AcDbEntity
  8
OBRYS
100
AcDbPolyline
 90
        2
 70
     0
 43
0.0
 10
213.2314716300066
 20
83.76376643251626
 10
212.6657869513287
 20
83.76376643251626
  0
LWPOLYLINE
  5
449
330
1F
100
AcDbEntity
  8
OBRYS
100
AcDbPolyline
 90
        2
 70
     0
 43
0.0
 10
212.2155129714065
 20
83.76376643251626
 10
211.6498282927284
 20
83.76376643251626
  0
LWPOLYLINE
  5
44A
330
1F
100
AcDbEntity
  8
OBRYS
100
AcDbPolyline
 90
        2
 70
     0
 43
0.0
 10
211.1992098032577
 20
83.76376643251626
 10
210.6335251245797
 20
83.76376643251626
  0
LWPOLYLINE
  5
44B
330
1F
100
AcDbEntity
  8
OBRYS
100
AcDbPolyline
 90
        2
 70
     0
 43
0.0
 10
210.1832511446576
 20
83.76376643251626
 10
209.6175664659795
 20
83.76376643251626
  0
LWPOLYLINE
  5
44C
330
1F
100
AcDbEntity
  8
OBRYS
100
AcDbPolyline
 90
        2
 70
     0
 43
0.0
 10
209.167636995606
 20
83.76376643251626
 10
208.6012632978309
 20
83.76376643251626
  0
LWPOLYLINE
  5
44D
330
1F
100
AcDbEntity
  8
OBRYS
100
AcDbPolyline
 90
        2
 70
     0
 43
0.0
 10
208.1516783370056
 20
83.76376643251626
 10
207.5856491487791
 20
83.76376643251626
  0
LWPOLYLINE
  5
44E
330
1F
100
AcDbEntity
  8
OBRYS
100
AcDbPolyline
 90
        2
 70
     0
 43
0.0
 10
207.1357196784055
 20
83.76376643251626
 10
206.5665899042424
 20
83.76376643251626
  0
LWPOLYLINE
  5
44F
330
1F
100
AcDbEntity
  8
OBRYS
100
AcDbPolyline
 90
        2
 70
     0
 43
0.0
 10
215.2664895331438
 20
83.86350194681438
 10
215.2664895331438
 20
83.76376643251626
  0
LWPOLYLINE
  5
450
330
1F
100
AcDbEntity
  8
OBRYS
100
AcDbPolyline
 90
        2
 70
     0
 43
0.0
 10
211.6498282927284
 20
84.1883744510734
 10
211.6498282927284
 20
84.1883744510734
  0
LWPOLYLINE
  5
451
330
1F
100
AcDbEntity
  8
OBRYS
100
AcDbPolyline
 90
        2
 70
     0
 43
0.0
 10
210.6335251245797
 20
84.1883744510734
 10
210.6335251245797
 20
84.1883744510734
  0
LWPOLYLINE
  5
452
330
1F
100
AcDbEntity
  8
OBRYS
100
AcDbPolyline
 90
        2
 70
     0
 43
0.0
 10
207.5856491487791
 20
84.1883744510734
 10
207.5856491487791
 20
84.1883744510734
  0
LWPOLYLINE
  5
453
330
1F
100
AcDbEntity
  8
OBRYS
100
AcDbPolyline
 90
        2
 70
     0
 43
0.0
 10
207.7665166617549
 20
74.56363893915739
 10
214.0665627756312
 20
74.56363893915739
  0
LWPOLYLINE
  5
454
330
1F
100
AcDbEntity
  8
OBRYS
100
AcDbPolyline
 90
        2
 70
     0
 43
0.0
 10
207.7665166617549
 20
75.3635901108322
 10
214.0665627756312
 20
75.3635901108322
  0
LWPOLYLINE
  5
455
330
1F
100
AcDbEntity
  8
OBRYS
100
AcDbPolyline
 90
        2
 70
     0
 43
0.0
 10
205.9916034677541
 20
76.88373849369839
 10
207.7665166617549
 20
76.88373849369839
  0
LWPOLYLINE
  5
456
330
1F
100
AcDbEntity
  8
OBRYS
100
AcDbPolyline
 90
        2
 70
     0
 43
0.0
 10
204.9663430513438
 20
77.03342789253236
 10
205.9916034677541
 20
77.03342789253236
  0
LWPOLYLINE
  5
457
330
1F
100
AcDbEntity
  8
OBRYS
100
AcDbPolyline
 90
        2
 70
     0
 43
0.0
 10
215.8418204791805
 20
77.03342789253236
 10
216.8663918764937
 20
77.03342789253236
  0
LWPOLYLINE
  5
458
330
1F
100
AcDbEntity
  8
OBRYS
100
AcDbPolyline
 90
        2
 70
     0
 43
0.0
 10
205.9916034677541
 20
77.03342789253236
 10
205.9916034677541
 20
76.88373849369839
  0
LWPOLYLINE
  5
45C
330
1F
100
AcDbEntity
  8
OBRYS
100
AcDbPolyline
 90
        3
 70
     0
 43
0.0
 10
216.8663918764937
 20
77.03342789253236
 10
216.8663918764937
 20
79.06327815244128
 10
216.8663918764937
 20
83.86350194681438
  0
LWPOLYLINE
  5
45D
330
1F
100
AcDbEntity
  8
OBRYS
100
AcDbPolyline
 90
        4
 70
     0
 43
0.0
 10
216.8663918764937
 20
79.06327815244128
 10
217.2667119718796
 20
79.06327815244128
 10
217.2667119718796
 20
81.86362401762733
 10
216.8663918764937
 20
81.86362401762733
  0
LWPOLYLINE
  5
45E
330
1F
100
AcDbEntity
  8
OBRYS
100
AcDbPolyline
 90
        2
 70
     0
 43
0.0
 10
215.2368617119705
 20
78.13361913574624
 10
216.8663918764937
 20
78.13361913574624
  0
LWPOLYLINE
  5
45F
330
1F
100
AcDbEntity
  8
OBRYS
100
AcDbPolyline
 90
        2
 70
     0
 43
0.0
 10
215.2368617119705
 20
76.88373849369839
 10
215.2368617119705
 20
78.13361913574624
  0
LWPOLYLINE
  5
460
330
1F
100
AcDbEntity
  8
OBRYS
100
AcDbPolyline
 90
        3
 70
     0
 43
0.0
 10
214.0665627756312
 20
76.88373849369839
 10
215.8418204791805
 20
76.88373849369839
 10
215.8418204791805
 20
77.03342789253236
  0
LWPOLYLINE
  5
461
330
1F
100
AcDbEntity
  8
OBRYS
100
AcDbPolyline
 90
        2
 70
     0
 43
0.0
 10
206.5665899042424
 20
83.86350194681438
 10
206.5665899042424
 20
83.76376643251626
  0
LWPOLYLINE
  5
462
330
1F
100
AcDbEntity
  8
OBRYS
100
AcDbPolyline
 90
        2
 70
     0
 43
0.0
 10
216.8663918764937
 20
83.86350194681438
 10
214.8165600627702
 20
83.86350194681438
  0
LWPOLYLINE
  5
463
330
1F
100
AcDbEntity
  8
OBRYS
100
AcDbPolyline
 90
        2
 70
     0
 43
0.0
 10
207.016519374616
 20
83.86350194681438
 10
204.9663430513438
 20
83.86350194681438
  0
LWPOLYLINE
  5
464
330
1F
100
AcDbEntity
  8
OBRYS
100
AcDbPolyline
 90
        4
 70
     0
 43
0.0
 10
214.8165600627702
 20
83.86350194681438
 10
214.8165600627702
 20
84.26313302310325
 10
207.016519374616
 20
84.26313302310325
 10
207.016519374616
 20
83.86350194681438
  0
LWPOLYLINE
  5
465
330
1F
100
AcDbEntity
  8
OBRYS
100
AcDbPolyline
 90
        3
 70
     0
 43
0.0
 10
204.9663430513438
 20
78.13361913574624
 10
206.596562234964
 20
78.13361913574624
 10
206.596562234964
 20
76.88373849369839
  0
LWPOLYLINE
  5
466
330
1F
100
AcDbEntity
  8
OBRYS
100
AcDbPolyline
 90
        2
 70
     0
 43
0.0
 10
207.5856491487791
 20
83.80734689040526
 10
207.5856491487791
 20
84.26072145626438
  0
LWPOLYLINE
  5
467
330
1F
100
AcDbEntity
  8
OBRYS
100
AcDbPolyline
 90
       10
 70
     0
 43
0.0
 10
207.5801369960028
 20
84.26313302310325
 10
207.5815150341969
 20
84.26313302310325
 10
207.582204053294
 20
84.26278851355426
 10
207.582893072391
 20
84.26278851355426
 10
207.5835820914881
 20
84.2624440040064
 10
207.584271110585
 20
84.26209949445831
 10
207.5846156201336
 20
84.26209949445831
 10
207.5853046392306
 20
84.26175498490932
 10
207.5853046392306
 20
84.26106596581224
 10
207.5856491487791
 20
84.26072145626438
  0
LWPOLYLINE
  5
468
330
1F
100
AcDbEntity
  8
OBRYS
100
AcDbPolyline
 90
        2
 70
     0
 43
0.0
 10
208.6012632978309
 20
83.80734689040526
 10
208.6012632978309
 20
84.26072145626438
  0
LWPOLYLINE
  5
469
330
1F
100
AcDbEntity
  8
OBRYS
100
AcDbPolyline
 90
       11
 70
     0
 43
0.0
 10
208.596095654603
 20
84.26313302310325
 10
208.5971291832487
 20
84.26313302310325
 10
208.5978182023456
 20
84.26278851355426
 10
208.5985072214426
 20
84.26278851355426
 10
208.5995407500882
 20
84.2624440040064
 10
208.5998852596367
 20
84.26209949445831
 10
208.6002297691853
 20
84.26209949445831
 10
208.6009187882824
 20
84.26175498490932
 10
208.6012632978309
 20
84.26175498490932
 10
208.6012632978309
 20
84.26106596581224
 10
208.6012632978309
 20
84.26072145626438
  0
LWPOLYLINE
  5
46A
330
1F
100
AcDbEntity
  8
OBRYS
100
AcDbPolyline
 90
        2
 70
     0
 43
0.0
 10
209.6175664659795
 20
83.80734689040526
 10
209.6175664659795
 20
84.26072145626438
  0
LWPOLYLINE
  5
46B
330
1F
100
AcDbEntity
  8
OBRYS
100
AcDbPolyline
 90
       11
 70
     0
 43
0.0
 10
209.6120543132032
 20
84.26313302310325
 10
209.6130878418487
 20
84.26313302310325
 10
209.6137768609458
 20
84.26278851355426
 10
209.6148103895913
 20
84.26278851355426
 10
209.6154994086885
 20
84.2624440040064
 10
209.6158439182368
 20
84.26209949445831
 10
209.6168774468826
 20
84.26209949445831
 10
209.6168774468826
 20
84.26175498490932
 10
209.6175664659795
 20
84.26175498490932
 10
209.6175664659795
 20
84.26106596581224
 10
209.6175664659795
 20
84.26072145626438
  0
LWPOLYLINE
  5
46C
330
1F
100
AcDbEntity
  8
OBRYS
100
AcDbPolyline
 90
        2
 70
     0
 43
0.0
 10
210.6335251245797
 20
83.80734689040526
 10
210.6335251245797
 20
84.26072145626438
  0
LWPOLYLINE
  5
46D
330
1F
100
AcDbEntity
  8
OBRYS
100
AcDbPolyline
 90
       10
 70
     0
 43
0.0
 10
210.6276684622549
 20
84.26313302310325
 10
210.6290465004489
 20
84.26313302310325
 10
210.6300800290944
 20
84.26278851355426
 10
210.6311135577401
 20
84.26278851355426
 10
210.6318025768369
 20
84.2624440040064
 10
210.6324915959342
 20
84.26209949445831
 10
210.6328361054827
 20
84.26209949445831
 10
210.6331806150313
 20
84.26175498490932
 10
210.6335251245797
 20
84.26106596581224
 10
210.6335251245797
 20
84.26072145626438
  0
LWPOLYLINE
  5
46E
330
1F
100
AcDbEntity
  8
OBRYS
100
AcDbPolyline
 90
        2
 70
     0
 43
0.0
 10
211.6498282927284
 20
83.80734689040526
 10
211.6498282927284
 20
84.26072145626438
  0
LWPOLYLINE
  5
46F
330
1F
100
AcDbEntity
  8
OBRYS
100
AcDbPolyline
 90
       10
 70
     0
 43
0.0
 10
211.6439716304035
 20
84.26313302310325
 10
211.6453496685977
 20
84.26313302310325
 10
211.6463831972433
 20
84.26278851355426
 10
211.6470722163403
 20
84.26278851355426
 10
211.6474167258889
 20
84.2624440040064
 10
211.6484502545343
 20
84.26209949445831
 10
211.6487947640827
 20
84.26209949445831
 10
211.6491392736313
 20
84.26175498490932
 10
211.6498282927284
 20
84.26106596581224
 10
211.6498282927284
 20
84.26072145626438
  0
LWPOLYLINE
  5
470
330
1F
100
AcDbEntity
  8
OBRYS
100
AcDbPolyline
 90
        2
 70
     0
 43
0.0
 10
212.6657869513287
 20
83.80734689040526
 10
212.6657869513287
 20
84.26072145626438
  0
LWPOLYLINE
  5
471
330
1F
100
AcDbEntity
  8
OBRYS
100
AcDbPolyline
 90
       11
 70
     0
 43
0.0
 10
212.6602747985523
 20
84.26313302310325
 10
212.6609638176492
 20
84.26313302310325
 10
212.6623418558434
 20
84.26278851355426
 10
212.6626863653919
 20
84.26278851355426
 10
212.6637198940374
 20
84.2624440040064
 10
212.664064403586
 20
84.26209949445831
 10
212.664753422683
 20
84.26209949445831
 10
212.664753422683
 20
84.26175498490932
 10
212.66544244178
 20
84.26175498490932
 10
212.66544244178
 20
84.26106596581224
 10
212.6657869513287
 20
84.26072145626438
  0
LWPOLYLINE
  5
472
330
1F
100
AcDbEntity
  8
OBRYS
100
AcDbPolyline
 90
        2
 70
     0
 43
0.0
 10
213.6814011003802
 20
83.80734689040526
 10
213.6814011003802
 20
84.26072145626438
  0
LWPOLYLINE
  5
473
330
1F
100
AcDbEntity
  8
OBRYS
100
AcDbPolyline
 90
       11
 70
     0
 43
0.0
 10
213.6762334571522
 20
84.26313302310325
 10
213.677266985798
 20
84.26313302310325
 10
213.677956004895
 20
84.26278851355426
 10
213.6789895335404
 20
84.26278851355426
 10
213.6796785526376
 20
84.2624440040064
 10
213.6800230621861
 20
84.26209949445831
 10
213.6803675717346
 20
84.26209949445831
 10
213.6810565908317
 20
84.26175498490932
 10
213.6814011003802
 20
84.26175498490932
 10
213.6814011003802
 20
84.26106596581224
 10
213.6814011003802
 20
84.26072145626438
  0
LWPOLYLINE
  5
474
330
1F
100
AcDbEntity
  8
OBRYS
100
AcDbPolyline
 90
        2
 70
     0
 43
0.0
 10
214.6973597589803
 20
83.80734689040526
 10
214.6973597589803
 20
84.26072145626438
  0
LWPOLYLINE
  5
475
330
1F
100
AcDbEntity
  8
OBRYS
100
AcDbPolyline
 90
       11
 70
     0
 43
0.0
 10
214.6921921157525
 20
84.26313302310325
 10
214.693225644398
 20
84.26313302310325
 10
214.6939146634952
 20
84.26278851355426
 10
214.6949481921407
 20
84.26278851355426
 10
214.6956372112378
 20
84.2624440040064
 10
214.6959817207864
 20
84.26209949445831
 10
214.6966707398833
 20
84.26209949445831
 10
214.697015249432
 20
84.26175498490932
 10
214.6973597589803
 20
84.26175498490932
 10
214.6973597589803
 20
84.26106596581224
 10
214.6973597589803
 20
84.26072145626438
  0
LWPOLYLINE
  5
476
330
1F
100
AcDbEntity
  8
OBRYS
100
AcDbPolyline
 90
        2
 70
     0
 43
0.0
 10
211.3266783362118
 20
74.56363893915739
 10
211.3266783362118
 20
74.06341107469837
  0
LWPOLYLINE
  5
477
330
1F
100
AcDbEntity
  8
OBRYS
100
AcDbPolyline
 90
        2
 70
     0
 43
0.0
 10
211.7762632970373
 20
74.06341107469837
 10
211.7762632970373
 20
74.56363893915739
  0
LWPOLYLINE
  5
478
330
1F
100
AcDbEntity
  8
OBRYS
100
AcDbPolyline
 90
        2
 70
     0
 43
0.0
 10
212.5965405320751
 20
74.56363893915739
 10
212.5965405320751
 20
74.06341107469837
  0
LWPOLYLINE
  5
479
330
1F
100
AcDbEntity
  8
OBRYS
100
AcDbPolyline
 90
        2
 70
     0
 43
0.0
 10
209.2365389053109
 20
74.06341107469837
 10
209.2365389053109
 20
74.56363893915739
  0
LWPOLYLINE
  5
47A
330
1F
100
AcDbEntity
  8
OBRYS
100
AcDbPolyline
 90
        2
 70
     0
 43
0.0
 10
210.0564716308004
 20
74.56363893915739
 10
210.0564716308004
 20
74.06341107469837
  0
LWPOLYLINE
  5
47B
330
1F
100
AcDbEntity
  8
OBRYS
100
AcDbPolyline
 90
        2
 70
     0
 43
0.0
 10
210.5067456107226
 20
74.06341107469837
 10
210.5067456107226
 20
74.56363893915739
  0
LWPOLYLINE
  5
47C
330
1F
100
AcDbEntity
  8
OBRYS
100
AcDbPolyline
 90
       11
 70
     0
 43
0.0
 10
214.4727395333421
 20
81.81177533057337
 10
214.4400111262322
 20
81.81418689741338
 10
214.4062491904768
 20
81.82124934315823
 10
214.3731762738185
 20
81.83434070600231
 10
214.3418259049027
 20
81.85277196684831
 10
214.3135761219237
 20
81.87602636137342
 10
214.2891159439784
 20
81.90341487048124
 10
214.2705124283579
 20
81.93459298462324
 10
214.2574210655141
 20
81.96663237263635
 10
214.2498418554465
 20
81.99936077974542
 10
214.2477747981552
 20
82.03122791298426
  0
LWPOLYLINE
  5
47D
330
1F
100
AcDbEntity
  8
OBRYS
100
AcDbPolyline
 90
        2
 70
     0
 43
0.0
 10
214.2477747981552
 20
83.80734689040526
 10
214.2477747981552
 20
82.03122791298426
  0
LWPOLYLINE
  5
47E
330
1F
100
AcDbEntity
  8
OBRYS
100
AcDbPolyline
 90
       12
 70
     0
 43
0.0
 10
207.3603399040439
 20
81.81177533057337
 10
207.3276114969341
 20
81.81418689741338
 10
207.2948830898241
 20
81.82124934315823
 10
207.2607766445201
 20
81.83434070600231
 10
207.2294262756043
 20
81.85277196684831
 10
207.2011764926253
 20
81.87602636137342
 10
207.1774053337772
 20
81.90341487048124
 10
207.1584573086082
 20
81.93459298462324
 10
207.1453659457643
 20
81.96663237263635
 10
207.1381312452453
 20
81.99936077974542
 10
207.1357196784055
 20
82.03122791298426
 10
207.1357196784055
 20
83.80734689040526
  0
LWPOLYLINE
  5
47F
330
1F
100
AcDbEntity
  8
OBRYS
100
AcDbPolyline
 90
       12
 70
     0
 43
0.0
 10
208.3762985626439
 20
81.81177533057337
 10
208.3439146650826
 20
81.81418689741338
 10
208.3104972388757
 20
81.82124934315823
 10
208.2770798126689
 20
81.83434070600231
 10
208.245729443753
 20
81.85277196684831
 10
208.2171351512254
 20
81.87602636137342
 10
208.1933639923773
 20
81.90341487048124
 10
208.174760476757
 20
81.93459298462324
 10
208.1616691139128
 20
81.96663237263635
 10
208.1537453942967
 20
81.99936077974542
 10
208.1516783370056
 20
82.03122791298426
 10
208.1516783370056
 20
83.80734689040526
  0
LWPOLYLINE
  5
480
330
1F
100
AcDbEntity
  8
OBRYS
100
AcDbPolyline
 90
       12
 70
     0
 43
0.0
 10
209.3926017307928
 20
81.81177533057337
 10
209.3598733236829
 20
81.81418689741338
 10
209.326455897476
 20
81.82124934315823
 10
209.2930384712689
 20
81.83434070600231
 10
209.2616881023531
 20
81.85277196684831
 10
209.2334383193742
 20
81.87602636137342
 10
209.2093226509775
 20
81.90341487048124
 10
209.1903746258086
 20
81.93459298462324
 10
209.1776277725131
 20
81.96663237263635
 10
209.1697040528971
 20
81.99936077974542
 10
209.167636995606
 20
82.03122791298426
 10
209.167636995606
 20
83.80734689040526
  0
LWPOLYLINE
  5
481
330
1F
100
AcDbEntity
  8
OBRYS
100
AcDbPolyline
 90
       12
 70
     0
 43
0.0
 10
210.4085603893929
 20
81.81177533057337
 10
210.3758319822829
 20
81.81418689741338
 10
210.3424145560761
 20
81.82124934315823
 10
210.3093416394176
 20
81.83434070600231
 10
210.2776467609534
 20
81.85277196684831
 10
210.2497414875229
 20
81.87602636137342
 10
210.2256258191262
 20
81.90341487048124
 10
210.2066777939574
 20
81.93459298462324
 10
210.1935864311132
 20
81.96663237263635
 10
210.1856627114971
 20
81.99936077974542
 10
210.1832511446576
 20
82.03122791298426
 10
210.1832511446576
 20
83.80734689040526
  0
LWPOLYLINE
  5
482
330
1F
100
AcDbEntity
  8
OBRYS
100
AcDbPolyline
 90
       12
 70
     0
 43
0.0
 10
211.4241745384445
 20
81.81177533057337
 10
211.3917906408833
 20
81.81418689741338
 10
211.3583732146764
 20
81.82124934315823
 10
211.3253002980181
 20
81.83434070600231
 10
211.2936054195536
 20
81.85277196684831
 10
211.2653556365745
 20
81.87602636137342
 10
211.2415844777263
 20
81.90341487048124
 10
211.2226364525575
 20
81.93459298462324
 10
211.209200580165
 20
81.96663237263635
 10
211.201965879646
 20
81.99936077974542
 10
211.1992098032577
 20
82.03122791298426
 10
211.1992098032577
 20
83.80734689040526
  0
LWPOLYLINE
  5
483
330
1F
100
AcDbEntity
  8
OBRYS
100
AcDbPolyline
 90
       12
 70
     0
 43
0.0
 10
212.4404777065933
 20
81.81177533057337
 10
212.4074047899349
 20
81.81418689741338
 10
212.374676382825
 20
81.82124934315823
 10
212.341258956618
 20
81.83434070600231
 10
212.3099085877023
 20
81.85277196684831
 10
212.2813142951748
 20
81.87602636137342
 10
212.257198626778
 20
81.90341487048124
 10
212.2385951111577
 20
81.93459298462324
 10
212.2255037483136
 20
81.96663237263635
 10
212.2179245382463
 20
81.99936077974542
 10
212.2155129714065
 20
82.03122791298426
 10
212.2155129714065
 20
83.80734689040526
  0
LWPOLYLINE
  5
484
330
1F
100
AcDbEntity
  8
OBRYS
100
AcDbPolyline
 90
       12
 70
     0
 43
0.0
 10
213.4564363651935
 20
81.81177533057337
 10
213.4237079580836
 20
81.81418689741338
 10
213.3902905318767
 20
81.82124934315823
 10
213.3572176152183
 20
81.83434070600231
 10
213.3258672463024
 20
81.85277196684831
 10
213.2972729537749
 20
81.87602636137342
 10
213.2731572853781
 20
81.90341487048124
 10
213.2542092602093
 20
81.93459298462324
 10
213.2414624069137
 20
81.96663237263635
 10
213.2338831968464
 20
81.99936077974542
 10
213.2314716300066
 20
82.03122791298426
 10
213.2314716300066
 20
83.80734689040526
  0
LWPOLYLINE
  5
487
330
1F
100
AcDbEntity
  8
OBRYS
100
AcDbPolyline
 90
        2
 70
     0
 43
0.0
 10
204.9663430513438
 20
79.86374608843937
 10
216.8663918764937
 20
79.86374608843937
  0
LWPOLYLINE
  5
488
330
1F
100
AcDbEntity
  8
OBRYS
100
AcDbPolyline
 90
       11
 70
     0
 43
0.0
 10
214.4727395333421
 20
81.81177533057337
 10
214.5051234309035
 20
81.81418689741338
 10
214.5385408571103
 20
81.82124934315823
 10
214.5719582833174
 20
81.83434070600231
 10
214.6033086522332
 20
81.85277196684831
 10
214.6319029447608
 20
81.87602636137342
 10
214.6556741036088
 20
81.90341487048124
 10
214.6742776192291
 20
81.93459298462324
 10
214.6873689820732
 20
81.96663237263635
 10
214.6952927016893
 20
81.99936077974542
 10
214.6973597589803
 20
82.03122791298426
  0
LWPOLYLINE
  5
489
330
1F
100
AcDbEntity
  8
OBRYS
100
AcDbPolyline
 90
       11
 70
     0
 43
0.0
 10
213.4564363651935
 20
81.81177533057337
 10
213.4891647723033
 20
81.81418689741338
 10
213.5225821985103
 20
81.82124934315823
 10
213.5559996247172
 20
81.83434070600231
 10
213.587349993633
 20
81.85277196684831
 10
213.615599776612
 20
81.87602636137342
 10
213.6397154450088
 20
81.90341487048124
 10
213.6586634701778
 20
81.93459298462324
 10
213.6714103234731
 20
81.96663237263635
 10
213.6793340430892
 20
81.99936077974542
 10
213.6814011003802
 20
82.03122791298426
  0
LWPOLYLINE
  5
48A
330
1F
100
AcDbEntity
  8
OBRYS
100
AcDbPolyline
 90
       11
 70
     0
 43
0.0
 10
212.4404777065933
 20
81.81177533057337
 10
212.4732061137031
 20
81.81418689741338
 10
212.50662353991
 20
81.82124934315823
 10
212.5396964565685
 20
81.83434070600231
 10
212.5713913350329
 20
81.85277196684831
 10
212.5992966084632
 20
81.87602636137342
 10
212.6234122768601
 20
81.90341487048124
 10
212.6423603020289
 20
81.93459298462324
 10
212.6554516648729
 20
81.96663237263635
 10
212.6630308749403
 20
81.99936077974542
 10
212.6657869513287
 20
82.03122791298426
  0
LWPOLYLINE
  5
48B
330
1F
100
AcDbEntity
  8
OBRYS
100
AcDbPolyline
 90
       11
 70
     0
 43
0.0
 10
211.4241745384445
 20
81.81177533057337
 10
211.4569029455546
 20
81.81418689741338
 10
211.49066488131
 20
81.82124934315823
 10
211.5233932884197
 20
81.83434070600231
 10
211.5554326764324
 20
81.85277196684831
 10
211.5833379498631
 20
81.87602636137342
 10
211.6074536182598
 20
81.90341487048124
 10
211.6264016434286
 20
81.93459298462324
 10
211.6394930062728
 20
81.96663237263635
 10
211.6470722163403
 20
81.99936077974542
 10
211.6498282927284
 20
82.03122791298426
  0
LWPOLYLINE
  5
48C
330
1F
100
AcDbEntity
  8
OBRYS
100
AcDbPolyline
 90
       11
 70
     0
 43
0.0
 10
210.4085603893929
 20
81.81177533057337
 10
210.4412887965027
 20
81.81418689741338
 10
210.4743617131611
 20
81.82124934315823
 10
210.5077791393682
 20
81.83434070600231
 10
210.5391295082838
 20
81.85277196684831
 10
210.5677238008115
 20
81.87602636137342
 10
210.5918394692083
 20
81.90341487048124
 10
210.6100984752801
 20
81.93459298462324
 10
210.6235343476725
 20
81.96663237263635
 10
210.6311135577401
 20
81.99936077974542
 10
210.6335251245797
 20
82.03122791298426
  0
LWPOLYLINE
  5
48D
330
1F
100
AcDbEntity
  8
OBRYS
100
AcDbPolyline
 90
       11
 70
     0
 43
0.0
 10
209.3926017307928
 20
81.81177533057337
 10
209.4253301379025
 20
81.81418689741338
 10
209.4587475641096
 20
81.82124934315823
 10
209.4918204807679
 20
81.83434070600231
 10
209.5231708496837
 20
81.85277196684831
 10
209.5517651422113
 20
81.87602636137342
 10
209.5758808106081
 20
81.90341487048124
 10
209.5941398166799
 20
81.93459298462324
 10
209.6075756890722
 20
81.96663237263635
 10
209.6151548991398
 20
81.99936077974542
 10
209.6175664659795
 20
82.03122791298426
  0
LWPOLYLINE
  5
48E
330
1F
100
AcDbEntity
  8
OBRYS
100
AcDbPolyline
 90
       11
 70
     0
 43
0.0
 10
208.3762985626439
 20
81.81177533057337
 10
208.409026969754
 20
81.81418689741338
 10
208.4427889055093
 20
81.82124934315823
 10
208.4758618221678
 20
81.83434070600231
 10
208.5072121910836
 20
81.85277196684831
 10
208.5354619740624
 20
81.87602636137342
 10
208.5599221520078
 20
81.90341487048124
 10
208.5785256676282
 20
81.93459298462324
 10
208.5916170304721
 20
81.96663237263635
 10
208.5991962405397
 20
81.99936077974542
 10
208.6012632978309
 20
82.03122791298426
  0
LWPOLYLINE
  5
48F
330
1F
100
AcDbEntity
  8
OBRYS
100
AcDbPolyline
 90
       11
 70
     0
 43
0.0
 10
207.3603399040439
 20
81.81177533057337
 10
207.3930683111537
 20
81.81418689741338
 10
207.4264857373607
 20
81.82124934315823
 10
207.4599031635675
 20
81.83434070600231
 10
207.4912535324834
 20
81.85277196684831
 10
207.5195033154623
 20
81.87602636137342
 10
207.5432744743106
 20
81.90341487048124
 10
207.5625670090281
 20
81.93459298462324
 10
207.5753138623235
 20
81.96663237263635
 10
207.582893072391
 20
81.99936077974542
 10
207.5856491487791
 20
82.03122791298426
  0
LWPOLYLINE
  5
490
330
1F
100
AcDbEntity
  8
OBRYS
100
AcDbPolyline
 90
       11
 70
     0
 43
0.0
 10
213.2366392732346
 20
84.26313302310325
 10
213.2359502541376
 20
84.26313302310325
 10
213.2352612350404
 20
84.26278851355426
 10
213.2342277063949
 20
84.26278851355426
 10
213.2335386872976
 20
84.2624440040064
 10
213.2328496682008
 20
84.26209949445831
 10
213.2321606491037
 20
84.26175498490932
 10
213.2318161395551
 20
84.26106596581224
 10
213.2314716300066
 20
84.26072145626438
 10
213.2314716300066
 20
84.26037694671538
 10
213.2314716300066
 20
84.2600324371673
  0
LWPOLYLINE
  5
491
330
1F
100
AcDbEntity
  8
OBRYS
100
AcDbPolyline
 90
       11
 70
     0
 43
0.0
 10
212.2206806146344
 20
84.26313302310325
 10
212.2199915955371
 20
84.26313302310325
 10
212.2186135573432
 20
84.26278851355426
 10
212.2179245382463
 20
84.26278851355426
 10
212.2168910096005
 20
84.2624440040064
 10
212.216546500052
 20
84.26209949445831
 10
212.2162019905034
 20
84.26175498490932
 10
212.2158574809551
 20
84.26106596581224
 10
212.2155129714065
 20
84.26072145626438
 10
212.2155129714065
 20
84.26037694671538
 10
212.2155129714065
 20
84.2600324371673
  0
LWPOLYLINE
  5
492
330
1F
100
AcDbEntity
  8
OBRYS
100
AcDbPolyline
 90
       11
 70
     0
 43
0.0
 10
211.2050664655826
 20
84.26313302310325
 10
211.2036884273885
 20
84.26313302310325
 10
211.2026548987428
 20
84.26278851355426
 10
211.201965879646
 20
84.26278851355426
 10
211.2012768605489
 20
84.2624440040064
 10
211.2005878414518
 20
84.26209949445831
 10
211.2002433319033
 20
84.26175498490932
 10
211.1998988223548
 20
84.26106596581224
 10
211.1998988223548
 20
84.26072145626438
 10
211.1992098032577
 20
84.26037694671538
 10
211.1992098032577
 20
84.2600324371673
  0
LWPOLYLINE
  5
493
330
1F
100
AcDbEntity
  8
OBRYS
100
AcDbPolyline
 90
       11
 70
     0
 43
0.0
 10
210.188763297434
 20
84.26313302310325
 10
210.1873852592398
 20
84.26313302310325
 10
210.1866962401428
 20
84.26278851355426
 10
210.1856627114971
 20
84.26278851355426
 10
210.1853182019488
 20
84.2624440040064
 10
210.1846291828515
 20
84.26209949445831
 10
210.1842846733032
 20
84.26175498490932
 10
210.1835956542061
 20
84.26106596581224
 10
210.1835956542061
 20
84.26072145626438
 10
210.1835956542061
 20
84.26037694671538
 10
210.1832511446576
 20
84.2600324371673
  0
LWPOLYLINE
  5
494
330
1F
100
AcDbEntity
  8
OBRYS
100
AcDbPolyline
 90
       11
 70
     0
 43
0.0
 10
209.1728046388339
 20
84.26313302310325
 10
209.1717711101883
 20
84.26313302310325
 10
209.1710820910912
 20
84.26278851355426
 10
209.1700485624456
 20
84.26278851355426
 10
209.1693595433486
 20
84.2624440040064
 10
209.1690150338
 20
84.26209949445831
 10
209.1679815051544
 20
84.26175498490932
 10
209.1679815051544
 20
84.26106596581224
 10
209.167636995606
 20
84.26072145626438
 10
209.167636995606
 20
84.26037694671538
 10
209.167636995606
 20
84.2600324371673
  0
LWPOLYLINE
  5
495
330
1F
100
AcDbEntity
  8
OBRYS
100
AcDbPolyline
 90
       11
 70
     0
 43
0.0
 10
208.1565014706851
 20
84.26313302310325
 10
208.155812451588
 20
84.26313302310325
 10
208.155123432491
 20
84.26278851355426
 10
208.1540899038456
 20
84.26278851355426
 10
208.1534008847484
 20
84.2624440040064
 10
208.1527118656514
 20
84.26209949445831
 10
208.1523673561029
 20
84.26175498490932
 10
208.1520228465544
 20
84.26106596581224
 10
208.1516783370056
 20
84.26072145626438
 10
208.1516783370056
 20
84.26037694671538
 10
208.1516783370056
 20
84.2600324371673
  0
LWPOLYLINE
  5
496
330
1F
100
AcDbEntity
  8
OBRYS
100
AcDbPolyline
 90
       11
 70
     0
 43
0.0
 10
207.1408873216335
 20
84.26313302310325
 10
207.1398537929879
 20
84.26313302310325
 10
207.1388202643423
 20
84.26278851355426
 10
207.1381312452453
 20
84.26278851355426
 10
207.1370977165995
 20
84.2624440040064
 10
207.136753207051
 20
84.26209949445831
 10
207.1364086975026
 20
84.26175498490932
 10
207.1360641879543
 20
84.26106596581224
 10
207.1357196784055
 20
84.26072145626438
 10
207.1357196784055
 20
84.26037694671538
 10
207.1357196784055
 20
84.2600324371673
  0
LWPOLYLINE
  5
497
330
1F
100
AcDbEntity
  8
OBRYS
100
AcDbPolyline
 90
       11
 70
     0
 43
0.0
 10
214.2529424413832
 20
84.26313302310325
 10
214.2519089127377
 20
84.26313302310325
 10
214.2508753840921
 20
84.26278851355426
 10
214.250186364995
 20
84.26278851355426
 10
214.2494973458979
 20
84.2624440040064
 10
214.2491528363496
 20
84.26209949445831
 10
214.248119307704
 20
84.26175498490932
 10
214.248119307704
 20
84.26106596581224
 10
214.2477747981552
 20
84.26072145626438
 10
214.2477747981552
 20
84.26037694671538
 10
214.2477747981552
 20
84.2600324371673
  0
LWPOLYLINE
  5
498
330
1F
100
AcDbEntity
  8
OBRYS
100
AcDbPolyline
 90
        2
 70
     0
 43
0.0
 10
214.2477747981552
 20
84.2600324371673
 10
214.2477747981552
 20
83.80734689040526
  0
LWPOLYLINE
  5
499
330
1F
100
AcDbEntity
  8
OBRYS
100
AcDbPolyline
 90
        2
 70
     0
 43
0.0
 10
213.2314716300066
 20
84.2600324371673
 10
213.2314716300066
 20
83.80734689040526
  0
LWPOLYLINE
  5
49A
330
1F
100
AcDbEntity
  8
OBRYS
100
AcDbPolyline
 90
        2
 70
     0
 43
0.0
 10
213.6814011003802
 20
82.03122791298426
 10
213.6814011003802
 20
83.80734689040526
  0
LWPOLYLINE
  5
49B
330
1F
100
AcDbEntity
  8
OBRYS
100
AcDbPolyline
 90
        2
 70
     0
 43
0.0
 10
212.2155129714065
 20
84.2600324371673
 10
212.2155129714065
 20
83.80734689040526
  0
LWPOLYLINE
  5
49C
330
1F
100
AcDbEntity
  8
OBRYS
100
AcDbPolyline
 90
        2
 70
     0
 43
0.0
 10
212.6657869513287
 20
82.03122791298426
 10
212.6657869513287
 20
83.80734689040526
  0
LWPOLYLINE
  5
49D
330
1F
100
AcDbEntity
  8
OBRYS
100
AcDbPolyline
 90
        2
 70
     0
 43
0.0
 10
211.1992098032577
 20
84.2600324371673
 10
211.1992098032577
 20
83.80734689040526
  0
LWPOLYLINE
  5
49E
330
1F
100
AcDbEntity
  8
OBRYS
100
AcDbPolyline
 90
        2
 70
     0
 43
0.0
 10
211.6498282927284
 20
82.03122791298426
 10
211.6498282927284
 20
83.80734689040526
  0
LWPOLYLINE
  5
49F
330
1F
100
AcDbEntity
  8
OBRYS
100
AcDbPolyline
 90
        2
 70
     0
 43
0.0
 10
210.1832511446576
 20
84.2600324371673
 10
210.1832511446576
 20
83.80734689040526
  0
LWPOLYLINE
  5
4A0
330
1F
100
AcDbEntity
  8
OBRYS
100
AcDbPolyline
 90
        2
 70
     0
 43
0.0
 10
210.6335251245797
 20
82.03122791298426
 10
210.6335251245797
 20
83.80734689040526
  0
LWPOLYLINE
  5
4A1
330
1F
100
AcDbEntity
  8
OBRYS
100
AcDbPolyline
 90
        2
 70
     0
 43
0.0
 10
209.167636995606
 20
84.2600324371673
 10
209.167636995606
 20
83.80734689040526
  0
LWPOLYLINE
  5
4A2
330
1F
100
AcDbEntity
  8
OBRYS
100
AcDbPolyline
 90
        2
 70
     0
 43
0.0
 10
209.6175664659795
 20
82.03122791298426
 10
209.6175664659795
 20
83.80734689040526
  0
LWPOLYLINE
  5
4A3
330
1F
100
AcDbEntity
  8
OBRYS
100
AcDbPolyline
 90
        2
 70
     0
 43
0.0
 10
208.1516783370056
 20
84.2600324371673
 10
208.1516783370056
 20
83.80734689040526
  0
LWPOLYLINE
  5
4A4
330
1F
100
AcDbEntity
  8
OBRYS
100
AcDbPolyline
 90
        2
 70
     0
 43
0.0
 10
208.6012632978309
 20
82.03122791298426
 10
208.6012632978309
 20
83.80734689040526
  0
LWPOLYLINE
  5
4A5
330
1F
100
AcDbEntity
  8
OBRYS
100
AcDbPolyline
 90
        2
 70
     0
 43
0.0
 10
207.1357196784055
 20
84.2600324371673
 10
207.1357196784055
 20
83.80734689040526
  0
LWPOLYLINE
  5
4A6
330
1F
100
AcDbEntity
  8
OBRYS
100
AcDbPolyline
 90
        2
 70
     0
 43
0.0
 10
207.5856491487791
 20
82.03122791298426
 10
207.5856491487791
 20
83.80734689040526
  0
LWPOLYLINE
  5
4A7
330
1F
100
AcDbEntity
  8
OBRYS
100
AcDbPolyline
 90
        2
 70
     0
 43
0.0
 10
214.6973597589803
 20
82.03122791298426
 10
214.6973597589803
 20
83.80734689040526
  0
LWPOLYLINE
  5
4A9
330
1F
100
AcDbEntity
  8
OBRYS
100
AcDbPolyline
 90
        2
 70
     0
 43
0.0
 10
214.0665627756312
 20
74.06341107469837
 10
207.7665166617549
 20
74.06341107469837
  0
LWPOLYLINE
  5
4AB
330
1F
100
AcDbEntity
  8
OBRYS
100
AcDbPolyline
 90
        2
 70
     0
 43
0.0
 10
211.0655400984301
 20
69.09093250606327
 10
210.9163674639186
 20
69.1134978814913
  0
LWPOLYLINE
  5
4AC
330
1F
100
AcDbEntity
  8
OBRYS
100
AcDbPolyline
 90
        4
 70
     0
 43
0.0
 10
213.3162209789439
 20
62.81362402238926
 10
212.8166821335825
 20
62.81362402238926
 10
209.0163973038034
 20
62.81362402238926
 10
208.5168584584422
 20
62.81362402238926
  0
LWPOLYLINE
  5
4AD
330
1F
100
AcDbEntity
  8
OBRYS
100
AcDbPolyline
 90
        3
 70
     0
 43
0.0
 10
208.5168584584422
 20
63.61340293929027
 10
209.0163973038034
 20
63.61340293929027
 10
213.3162209789439
 20
63.61340293929027
  0
LWPOLYLINE
  5
4AE
330
1F
100
AcDbEntity
  8
OBRYS
100
AcDbPolyline
 90
        2
 70
     0
 43
0.0
 10
199.3666848496187
 20
69.37067425946532
 10
199.3666848496187
 20
74.41326052122542
  0
LWPOLYLINE
  5
4AF
330
1F
100
AcDbEntity
  8
OBRYS
100
AcDbPolyline
 90
        2
 70
     0
 43
0.0
 10
222.4667390973159
 20
74.41326052122542
 10
222.4667390973159
 20
69.37067425946532
  0
LWPOLYLINE
  5
4B0
330
1F
100
AcDbEntity
  8
OBRYS
100
AcDbPolyline
 90
        7
 70
     0
 43
0.0
 10
222.4663945877673
 20
69.37067425946532
 10
222.4877541797759
 20
68.93676448309827
 10
222.5518329558015
 20
68.50750558563539
 10
222.6579418967472
 20
68.08617040779029
 10
222.8050474739673
 20
67.67740982846533
 10
222.991771649268
 20
67.28535796224321
 10
223.2163918749061
 20
66.91363215938543
  0
LWPOLYLINE
  5
4B1
330
1F
100
AcDbEntity
  8
OBRYS
100
AcDbPolyline
 90
        7
 70
     0
 43
0.0
 10
198.6166875624797
 20
66.91363215938543
 10
198.8411355333436
 20
67.28535796224321
 10
199.0276874538701
 20
67.67740982846533
 10
199.1747930310903
 20
68.08617040779029
 10
199.2810742268101
 20
68.50750558563539
 10
199.3453252576102
 20
68.93676448309827
 10
199.3666848496187
 20
69.37067425946532
  0
LWPOLYLINE
  5
4B2
330
1F
100
AcDbEntity
  8
OBRYS
100
AcDbPolyline
 90
        2
 70
     0
 43
0.0
 10
199.3666848496187
 20
95.25643271653541
 10
199.3666848496187
 20
90.21384645477531
  0
LWPOLYLINE
  5
4B3
330
1F
100
AcDbEntity
  8
OBRYS
100
AcDbPolyline
 90
        2
 70
     0
 43
0.0
 10
222.4667390973159
 20
90.21384645477531
 10
222.4667390973159
 20
95.25643271653541
  0
LWPOLYLINE
  5
4B4
330
1F
100
AcDbEntity
  8
OBRYS
100
AcDbPolyline
 90
        7
 70
     0
 43
0.0
 10
223.2163918749061
 20
97.71364707139026
 10
222.991771649268
 20
97.3417490137573
 10
222.8050474739673
 20
96.94952489276136
 10
222.6579418967472
 20
96.54093656821135
 10
222.5518329558015
 20
96.11977364513939
 10
222.4877541797759
 20
95.68999798335437
 10
222.4663945877673
 20
95.25643271653541
  0
LWPOLYLINE
  5
4B5
330
1F
100
AcDbEntity
  8
OBRYS
100
AcDbPolyline
 90
        6
 70
     0
 43
0.0
 10
223.2167363844547
 20
97.71330256184126
 10
223.2167363844547
 20
99.21312623698225
 42
0.4142135623731307
 10
220.4167363844547
 20
102.0131262369824
 10
201.4163430529311
 20
102.0131262369824
 42
0.4142135623731307
 10
198.6163430529312
 20
99.21312623698225
 10
198.6163430529312
 20
97.71330256184126
  0
LWPOLYLINE
  5
4B6
330
1F
100
AcDbEntity
  8
OBRYS
100
AcDbPolyline
 90
        7
 70
     0
 43
0.0
 10
199.3666848496187
 20
95.25643271653541
 10
199.3453252576102
 20
95.68999798335437
 10
199.2810742268101
 20
96.11977364513939
 10
199.1747930310903
 20
96.54093656821135
 10
199.0276874538701
 20
96.94952489276136
 10
198.8411355333436
 20
97.3417490137573
 10
198.6166875624797
 20
97.71364707139026
  0
LWPOLYLINE
  5
4B7
330
1F
100
AcDbEntity
  8
OBRYS
100
AcDbPolyline
 90
        7
 70
     0
 43
0.0
 10
198.8168476101728
 20
82.31338123322632
 10
198.819603686561
 20
80.99218711463334
 10
198.8580165012214
 20
79.67185426991125
 10
198.9320860541543
 20
78.35238269906029
 10
199.0414678358111
 20
77.03583945937237
 10
199.1865063557401
 20
75.7223968056204
 10
199.3666848496187
 20
74.41360503077442
  0
LWPOLYLINE
  5
4B8
330
1F
100
AcDbEntity
  8
OBRYS
100
AcDbPolyline
 90
        7
 70
     0
 43
0.0
 10
222.4660500782187
 20
74.41360503077442
 10
222.6465730816459
 20
75.7223968056204
 10
222.7916116015748
 20
77.03583945937237
 10
222.9008211284572
 20
78.35238269906029
 10
222.9748906813902
 20
79.67185426991125
 10
223.0134757508249
 20
80.99218711463334
 10
223.0158873176648
 20
82.31372574277532
  0
LWPOLYLINE
  5
4B9
330
1F
100
AcDbEntity
  8
OBRYS
100
AcDbPolyline
 90
        7
 70
     0
 43
0.0
 10
199.3666848496187
 20
90.21350194522722
 10
199.1865063557401
 20
88.90471017038033
 10
199.0414678358111
 20
87.59126751662927
 10
198.9320860541543
 20
86.27472427694022
 10
198.8580165012214
 20
84.9554249608642
 10
198.819603686561
 20
83.63457535181931
 10
198.8168476101728
 20
82.31338123322632
  0
LWPOLYLINE
  5
4BA
330
1F
100
AcDbEntity
  8
OBRYS
100
AcDbPolyline
 90
        7
 70
     0
 43
0.0
 10
223.0158873176648
 20
82.31338123322632
 10
223.0134757508249
 20
83.63457535181931
 10
222.9748906813902
 20
84.9554249608642
 10
222.9008211284572
 20
86.27472427694022
 10
222.7916116015748
 20
87.59126751662927
 10
222.6465730816459
 20
88.90471017038033
 10
222.4660500782187
 20
90.21350194522722
  0
LWPOLYLINE
  5
4BB
330
1F
100
AcDbEntity
  8
OBRYS
100
AcDbPolyline
 90
        2
 70
     0
 43
0.0
 10
214.1165166601675
 20
64.01337852512722
 10
214.1165166601675
 20
62.61363622947022
  0
LWPOLYLINE
  5
4BC
330
1F
100
AcDbEntity
  8
OBRYS
100
AcDbPolyline
 90
        2
 70
     0
 43
0.0
 10
207.71621826767
 20
62.61363622947022
 10
207.71621826767
 20
64.01337852512722
  0
LWPOLYLINE
  5
4BD
330
1F
100
AcDbEntity
  8
OBRYS
100
AcDbPolyline
 90
        4
 70
     0
 43
0.0
 10
208.5168584584422
 20
62.81362402238926
 10
208.5168584584422
 20
63.61340293929027
 10
208.5168584584422
 20
63.81339073220931
 10
208.5168584584422
 20
64.01337852512722
  0
LWPOLYLINE
  5
4BE
330
1F
100
AcDbEntity
  8
OBRYS
100
AcDbPolyline
 90
        2
 70
     0
 43
0.0
 10
213.3162209789439
 20
63.81339073220931
 10
213.3162209789439
 20
64.01337852512722
  0
LWPOLYLINE
  5
4BF
330
1F
100
AcDbEntity
  8
OBRYS
100
AcDbPolyline
 90
        3
 70
     0
 43
0.0
 10
213.3162209789439
 20
63.81339073220931
 10
213.3162209789439
 20
63.61340293929027
 10
213.3162209789439
 20
62.81362402238926
  0
LWPOLYLINE
  5
4C0
330
1F
100
AcDbEntity
  8
OBRYS
100
AcDbPolyline
 90
        4
 70
     0
 43
0.0
 10
223.2167363844547
 20
66.91363215938543
 10
223.2167363844547
 20
65.4136362294704
 42
-0.4142135623731307
 10
220.4167363844547
 20
62.61363622947022
 10
214.1165166601675
 20
62.61363622947022
  0
LWPOLYLINE
  5
4C1
330
1F
100
AcDbEntity
  8
OBRYS
100
AcDbPolyline
 90
        4
 70
     0
 43
0.0
 10
207.71621826767
 20
62.61363622947022
 10
201.4163430529311
 20
62.61363622947022
 42
-0.4142135623731546
 10
198.6163430529312
 20
65.41363622947017
 10
198.6163430529312
 20
66.91363215938543
  0
LWPOLYLINE
  5
4C2
330
1F
100
AcDbEntity
  8
OBRYS
100
AcDbPolyline
 90
        2
 70
     0
 43
0.0
 10
203.1666251698491
 20
85.71351822239342
 10
218.6661097579882
 20
85.71351822239342
  0
LWPOLYLINE
  5
4C3
330
1F
100
AcDbEntity
  8
OBRYS
100
AcDbPolyline
 90
        2
 70
     0
 43
0.0
 10
203.1666251698491
 20
73.9137216758644
 10
203.1666251698491
 20
85.71351822239342
  0
LWPOLYLINE
  5
4C4
330
1F
100
AcDbEntity
  8
OBRYS
100
AcDbPolyline
 90
        2
 70
     0
 43
0.0
 10
218.6661097579882
 20
73.9137216758644
 10
203.1666251698491
 20
73.9137216758644
  0
LWPOLYLINE
  5
4C5
330
1F
100
AcDbEntity
  8
OBRYS
100
AcDbPolyline
 90
        2
 70
     0
 43
0.0
 10
218.6661097579882
 20
85.71351822239342
 10
218.6661097579882
 20
73.9137216758644
  0
LWPOLYLINE
  5
4C6
330
1F
100
AcDbEntity
  8
OBRYS
100
AcDbPolyline
 90
        2
 70
     0
 43
0.0
 10
212.8166821335825
 20
62.81362402238926
 10
211.8162264046661
 20
62.99001291123443
  0
LWPOLYLINE
  5
4C7
330
1F
100
AcDbEntity
  8
OBRYS
100
AcDbPolyline
 90
        2
 70
     0
 43
0.0
 10
211.8162264046661
 20
63.43735855999341
 10
212.8166821335825
 20
63.61340293929027
  0
LWPOLYLINE
  5
4C8
330
1F
100
AcDbEntity
  8
OBRYS
100
AcDbPolyline
 90
        2
 70
     0
 43
0.0
 10
211.8162264046661
 20
62.99001291123443
 10
211.8162264046661
 20
63.43735855999341
  0
LWPOLYLINE
  5
4C9
330
1F
100
AcDbEntity
  8
OBRYS
100
AcDbPolyline
 90
        2
 70
     0
 43
0.0
 10
209.0163973038034
 20
63.61340293929027
 10
210.0165085231716
 20
63.43735855999341
  0
LWPOLYLINE
  5
4CA
330
1F
100
AcDbEntity
  8
OBRYS
100
AcDbPolyline
 90
        2
 70
     0
 43
0.0
 10
210.0165085231716
 20
62.99001291123443
 10
209.0163973038034
 20
62.81362402238926
  0
LWPOLYLINE
  5
4CB
330
1F
100
AcDbEntity
  8
OBRYS
100
AcDbPolyline
 90
        2
 70
     0
 43
0.0
 10
210.0165085231716
 20
63.43735855999341
 10
210.0165085231716
 20
62.99001291123443
  0
LWPOLYLINE
  5
4CC
330
1F
100
AcDbEntity
  8
OBRYS
100
AcDbPolyline
 90
        2
 70
     0
 43
0.0
 10
211.8162264046661
 20
63.43735855999341
 10
210.0165085231716
 20
63.43735855999341
  0
LWPOLYLINE
  5
4CD
330
1F
100
AcDbEntity
  8
OBRYS
100
AcDbPolyline
 90
        2
 70
     0
 43
0.0
 10
210.0165085231716
 20
62.99001291123443
 10
211.8162264046661
 20
62.99001291123443
  0
LWPOLYLINE
  5
4CE
330
1F
100
AcDbEntity
  8
OBRYS
100
AcDbPolyline
 90
        2
 70
     0
 43
0.0
 10
218.6661097579882
 20
85.71351822239342
 10
218.6661097579882
 20
85.71351822239342
  0
LWPOLYLINE
  5
4CF
330
1F
100
AcDbEntity
  8
OBRYS
100
AcDbPolyline
 90
        2
 70
     0
 43
0.0
 10
169.4868928304302
 20
95.96387354820502
 10
169.4791413655885
 20
95.96852442711008
  0
LWPOLYLINE
  5
4D0
330
1F
100
AcDbEntity
  8
OBRYS
100
AcDbPolyline
 90
        2
 70
     0
 43
0.0
 10
169.4791413655885
 20
98.95852279875805
 10
169.4868928304302
 20
98.96386269676088
  0
LWPOLYLINE
  5
4D1
330
1F
100
AcDbEntity
  8
OBRYS
100
AcDbPolyline
 90
        7
 70
     0
 43
0.0
 10
167.3176884581426
 20
94.6638667668459
 10
168.7312295815208
 20
94.6638667668459
 42
0.277506992092949
 10
168.9520459623664
 20
94.79664848350137
 10
169.2689905409881
 20
95.39371024539594
 10
169.8168938546675
 20
96.82422655293487
 42
0.5248895955304514
 10
169.5842146432114
 20
97.1636436926434
 10
169.4791413655885
 20
97.16397256049197
  0
LWPOLYLINE
  5
4D2
330
1F
100
AcDbEntity
  8
OBRYS
100
AcDbPolyline
 90
        7
 70
     0
 43
0.0
 10
169.4791413655885
 20
97.76376368447393
 10
169.5833934048219
 20
97.76376368447393
 42
0.5259202862586583
 10
169.8168460528226
 20
98.10320562732761
 10
169.2689905409881
 20
99.53316472569793
 10
168.951705675785
 20
100.1310585415237
 42
0.2775426205144201
 10
168.7308737862886
 20
100.26386947812
 10
167.3176884581426
 20
100.26386947812
  0
LWPOLYLINE
  5
4D3
330
1F
100
AcDbEntity
  8
OBRYS
100
AcDbPolyline
 90
        2
 70
     0
 43
0.0
 10
169.6992829670961
 20
97.16328354139489
 10
169.6992829670961
 20
97.16328354139489
  0
LWPOLYLINE
  5
4D4
330
1F
100
AcDbEntity
  8
OBRYS
100
AcDbPolyline
 90
        2
 70
     0
 43
0.0
 10
169.4868928304302
 20
95.96387354820502
 10
169.4868928304302
 20
95.96387354820502
  0
LWPOLYLINE
  5
4D5
330
1F
100
AcDbEntity
  8
OBRYS
100
AcDbPolyline
 90
        2
 70
     0
 43
0.0
 10
169.4791413655885
 20
98.95852279875805
 10
169.4791413655885
 20
98.95852279875805
  0
LWPOLYLINE
  5
4D6
330
1F
100
AcDbEntity
  8
OBRYS
100
AcDbPolyline
 90
        2
 70
     0
 43
0.0
 10
169.4868928304302
 20
98.96351818721189
 10
169.4868928304302
 20
98.96386269676088
  0
LWPOLYLINE
  5
4D7
330
1F
100
AcDbEntity
  8
OBRYS
100
AcDbPolyline
 90
        2
 70
     0
 43
0.0
 10
169.6992829670961
 20
97.76376368447393
 10
169.6992829670961
 20
97.76376368447393
  0
LWPOLYLINE
  5
4D8
330
1F
100
AcDbEntity
  8
OBRYS
100
AcDbPolyline
 90
        2
 70
     0
 43
0.0
 10
169.4868928304302
 20
65.66374199110999
 10
169.4791413655885
 20
65.66839287001505
  0
LWPOLYLINE
  5
4D9
330
1F
100
AcDbEntity
  8
OBRYS
100
AcDbPolyline
 90
        2
 70
     0
 43
0.0
 10
169.4791413655885
 20
68.65890800598606
 10
169.4868928304302
 20
68.66338663011709
  0
LWPOLYLINE
  5
4DA
330
1F
100
AcDbEntity
  8
OBRYS
100
AcDbPolyline
 90
        7
 70
     0
 43
0.0
 10
167.3176884581426
 20
64.36339070020188
 10
168.7308538469051
 20
64.36339070020188
 42
0.2774713465558348
 10
168.9516547074955
 20
64.49614318439615
 10
169.2689905409881
 20
65.09375094307495
 10
169.8169780436288
 20
66.52405455099426
 42
0.5259202862584886
 10
169.583525395628
 20
66.86349649384795
 10
169.4791413655885
 20
66.86349649384795
  0
LWPOLYLINE
  5
4DB
330
1F
100
AcDbEntity
  8
OBRYS
100
AcDbPolyline
 90
        7
 70
     0
 43
0.0
 10
169.4791413655885
 20
67.4636321273789
 10
169.5830946535328
 20
67.4636321273789
 42
0.525823641449903
 10
169.816574376828
 20
67.80300336889411
 10
169.2689905409881
 20
69.23354993292594
 10
168.9516291889226
 20
69.83101468181792
 42
0.2774356838908463
 10
168.7308438602034
 20
69.96373792102406
 10
167.3176884581426
 20
69.96373792102406
  0
LWPOLYLINE
  5
4DC
330
1F
100
AcDbEntity
  8
OBRYS
100
AcDbPolyline
 90
        2
 70
     0
 43
0.0
 10
169.6992829670961
 20
66.86349649384795
 10
169.6992829670961
 20
66.86349649384795
  0
LWPOLYLINE
  5
4DD
330
1F
100
AcDbEntity
  8
OBRYS
100
AcDbPolyline
 90
        2
 70
     0
 43
0.0
 10
169.4868928304302
 20
65.66374199110999
 10
169.4868928304302
 20
65.66374199110999
  0
LWPOLYLINE
  5
4DE
330
1F
100
AcDbEntity
  8
OBRYS
100
AcDbPolyline
 90
        2
 70
     0
 43
0.0
 10
169.4791413655885
 20
68.65890800598606
 10
169.4791413655885
 20
68.65890800598606
  0
LWPOLYLINE
  5
4DF
330
1F
100
AcDbEntity
  8
OBRYS
100
AcDbPolyline
 90
        2
 70
     0
 43
0.0
 10
169.4868928304302
 20
68.66338663011709
 10
169.4868928304302
 20
68.66338663011709
  0
LWPOLYLINE
  5
4E0
330
1F
100
AcDbEntity
  8
OBRYS
100
AcDbPolyline
 90
        2
 70
     0
 43
0.0
 10
169.6992829670961
 20
67.4636321273789
 10
169.6992829670961
 20
67.4636321273789
  0
LWPOLYLINE
  5
4E1
330
1F
100
AcDbEntity
  8
OBRYS
100
AcDbPolyline
 90
        2
 70
     0
 43
0.0
 10
75.33553380448885
 20
97.16328354139489
 10
75.33553380448885
 20
97.16328354139489
  0
LWPOLYLINE
  5
4E2
330
1F
100
AcDbEntity
  8
OBRYS
100
AcDbPolyline
 90
        2
 70
     0
 43
0.0
 10
75.54792394115455
 20
95.96387354820502
 10
75.54792394115455
 20
95.96387354820502
  0
LWPOLYLINE
  5
4E3
330
1F
100
AcDbEntity
  8
OBRYS
100
AcDbPolyline
 90
        2
 70
     0
 43
0.0
 10
75.55567540599648
 20
98.95852279875805
 10
75.55567540599648
 20
98.95852279875805
  0
LWPOLYLINE
  5
4E4
330
1F
100
AcDbEntity
  8
OBRYS
100
AcDbPolyline
 90
        2
 70
     0
 43
0.0
 10
75.54792394115455
 20
98.96351818721189
 10
75.54792394115455
 20
98.96386269676088
  0
LWPOLYLINE
  5
4E5
330
1F
100
AcDbEntity
  8
OBRYS
100
AcDbPolyline
 90
        2
 70
     0
 43
0.0
 10
75.33553380448885
 20
97.76376368447393
 10
75.33553380448885
 20
97.76376368447393
  0
LWPOLYLINE
  5
4E6
330
1F
100
AcDbEntity
  8
OBRYS
100
AcDbPolyline
 90
        2
 70
     0
 43
0.0
 10
75.33553380448885
 20
66.86349649384795
 10
75.33553380448885
 20
66.86349649384795
  0
LWPOLYLINE
  5
4E7
330
1F
100
AcDbEntity
  8
OBRYS
100
AcDbPolyline
 90
        2
 70
     0
 43
0.0
 10
75.54792394115455
 20
65.66374199110999
 10
75.54792394115455
 20
65.66374199110999
  0
LWPOLYLINE
  5
4E8
330
1F
100
AcDbEntity
  8
OBRYS
100
AcDbPolyline
 90
        2
 70
     0
 43
0.0
 10
75.33553380448885
 20
67.4636321273789
 10
75.33553380448885
 20
67.4636321273789
  0
LWPOLYLINE
  5
4E9
330
1F
100
AcDbEntity
  8
OBRYS
100
AcDbPolyline
 90
        7
 70
     0
 43
0.0
 10
75.55567540599648
 20
97.16397256049197
 10
75.45146601450998
 20
97.16364639651226
 42
0.5247214455279277
 10
75.21873968026583
 20
96.82435238649975
 10
75.76582623059656
 20
95.39371024539594
 10
76.08277080921837
 20
94.79664848350137
 42
0.2775069920927901
 10
76.30358719006406
 20
94.6638667668459
 10
77.71712831344215
 20
94.6638667668459
  0
LWPOLYLINE
  5
4EA
330
1F
100
AcDbEntity
  8
OBRYS
100
AcDbPolyline
 90
        7
 70
     0
 43
0.0
 10
75.55567540599648
 20
97.76376368447393
 10
75.45228821143738
 20
97.76376368447393
 42
-0.525751955619958
 10
75.21878841761045
 20
98.1030824746739
 10
75.76582623059656
 20
99.53316472569793
 10
76.08311109579952
 20
100.1310585415237
 42
-0.2775426205137559
 10
76.30394298529612
 20
100.26386947812
 10
77.71712831344215
 20
100.26386947812
  0
LWPOLYLINE
  5
4EB
330
1F
100
AcDbEntity
  8
OBRYS
100
AcDbPolyline
 90
        7
 70
     0
 43
0.0
 10
77.71712831344215
 20
64.36339070020188
 10
76.30396292467984
 20
64.36339070020188
 42
-0.2774713465551575
 10
76.08316206408975
 20
64.49614318439592
 10
75.76582623059656
 20
65.09375094307495
 10
75.21865663515601
 20
66.5241777036482
 42
-0.5257519556197878
 10
75.45215642898305
 20
66.86349649384795
 10
75.55567540599648
 20
66.86349649384795
  0
LWPOLYLINE
  5
4EC
330
1F
100
AcDbEntity
  8
OBRYS
100
AcDbPolyline
 90
        7
 70
     0
 43
0.0
 10
75.55567540599648
 20
67.4636321273789
 10
75.45258653382282
 20
67.4636321273789
 42
-0.5256554378022379
 10
75.21905973377002
 20
67.80288028510302
 10
75.76582623059656
 20
69.23354993292594
 10
76.0831875826623
 20
69.83101468181792
 42
-0.2774356838905651
 10
76.30397291138152
 20
69.96373792102406
 10
77.71712831344215
 20
69.96373792102406
  0
LWPOLYLINE
  5
4ED
330
1F
100
AcDbEntity
  8
OBRYS
100
AcDbPolyline
 90
        2
 70
     0
 43
0.0
 10
167.3176884581426
 20
62.56350056393387
 10
166.517220522145
 20
62.56350056393387
  0
LWPOLYLINE
  5
4EE
330
1F
100
AcDbEntity
  8
OBRYS
100
AcDbPolyline
 90
        2
 70
     0
 43
0.0
 10
166.517220522145
 20
82.26341782246288
 10
166.517220522145
 20
82.20864080424792
  0
LWPOLYLINE
  5
4EF
330
1F
100
AcDbEntity
  8
OBRYS
100
AcDbPolyline
 90
        2
 70
     0
 43
0.0
 10
166.517220522145
 20
76.18747516990209
 10
166.517220522145
 20
75.98008042169101
  0
LWPOLYLINE
  5
4F0
330
1F
100
AcDbEntity
  8
OBRYS
100
AcDbPolyline
 90
        2
 70
     0
 43
0.0
 10
166.517220522145
 20
75.15377426955308
 10
166.517220522145
 20
74.94672403088987
  0
LWPOLYLINE
  5
4F1
330
1F
100
AcDbEntity
  8
OBRYS
100
AcDbPolyline
 90
        2
 70
     0
 43
0.0
 10
167.3176884581426
 20
74.36364162001098
 10
166.517220522145
 20
74.36364162001098
  0
LWPOLYLINE
  5
4F2
330
1F
100
AcDbEntity
  8
OBRYS
100
AcDbPolyline
 90
        2
 70
     0
 43
0.0
 10
167.3176884581426
 20
66.86349649384795
 10
166.517220522145
 20
66.86349649384795
  0
LWPOLYLINE
  5
4F3
330
1F
100
AcDbEntity
  8
OBRYS
100
AcDbPolyline
 90
        2
 70
     0
 43
0.0
 10
77.71712831344215
 20
101.963507335768
 10
78.51759624943989
 20
101.963507335768
  0
LWPOLYLINE
  5
4F4
330
1F
100
AcDbEntity
  8
OBRYS
100
AcDbPolyline
 90
        2
 70
     0
 43
0.0
 10
78.51759624943989
 20
82.26341782246288
 10
78.51759624943989
 20
82.41827486452496
  0
LWPOLYLINE
  5
4F5
330
1F
100
AcDbEntity
  8
OBRYS
100
AcDbPolyline
 90
        2
 70
     0
 43
0.0
 10
77.71712831344215
 20
90.163883044013
 10
78.51759624943989
 20
90.163883044013
  0
LWPOLYLINE
  5
4F6
330
1F
100
AcDbEntity
  8
OBRYS
100
AcDbPolyline
 90
        2
 70
     0
 43
0.0
 10
77.71712831344215
 20
101.963507335768
 10
77.71712831344215
 20
101.963507335768
  0
LWPOLYLINE
  5
4F7
330
1F
100
AcDbEntity
  8
OBRYS
100
AcDbPolyline
 90
        2
 70
     0
 43
0.0
 10
77.71712831344215
 20
97.663511405853
 10
78.51759624943989
 20
97.663511405853
  0
LWPOLYLINE
  5
4F8
330
1F
100
AcDbEntity
  8
OBRYS
100
AcDbPolyline
 90
        2
 70
     0
 43
0.0
 10
166.517220522145
 20
62.31373114125302
 10
78.51759624943989
 20
62.31373114125302
  0
LWPOLYLINE
  5
4F9
330
1F
100
AcDbEntity
  8
OBRYS
100
AcDbPolyline
 90
        2
 70
     0
 43
0.0
 10
166.517220522145
 20
102.3135290370691
 10
78.51759624943989
 20
102.3135290370691
  0
LWPOLYLINE
  5
4FA
330
1F
100
AcDbEntity
  8
OBRYS
100
AcDbPolyline
 90
        2
 70
     0
 43
0.0
 10
78.51759624943989
 20
75.24972017881703
 10
166.517220522145
 20
75.24972017881703
  0
LWPOLYLINE
  5
4FB
330
1F
100
AcDbEntity
  8
OBRYS
100
AcDbPolyline
 90
        2
 70
     0
 43
0.0
 10
166.517220522145
 20
74.7534541741669
 10
78.51759624943989
 20
74.7534541741669
  0
LWPOLYLINE
  5
4FC
330
1F
100
AcDbEntity
  8
OBRYS
100
AcDbPolyline
 90
        2
 70
     0
 43
0.0
 10
78.51759624943989
 20
76.29082803445988
 10
166.517220522145
 20
76.29082803445988
  0
LWPOLYLINE
  5
4FD
330
1F
100
AcDbEntity
  8
OBRYS
100
AcDbPolyline
 90
        2
 70
     0
 43
0.0
 10
78.51759624943989
 20
75.98008042169101
 10
166.517220522145
 20
75.98008042169101
  0
LWPOLYLINE
  5
4FE
330
1F
100
AcDbEntity
  8
OBRYS
100
AcDbPolyline
 90
        2
 70
     0
 43
0.0
 10
78.51759624943989
 20
77.33365843784497
 10
166.517220522145
 20
77.33365843784497
  0
LWPOLYLINE
  5
4FF
330
1F
100
AcDbEntity
  8
OBRYS
100
AcDbPolyline
 90
        2
 70
     0
 43
0.0
 10
78.51759624943989
 20
77.01464259591091
 10
166.517220522145
 20
77.01464259591091
  0
LWPOLYLINE
  5
500
330
1F
100
AcDbEntity
  8
OBRYS
100
AcDbPolyline
 90
        2
 70
     0
 43
0.0
 10
78.51759624943989
 20
78.37752236987592
 10
166.517220522145
 20
78.37752236987592
  0
LWPOLYLINE
  5
501
330
1F
100
AcDbEntity
  8
OBRYS
100
AcDbPolyline
 90
        2
 70
     0
 43
0.0
 10
78.51759624943989
 20
78.05196084652005
 10
166.517220522145
 20
78.05196084652005
  0
LWPOLYLINE
  5
502
330
1F
100
AcDbEntity
  8
OBRYS
100
AcDbPolyline
 90
        2
 70
     0
 43
0.0
 10
78.51759624943989
 20
79.42310884964888
 10
166.517220522145
 20
79.42310884964888
  0
LWPOLYLINE
  5
503
330
1F
100
AcDbEntity
  8
OBRYS
100
AcDbPolyline
 90
        2
 70
     0
 43
0.0
 10
78.51759624943989
 20
79.09014037100007
 10
166.517220522145
 20
79.09014037100007
  0
LWPOLYLINE
  5
504
330
1F
100
AcDbEntity
  8
OBRYS
100
AcDbPolyline
 90
        2
 70
     0
 43
0.0
 10
78.51759624943989
 20
80.46955660329388
 10
166.517220522145
 20
80.46955660329388
  0
LWPOLYLINE
  5
505
330
1F
100
AcDbEntity
  8
OBRYS
100
AcDbPolyline
 90
        2
 70
     0
 43
0.0
 10
78.51759624943989
 20
80.12900891457696
 10
166.517220522145
 20
80.12900891457696
  0
LWPOLYLINE
  5
506
330
1F
100
AcDbEntity
  8
OBRYS
100
AcDbPolyline
 90
        2
 70
     0
 43
0.0
 10
78.51759624943989
 20
81.51652112126101
 10
166.517220522145
 20
81.51652112126101
  0
LWPOLYLINE
  5
507
330
1F
100
AcDbEntity
  8
OBRYS
100
AcDbPolyline
 90
        2
 70
     0
 43
0.0
 10
78.51759624943989
 20
81.16908324157396
 10
166.517220522145
 20
81.16908324157396
  0
LWPOLYLINE
  5
508
330
1F
100
AcDbEntity
  8
OBRYS
100
AcDbPolyline
 90
        2
 70
     0
 43
0.0
 10
166.517220522145
 20
90.31340018807293
 10
78.51759624943989
 20
90.31340018807293
  0
LWPOLYLINE
  5
509
330
1F
100
AcDbEntity
  8
OBRYS
100
AcDbPolyline
 90
        2
 70
     0
 43
0.0
 10
78.51759624943989
 20
88.83390393193201
 10
166.517220522145
 20
88.83390393193201
  0
LWPOLYLINE
  5
50A
330
1F
100
AcDbEntity
  8
OBRYS
100
AcDbPolyline
 90
        2
 70
     0
 43
0.0
 10
166.517220522145
 20
89.37788450905293
 10
78.51759624943989
 20
89.37788450905293
  0
LWPOLYLINE
  5
50B
330
1F
100
AcDbEntity
  8
OBRYS
100
AcDbPolyline
 90
        2
 70
     0
 43
0.0
 10
78.51759624943989
 20
87.79210705719208
 10
166.517220522145
 20
87.79210705719208
  0
LWPOLYLINE
  5
50C
330
1F
100
AcDbEntity
  8
OBRYS
100
AcDbPolyline
 90
        2
 70
     0
 43
0.0
 10
78.51759624943989
 20
86.74824312516205
 10
166.517220522145
 20
86.74824312516205
  0
LWPOLYLINE
  5
50D
330
1F
100
AcDbEntity
  8
OBRYS
100
AcDbPolyline
 90
        2
 70
     0
 43
0.0
 10
78.51759624943989
 20
85.70334566448503
 10
166.517220522145
 20
85.70334566448503
  0
LWPOLYLINE
  5
50E
330
1F
100
AcDbEntity
  8
OBRYS
100
AcDbPolyline
 90
        2
 70
     0
 43
0.0
 10
78.51759624943989
 20
84.65724242038903
 10
166.517220522145
 20
84.65724242038903
  0
LWPOLYLINE
  5
50F
330
1F
100
AcDbEntity
  8
OBRYS
100
AcDbPolyline
 90
        2
 70
     0
 43
0.0
 10
78.51759624943989
 20
83.61062241196998
 10
166.517220522145
 20
83.61062241196998
  0
LWPOLYLINE
  5
510
330
1F
100
AcDbEntity
  8
OBRYS
100
AcDbPolyline
 90
        2
 70
     0
 43
0.0
 10
78.51759624943989
 20
82.56365789400309
 10
166.517220522145
 20
82.56365789400309
  0
LWPOLYLINE
  5
511
330
1F
100
AcDbEntity
  8
OBRYS
100
AcDbPolyline
 90
        2
 70
     0
 43
0.0
 10
78.51759624943989
 20
74.31351548070108
 10
166.517220522145
 20
74.31351548070108
  0
LWPOLYLINE
  5
512
330
1F
100
AcDbEntity
  8
OBRYS
100
AcDbPolyline
 90
        2
 70
     0
 43
0.0
 10
78.51759624943989
 20
82.209329823345
 10
166.517220522145
 20
82.209329823345
  0
LWPOLYLINE
  5
513
330
1F
100
AcDbEntity
  8
OBRYS
100
AcDbPolyline
 90
        2
 70
     0
 43
0.0
 10
166.517220522145
 20
66.81354260931187
 10
78.51759624943989
 20
66.81354260931187
  0
LWPOLYLINE
  5
514
330
1F
100
AcDbEntity
  8
OBRYS
100
AcDbPolyline
 90
        2
 70
     0
 43
0.0
 10
166.517220522145
 20
97.81337305946101
 10
78.51759624943989
 20
97.81337305946101
  0
LWPOLYLINE
  5
515
330
1F
100
AcDbEntity
  8
OBRYS
100
AcDbPolyline
 90
        2
 70
     0
 43
0.0
 10
78.51759624943989
 20
83.24905964079392
 10
166.517220522145
 20
83.24905964079392
  0
LWPOLYLINE
  5
516
330
1F
100
AcDbEntity
  8
OBRYS
100
AcDbPolyline
 90
        2
 70
     0
 43
0.0
 10
78.51759624943989
 20
84.28930622256496
 10
166.517220522145
 20
84.28930622256496
  0
LWPOLYLINE
  5
517
330
1F
100
AcDbEntity
  8
OBRYS
100
AcDbPolyline
 90
        2
 70
     0
 43
0.0
 10
78.51759624943989
 20
85.32869153046397
 10
166.517220522145
 20
85.32869153046397
  0
LWPOLYLINE
  5
518
330
1F
100
AcDbEntity
  8
OBRYS
100
AcDbPolyline
 90
        2
 70
     0
 43
0.0
 10
78.51759624943989
 20
86.366871054944
 10
166.517220522145
 20
86.366871054944
  0
LWPOLYLINE
  5
519
330
1F
100
AcDbEntity
  8
OBRYS
100
AcDbPolyline
 90
        2
 70
     0
 43
0.0
 10
78.51759624943989
 20
87.40401705077909
 10
166.517220522145
 20
87.40401705077909
  0
LWPOLYLINE
  5
51A
330
1F
100
AcDbEntity
  8
OBRYS
100
AcDbPolyline
 90
        2
 70
     0
 43
0.0
 10
78.51759624943989
 20
88.43944049887102
 10
166.517220522145
 20
88.43944049887102
  0
LWPOLYLINE
  5
51B
330
1F
100
AcDbEntity
  8
OBRYS
100
AcDbPolyline
 90
        2
 70
     0
 43
0.0
 10
78.51759624943989
 20
89.680880656981
 10
166.517220522145
 20
89.680880656981
  0
LWPOLYLINE
  5
51C
330
1F
100
AcDbEntity
  8
OBRYS
100
AcDbPolyline
 90
        5
 70
     0
 43
0.0
 10
114.8292471735217
 20
51.63875827065806
 10
114.9989181261704
 20
51.73849378495595
 10
115.145679193842
 20
51.86975192294392
 10
115.2643627333089
 20
52.02719278662005
 10
115.3492843370202
 20
52.20461520410993
  0
LWPOLYLINE
  5
51D
330
1F
100
AcDbEntity
  8
OBRYS
100
AcDbPolyline
 90
        3
 70
     0
 43
0.0
 10
113.2572501036023
 20
51.01330118531098
 10
113.4722240618819
 20
51.03655557983609
 10
113.6768627337058
 20
51.10562974431593
  0
LWPOLYLINE
  5
51E
330
1F
100
AcDbEntity
  8
OBRYS
100
AcDbPolyline
 90
        2
 70
     0
 43
0.0
 10
168.5904789851681
 20
54.81375826986402
 10
168.4180519561316
 20
54.81375826986402
  0
LWPOLYLINE
  5
51F
330
1F
100
AcDbEntity
  8
OBRYS
100
AcDbPolyline
 90
        2
 70
     0
 43
0.0
 10
166.517220522145
 20
54.81375826986402
 10
166.517220522145
 20
58.74650702105089
  0
LWPOLYLINE
  5
520
330
1F
100
AcDbEntity
  8
OBRYS
100
AcDbPolyline
 90
        2
 70
     0
 43
0.0
 10
166.517220522145
 20
62.31373114125302
 10
166.517220522145
 20
62.31373114125302
  0
LWPOLYLINE
  5
521
330
1F
100
AcDbEntity
  8
OBRYS
100
AcDbPolyline
 90
        3
 70
     0
 43
0.0
 10
166.517220522145
 20
54.81375826986402
 10
168.0172150964226
 20
56.07207939585089
 10
168.0172150964226
 20
56.17405422221498
  0
LWPOLYLINE
  5
522
330
1F
100
AcDbEntity
  8
OBRYS
100
AcDbPolyline
 90
        2
 70
     0
 43
0.0
 10
105.0170984672075
 20
54.35469929645399
 10
105.0463817788321
 20
54.28390258423303
  0
LWPOLYLINE
  5
523
330
1F
100
AcDbEntity
  8
OBRYS
100
AcDbPolyline
 90
        3
 70
     0
 43
0.0
 10
128.4101580859251
 20
58.34015800856594
 10
128.420493372381
 20
58.31500881152408
 10
128.4366853211615
 20
58.29347696474008
  0
LWPOLYLINE
  5
524
330
1F
100
AcDbEntity
  8
OBRYS
100
AcDbPolyline
 90
        2
 70
     0
 43
0.0
 10
113.6768627337058
 20
51.10562974431593
 10
114.8295916830703
 20
51.63875827065806
  0
LWPOLYLINE
  5
525
330
1F
100
AcDbEntity
  8
OBRYS
100
AcDbPolyline
 90
        2
 70
     0
 43
0.0
 10
115.3496288465687
 20
52.20427069456093
 10
117.9916725742069
 20
59.46360364630607
  0
LWPOLYLINE
  5
526
330
1F
100
AcDbEntity
  8
OBRYS
100
AcDbPolyline
 90
       14
 70
     0
 43
0.0
 10
109.7674823092732
 20
55.41337713907194
 10
110.4676979666503
 20
55.41337713907194
 42
-0.414213562373095
 10
110.7176979666503
 20
55.16337713907194
 10
110.7176979666503
 20
54.16338256479401
 42
0.4142135623732282
 10
110.9676979666503
 20
53.91338256479401
 10
111.2674768835513
 20
53.91338256479401
 42
-0.4142135623732282
 10
111.5174768835513
 20
53.66338256479401
 10
111.5174768835513
 20
52.48870577335822
 42
-0.3155564368973375
 10
111.35276168073
 20
52.25370257472002
 10
111.1819642219145
 20
52.19171862421206
 42
0.315556436897258
 10
111.0172490190928
 20
51.95671542557363
 10
111.0172490190928
 20
51.26364569485929
 42
0.4142135623729619
 10
111.2672490190927
 20
51.01364569485929
 10
113.2572501036023
 20
51.01364569485906
  0
LWPOLYLINE
  5
527
330
1F
100
AcDbEntity
  8
OBRYS
100
AcDbPolyline
 90
        2
 70
     0
 43
0.0
 10
105.0174429767558
 20
54.35469929645399
 10
105.0174429767558
 20
54.41361042925189
  0
LWPOLYLINE
  5
528
330
1F
100
AcDbEntity
  8
OBRYS
100
AcDbPolyline
 90
        6
 70
     0
 43
0.0
 10
108.0176043800857
 20
55.41337713907194
 10
109.7674823092732
 20
55.41337713907194
 42
-0.4142135623732282
 10
110.0174823092732
 20
55.16337713907194
 10
110.0174823092732
 20
49.16497673113315
 42
0.4125091737027842
 10
110.2660266546262
 20
48.9149809690299
 10
110.5177101737314
 20
48.90990040246186
  0
LWPOLYLINE
  5
529
330
1F
100
AcDbEntity
  8
OBRYS
100
AcDbPolyline
 90
        7
 70
     0
 43
0.0
 10
141.4174606000345
 20
55.05543171815395
 10
141.3966177723487
 20
55.25748656836402
 10
141.3356395822598
 20
55.45161769895788
 10
141.2364208322845
 20
55.62904011644798
 10
141.1034401465538
 20
55.78286362986489
 10
140.9422096778442
 20
55.90654255778497
 10
140.7591028528031
 20
55.99525376653094
  0
LWPOLYLINE
  5
52A
330
1F
100
AcDbEntity
  8
OBRYS
100
AcDbPolyline
 90
        2
 70
     0
 43
0.0
 10
140.7591028528031
 20
55.99525376653094
 10
140.0757681633038
 20
56.24381740579099
  0
LWPOLYLINE
  5
52B
330
1F
100
AcDbEntity
  8
OBRYS
100
AcDbPolyline
 90
        3
 70
     0
 43
0.0
 10
140.0172015400546
 20
56.26655503599397
 10
140.0461403421307
 20
56.25449720179597
 10
140.0754236537553
 20
56.24312838669391
  0
LWPOLYLINE
  5
52C
330
1F
100
AcDbEntity
  8
OBRYS
100
AcDbPolyline
 90
        8
 70
     0
 43
0.0
 10
139.4175826708469
 20
57.38328273753802
 10
139.4175826708469
 20
60.73479559501709
 42
-0.4836672144663662
 10
139.7863230491854
 20
61.02681401975394
 10
144.2860978960009
 20
59.96757871401235
 42
-0.3480111850547431
 10
144.5173575176624
 20
59.67556028927527
 10
144.5173575176623
 20
55.11375826986398
 42
0.414213562373428
 10
144.8173575176623
 20
54.81375826986402
 10
166.517220522145
 20
54.81375826986402
  0
LWPOLYLINE
  5
52D
330
1F
100
AcDbEntity
  8
OBRYS
100
AcDbPolyline
 90
        7
 70
     0
 43
0.0
 10
126.7856233098558
 20
55.76339884037304
 10
127.0562355602219
 20
55.81524752742587
 10
127.3172015432296
 20
55.90344197184902
 10
127.563525870425
 20
56.02694864499506
 10
127.7903854081287
 20
56.18283921570207
 10
127.9939905513069
 20
56.36870211713097
 10
128.1695181662804
 20
56.58040323469993
  0
LWPOLYLINE
  5
52E
330
1F
100
AcDbEntity
  8
OBRYS
100
AcDbPolyline
 90
        4
 70
     0
 43
0.0
 10
128.1700349306033
 20
56.58074774424892
 10
128.8499818270376
 20
57.52545930585291
 42
0.3678797016628993
 10
128.8184528373335
 20
57.91301168793359
 10
128.43702983071
 20
58.29382147428908
  0
LWPOLYLINE
  5
52F
330
1F
100
AcDbEntity
  8
OBRYS
100
AcDbPolyline
 90
       10
 70
     0
 43
0.0
 10
128.4108471050222
 20
58.34050251811402
 10
127.8106615243759
 20
60.74086047593403
 42
-0.4879400266617023
 10
128.1017015328198
 20
61.11363212896606
 10
128.9173439581191
 20
61.11363212896606
 42
-0.4142135623728732
 10
129.2173439581192
 20
60.81363212896611
 10
129.2173439581192
 20
60.21353311667883
 42
0.414213562373872
 10
129.5173439581191
 20
59.91353311667888
 10
138.3171147348492
 20
59.91353311667888
 42
-0.414213562373206
 10
138.6171147348493
 20
59.61353311667892
 10
138.6171147348491
 20
57.38328273753802
  0
LWPOLYLINE
  5
530
330
1F
100
AcDbEntity
  8
OBRYS
100
AcDbPolyline
 90
        5
 70
     0
 43
0.0
 10
139.6175704637657
 20
54.31353040540591
 10
139.4263159822949
 20
54.31353040540591
 42
0.4574379185147027
 10
139.1294768766783
 20
53.97009602528226
 10
139.1509322802885
 20
53.82346557262906
 10
139.2472226991012
 20
53.615037295771
  0
LWPOLYLINE
  5
531
330
1F
100
AcDbEntity
  8
OBRYS
100
AcDbPolyline
 90
        6
 70
     0
 43
0.0
 10
139.2468781895527
 20
53.61469278622292
 10
140.328769724462
 20
51.94994852675006
 42
0.2538783936153234
 10
140.5803160812827
 20
51.81342461176007
 10
170.4865973365554
 20
51.81342461176007
 42
0.5363848947619309
 10
170.7630877603627
 20
52.22984216002044
 10
166.517220522145
 20
62.31373114125302
  0
LWPOLYLINE
  5
532
330
1F
100
AcDbEntity
  8
OBRYS
100
AcDbPolyline
 90
       25
 70
     0
 43
0.0
 10
119.3176898264796
 20
59.23019842717997
 10
119.3176898264796
 20
55.79513075296006
 42
0.3381495855721574
 10
119.5018553221779
 20
55.55395484611324
 10
119.7760034204737
 20
55.47911982468634
 42
-0.4141040482018554
 10
119.9513694229463
 20
55.17219959845113
 10
119.7173209027685
 20
54.31353040540591
 10
119.2498962404988
 20
53.84568426012208
 42
0.3521401432927004
 10
119.2161927956132
 20
53.53421122621523
 10
120.2438882891732
 20
51.92864859017993
 42
0.2557209825123939
 10
120.4544480764238
 20
51.81342461176007
 10
121.1520105877733
 20
51.81342461176007
 42
0.2689990366824321
 10
121.3690049068621
 20
51.93927363317687
 10
121.7080693289201
 20
52.53189927520896
 10
121.9984908783265
 20
52.96167493699397
 10
122.3199182871004
 20
53.36836845902792
 10
122.6708012622733
 20
53.75042954834191
 10
123.0490727465537
 20
54.10492987377404
 10
123.4526656826506
 20
54.43066365190396
 10
123.8795130132731
 20
54.72521931589301
 10
124.3272031715813
 20
54.98687431799806
 10
124.7928078264129
 20
55.21476738434706
 10
125.2744321752507
 20
55.40752047674698
 10
125.7689756321584
 20
55.56375555700299
 10
126.273337611199
 20
55.68261135124396
 10
126.7856233098558
 20
55.76374334992204
  0
LWPOLYLINE
  5
533
330
1F
100
AcDbEntity
  8
OBRYS
100
AcDbPolyline
 90
        6
 70
     0
 43
0.0
 10
166.9018654330729
 20
58.82367715992098
 10
169.2571824094021
 20
53.22995569516127
 42
-0.5363875911034958
 10
168.980692960673
 20
52.81353583112798
 10
141.7174606000345
 20
52.81353583112798
 42
-0.414213562373095
 10
141.4174606000345
 20
53.11353583112793
 10
141.4174606000345
 20
55.05543171815395
  0
LWPOLYLINE
  5
534
330
1F
100
AcDbEntity
  8
OBRYS
100
AcDbPolyline
 90
        2
 70
     0
 43
0.0
 10
146.5172354468498
 20
62.31373114125302
 10
146.5172354468498
 20
62.31373114125302
  0
LWPOLYLINE
  5
535
330
1F
100
AcDbEntity
  8
OBRYS
100
AcDbPolyline
 90
        2
 70
     0
 43
0.0
 10
165.0175704574156
 20
62.31373114125302
 10
165.0175704574156
 20
62.31373114125302
  0
LWPOLYLINE
  5
536
330
1F
100
AcDbEntity
  8
OBRYS
100
AcDbPolyline
 90
        2
 70
     0
 43
0.0
 10
78.51759624943989
 20
62.31373114125302
 10
78.51759624943989
 20
54.81375826986402
  0
LWPOLYLINE
  5
537
330
1F
100
AcDbEntity
  8
OBRYS
100
AcDbPolyline
 90
        2
 70
     0
 43
0.0
 10
80.01724631416928
 20
62.31373114125302
 10
80.01724631416928
 20
62.31373114125302
  0
LWPOLYLINE
  5
538
330
1F
100
AcDbEntity
  8
OBRYS
100
AcDbPolyline
 90
        2
 70
     0
 43
0.0
 10
167.0174483866032
 20
52.81353583112798
 10
168.4180519561316
 20
54.81375826986402
  0
LWPOLYLINE
  5
539
330
1F
100
AcDbEntity
  8
OBRYS
100
AcDbPolyline
 90
       12
 70
     0
 43
0.0
 10
78.51759624943989
 20
54.81375826986402
 10
100.2674592539225
 20
54.81375826986402
 42
-0.4142135623732282
 10
100.5174592539225
 20
54.56375826986402
 10
100.5174592539227
 20
52.06342461176007
 42
0.4142135623732282
 10
100.7674592539227
 20
51.81342461176007
 10
104.2624365009401
 20
51.81342461176007
 42
0.3589784147481687
 10
104.5078334422283
 20
52.01567169345788
 10
104.5264627029748
 20
52.1114053945206
 42
-0.358978414747413
 10
104.7718596442631
 20
52.31365247621795
 10
105.5687927685201
 20
52.31365247621795
 42
0.6681786379193959
 10
105.993056837232
 20
53.33791654492995
 10
105.0467262883806
 20
54.28424709378089
  0
LWPOLYLINE
  5
53A
330
1F
100
AcDbEntity
  8
OBRYS
100
AcDbPolyline
 90
        2
 70
     0
 43
0.0
 10
78.51759624943989
 20
102.3138735466169
 10
78.51759624943989
 20
102.3135290370691
  0
LWPOLYLINE
  5
53B
330
1F
100
AcDbEntity
  8
OBRYS
100
AcDbPolyline
 90
        2
 70
     0
 43
0.0
 10
166.517220522145
 20
102.3135290370691
 10
166.517220522145
 20
102.3138735466169
  0
LWPOLYLINE
  5
53C
330
1F
100
AcDbEntity
  8
OBRYS
100
AcDbPolyline
 90
        2
 70
     0
 43
0.0
 10
77.71712831344215
 20
62.56350056393387
 10
78.51759624943989
 20
62.56350056393387
  0
LWPOLYLINE
  5
53D
330
1F
100
AcDbEntity
  8
OBRYS
100
AcDbPolyline
 90
        4
 70
     0
 43
0.0
 10
70.71721105173722
 20
62.76366061162696
 10
69.71744434191797
 20
62.94004950047099
 10
69.71744434191797
 20
63.38722289445707
 10
70.71721105173722
 20
63.56361178330201
  0
LWPOLYLINE
  5
53E
330
1F
100
AcDbEntity
  8
OBRYS
100
AcDbPolyline
 90
        2
 70
     0
 43
0.0
 10
78.51759624943989
 20
82.26341782246288
 10
77.71712831344215
 20
82.26341782246288
  0
LWPOLYLINE
  5
53F
330
1F
100
AcDbEntity
  8
OBRYS
100
AcDbPolyline
 90
        2
 70
     0
 43
0.0
 10
70.71721105173722
 20
62.76366061162696
 10
77.71712831344215
 20
62.76366061162696
  0
LWPOLYLINE
  5
540
330
1F
100
AcDbEntity
  8
OBRYS
100
AcDbPolyline
 90
        2
 70
     0
 43
0.0
 10
78.51759624943989
 20
77.01464259591091
 10
78.51759624943989
 20
77.22358763709087
  0
LWPOLYLINE
  5
541
330
1F
100
AcDbEntity
  8
OBRYS
100
AcDbPolyline
 90
        2
 70
     0
 43
0.0
 10
78.51759624943989
 20
82.20864080424792
 10
78.51759624943989
 20
82.26341782246288
  0
LWPOLYLINE
  5
542
330
1F
100
AcDbEntity
  8
OBRYS
100
AcDbPolyline
 90
        2
 70
     0
 43
0.0
 10
71.21743891619556
 20
63.56361178330201
 10
71.21743891619556
 20
62.76366061162696
  0
LWPOLYLINE
  5
543
330
1F
100
AcDbEntity
  8
OBRYS
100
AcDbPolyline
 90
        2
 70
     0
 43
0.0
 10
77.71712831344215
 20
66.86349649384795
 10
78.51759624943989
 20
66.86349649384795
  0
LWPOLYLINE
  5
544
330
1F
100
AcDbEntity
  8
OBRYS
100
AcDbPolyline
 90
        2
 70
     0
 43
0.0
 10
77.71712831344215
 20
74.36364162001098
 10
78.51759624943989
 20
74.36364162001098
  0
LWPOLYLINE
  5
545
330
1F
100
AcDbEntity
  8
OBRYS
100
AcDbPolyline
 90
        2
 70
     0
 43
0.0
 10
166.517220522145
 20
82.26341782246288
 10
167.3176884581426
 20
82.26341782246288
  0
LWPOLYLINE
  5
546
330
1F
100
AcDbEntity
  8
OBRYS
100
AcDbPolyline
 90
        2
 70
     0
 43
0.0
 10
167.3176884581426
 20
101.963507335768
 10
166.517220522145
 20
101.963507335768
  0
LWPOLYLINE
  5
547
330
1F
100
AcDbEntity
  8
OBRYS
100
AcDbPolyline
 90
        2
 70
     0
 43
0.0
 10
166.517220522145
 20
84.49825126374492
 10
166.517220522145
 20
84.28930622256496
  0
LWPOLYLINE
  5
548
330
1F
100
AcDbEntity
  8
OBRYS
100
AcDbPolyline
 90
        2
 70
     0
 43
0.0
 10
167.3176884581426
 20
90.163883044013
 10
166.517220522145
 20
90.163883044013
  0
LWPOLYLINE
  5
549
330
1F
100
AcDbEntity
  8
OBRYS
100
AcDbPolyline
 90
        2
 70
     0
 43
0.0
 10
167.3176884581426
 20
97.663511405853
 10
166.517220522145
 20
97.663511405853
  0
LWPOLYLINE
  5
54A
330
1F
100
AcDbEntity
  8
OBRYS
100
AcDbPolyline
 90
        2
 70
     0
 43
0.0
 10
167.3176884581426
 20
101.963507335768
 10
167.3176884581426
 20
101.963507335768
  0
LWPOLYLINE
  5
54B
330
1F
100
AcDbEntity
  8
OBRYS
100
AcDbPolyline
 90
        2
 70
     0
 43
0.0
 10
166.517220522145
 20
101.963507335768
 10
166.517220522145
 20
101.963507335768
  0
LWPOLYLINE
  5
54C
330
1F
100
AcDbEntity
  8
OBRYS
100
AcDbPolyline
 90
        2
 70
     0
 43
0.0
 10
114.6172015464047
 20
51.54057304932792
 10
114.6172015464047
 20
50.41351006132902
  0
LWPOLYLINE
  5
54D
330
1F
100
AcDbEntity
  8
OBRYS
100
AcDbPolyline
 90
        2
 70
     0
 43
0.0
 10
119.4172530860033
 20
50.41351006132902
 10
119.4172530860033
 20
53.21988484361293
  0
LWPOLYLINE
  5
54E
330
1F
100
AcDbEntity
  8
OBRYS
100
AcDbPolyline
 90
        2
 70
     0
 43
0.0
 10
119.4172530860033
 20
54.01329033386594
 10
119.4172530860033
 20
55.47314954574097
  0
LWPOLYLINE
  5
54F
330
1F
100
AcDbEntity
  8
OBRYS
100
AcDbPolyline
 90
        4
 70
     0
 43
0.0
 10
140.0172015400546
 20
57.38328273753802
 10
140.0172015400546
 20
57.20947767030691
 10
140.0172015400546
 20
55.65298353007108
 10
140.0172015400546
 20
54.41361042925189
  0
LWPOLYLINE
  5
550
330
1F
100
AcDbEntity
  8
OBRYS
100
AcDbPolyline
 90
        2
 70
     0
 43
0.0
 10
137.017212391499
 20
55.65298353007108
 10
137.017212391499
 20
54.41361042925189
  0
LWPOLYLINE
  5
551
330
1F
100
AcDbEntity
  8
OBRYS
100
AcDbPolyline
 90
        2
 70
     0
 43
0.0
 10
137.017212391499
 20
57.20947767030691
 10
137.017212391499
 20
55.65298353007108
  0
LWPOLYLINE
  5
552
330
1F
100
AcDbEntity
  8
OBRYS
100
AcDbPolyline
 90
        2
 70
     0
 43
0.0
 10
137.017212391499
 20
57.38328273753802
 10
137.017212391499
 20
57.20947767030691
  0
LWPOLYLINE
  5
553
330
1F
100
AcDbEntity
  8
OBRYS
100
AcDbPolyline
 90
        6
 70
     0
 43
0.0
 10
137.017212391499
 20
55.41337713907194
 10
135.3173344623115
 20
55.41337713907194
 42
0.414213562373428
 10
135.0173344623115
 20
55.11337713907199
 10
135.0173344623115
 20
49.21427073622078
 42
-0.4131123223598102
 10
134.7184628592342
 20
48.91427285836096
 10
134.5171065978531
 20
48.91351548705109
  0
LWPOLYLINE
  5
556
330
1F
100
AcDbEntity
  8
OBRYS
100
AcDbPolyline
 90
        2
 70
     0
 43
0.0
 10
108.0176043800857
 20
54.41361042925189
 10
108.0176043800857
 20
57.38328273753802
  0
LWPOLYLINE
  5
558
330
1F
100
AcDbEntity
  8
OBRYS
100
AcDbPolyline
 90
       11
 70
     0
 43
0.0
 10
140.0172015400546
 20
54.41361042925189
 10
137.017212391499
 20
54.41361042925189
 10
136.3174456816795
 20
54.41361042925189
 42
0.4142135623738721
 10
136.0174456816796
 20
54.11361042925193
 10
136.0174456816796
 20
48.2134042676829
 42
-0.4142135623733169
 10
135.7174456816796
 20
47.91340426768295
 10
109.2673710899053
 20
47.91340426768295
 42
-0.4142135623732282
 10
109.0173710899053
 20
48.16340426768295
 10
109.0173710899054
 20
54.16361042925189
 42
0.4142135623732282
 10
108.7673710899054
 20
54.41361042925189
 10
105.0174429767558
 20
54.41361042925189
  0
LWPOLYLINE
  5
559
330
1F
100
AcDbEntity
  8
OBRYS
100
AcDbPolyline
 90
        4
 70
     0
 43
0.0
 10
105.0174429767558
 20
54.41361042925189
 10
105.0174429767558
 20
55.65298353007108
 10
105.0174429767558
 20
57.20947767030691
 10
105.0174429767558
 20
57.38328273753802
  0
LWPOLYLINE
  5
55A
330
1F
100
AcDbEntity
  8
OBRYS
100
AcDbPolyline
 90
        2
 70
     0
 43
0.0
 10
130.417442970406
 20
50.41351006132902
 10
130.417442970406
 20
55.47314954574097
  0
LWPOLYLINE
  5
55B
330
1F
100
AcDbEntity
  8
OBRYS
100
AcDbPolyline
 90
        2
 70
     0
 43
0.0
 10
125.6175636855816
 20
55.47314954574097
 10
125.6175636855816
 20
50.41351006132902
  0
LWPOLYLINE
  5
55C
330
1F
100
AcDbEntity
  8
OBRYS
100
AcDbPolyline
 90
        2
 70
     0
 43
0.0
 10
134.5171065978531
 20
50.41351006132902
 10
110.5177101737314
 20
50.41351006132902
  0
LWPOLYLINE
  5
55E
330
1F
100
AcDbEntity
  8
OBRYS
100
AcDbPolyline
 90
        2
 70
     0
 43
0.0
 10
134.5171065978531
 20
50.41351006132902
 10
134.5171065978531
 20
47.91340426768295
  0
LWPOLYLINE
  5
55F
330
1F
100
AcDbEntity
  8
OBRYS
100
AcDbPolyline
 90
        2
 70
     0
 43
0.0
 10
110.5177101737314
 20
47.91340426768295
 10
110.5177101737314
 20
50.41351006132902
  0
LWPOLYLINE
  5
561
330
1F
100
AcDbEntity
  8
OBRYS
100
AcDbPolyline
 90
        3
 70
     0
 43
0.0
 10
119.4172530860033
 20
55.47314954574097
 10
118.9171974763192
 20
55.96562594535692
 10
116.71802077331
 20
55.96562594535692
  0
LWPOLYLINE
  5
562
330
1F
100
AcDbEntity
  8
OBRYS
100
AcDbPolyline
 90
        2
 70
     0
 43
0.0
 10
125.6175636855816
 20
55.47314954574097
 10
125.6849153023182
 20
55.53981214337989
  0
LWPOLYLINE
  5
563
330
1F
100
AcDbEntity
  8
OBRYS
100
AcDbPolyline
 90
        2
 70
     0
 43
0.0
 10
128.9174483961282
 20
56.91974513999696
 10
130.417442970406
 20
55.47314954574097
  0
LWPOLYLINE
  5
564
330
1F
100
AcDbEntity
  8
OBRYS
100
AcDbPolyline
 90
        2
 70
     0
 43
0.0
 10
129.9175596154961
 20
55.96562594535692
 10
127.4513880123802
 20
55.96562594535692
  0
LWPOLYLINE
  5
565
330
1F
100
AcDbEntity
  8
OBRYS
100
AcDbPolyline
 90
        3
 70
     0
 43
0.0
 10
118.9171974763192
 20
55.96562594535692
 10
117.9174307664997
 20
56.91974513999696
 10
117.0656309077717
 20
56.91974513999696
  0
LWPOLYLINE
  5
566
330
1F
100
AcDbEntity
  8
OBRYS
100
AcDbPolyline
 90
        2
 70
     0
 43
0.0
 10
140.0172015400546
 20
57.38328273753802
 10
137.017212391499
 20
57.38328273753802
  0
LWPOLYLINE
  5
567
330
1F
100
AcDbEntity
  8
OBRYS
100
AcDbPolyline
 90
        2
 70
     0
 43
0.0
 10
108.0176043800857
 20
57.38328273753802
 10
105.0174429767558
 20
57.38328273753802
  0
LWPOLYLINE
  5
568
330
1F
100
AcDbEntity
  8
OBRYS
100
AcDbPolyline
 90
        2
 70
     0
 43
0.0
 10
128.9174483961282
 20
56.91974513999696
 10
128.4137754361847
 20
56.91974513999696
  0
LWPOLYLINE
  5
56B
330
1F
100
AcDbEntity
  8
OBRYS
100
AcDbPolyline
 90
        2
 70
     0
 43
0.0
 10
139.6175704637657
 20
54.31353040540591
 10
139.653916221135
 20
54.41361042925189
  0
LINE
  5
56C
330
1F
100
AcDbEntity
  8
OBRYS
100
AcDbLine
 10
70.71721105173722
 20
63.56361178330201
 30
0.0
 11
77.71712831344215
 21
63.56361178330201
 31
0.0
  0
LINE
  5
56D
330
1F
100
AcDbEntity
  8
OBRYS
100
AcDbLine
 10
75.55567540599648
 20
66.86349649384795
 30
0.0
 11
75.55567540599648
 21
67.4636321273789
 31
0.0
  0
LINE
  5
56E
330
1F
100
AcDbEntity
  8
OBRYS
100
AcDbLine
 10
75.55567540599648
 20
97.16397256049197
 30
0.0
 11
75.55567540599648
 21
97.76376368447393
 31
0.0
  0
ELLIPSE
  5
56F
330
1F
100
AcDbEntity
  8
OBRYS
100
AcDbEllipse
 10
118.6546812003433
 20
59.34690103674291
 30
0.0
 11
-0.6630086261363886
 21
0.1167026095631627
 31
0.0
210
0.0
220
0.0
230
1.0
 40
0.5976804459346348
 41
3.14159265359014
 42
6.283185307179586
  0
LINE
  5
570
330
1F
100
AcDbEntity
  8
OBRYS
100
AcDbLine
 10
125.933015075899
 20
56.39390371046682
 30
0.0
 11
125.7696646512555
 21
56.35957261409601
 31
0.0
  0
LINE
  5
571
330
1F
100
AcDbEntity
  8
OBRYS
100
AcDbLine
 10
125.7696646512555
 20
56.35957261409601
 30
0.0
 11
125.2468714113687
 21
56.21074448913294
 31
0.0
  0
LINE
  5
572
330
1F
100
AcDbEntity
  8
OBRYS
100
AcDbLine
 10
125.2468714113687
 20
56.21074448913294
 30
0.0
 11
124.7359637509061
 21
56.0252260972519
 31
0.0
  0
LINE
  5
573
330
1F
100
AcDbEntity
  8
OBRYS
100
AcDbLine
 10
124.7359637509061
 20
56.0252260972519
 30
0.0
 11
124.2393532367074
 21
55.80405096709899
 31
0.0
  0
LINE
  5
574
330
1F
100
AcDbEntity
  8
OBRYS
100
AcDbLine
 10
124.2393532367074
 20
55.80405096709899
 30
0.0
 11
123.7594514356121
 21
55.5485971368679
 31
0.0
  0
LINE
  5
575
330
1F
100
AcDbEntity
  8
OBRYS
100
AcDbLine
 10
123.7594514356121
 20
55.5485971368679
 30
0.0
 11
123.2991866787827
 21
55.25955362565594
 31
0.0
  0
LINE
  5
576
330
1F
100
AcDbEntity
  8
OBRYS
100
AcDbLine
 10
123.2991866787827
 20
55.25955362565594
 30
0.0
 11
122.8599370044134
 21
54.93933200030108
 31
0.0
  0
LINE
  5
577
330
1F
100
AcDbEntity
  8
OBRYS
100
AcDbLine
 10
122.8599370044134
 20
54.93933200030108
 30
0.0
 11
122.4446307436664
 21
54.5886212799029
 31
0.0
  0
LINE
  5
578
330
1F
100
AcDbEntity
  8
OBRYS
100
AcDbLine
 10
122.4446307436664
 20
54.5886212799029
 30
0.0
 11
122.0553349538334
 21
54.20948852175104
 31
0.0
  0
LINE
  5
579
330
1F
100
AcDbEntity
  8
OBRYS
100
AcDbLine
 10
122.0553349538334
 20
54.20948852175104
 30
0.0
 11
121.6932554183335
 21
53.8036562735889
 31
0.0
  0
LINE
  5
57A
330
1F
100
AcDbEntity
  8
OBRYS
100
AcDbLine
 10
121.6932554183335
 20
53.8036562735889
 30
0.0
 11
121.2652273792134
 21
53.24924112795122
 31
0.0
  0
ARC
  5
57B
330
1F
100
AcDbEntity
  8
OBRYS
100
AcDbCircle
 10
121.0673398912087
 20
53.40201724549331
 30
0.0
 40
0.250000000000026
100
AcDbArc
 50
180.0
 51
322.3305937371484
  0
LINE
  5
57C
330
1F
100
AcDbEntity
  8
OBRYS
100
AcDbLine
 10
120.8173398912087
 20
53.40201724549331
 30
0.0
 11
120.8173398912087
 21
55.96350056552103
 31
0.0
  0
ARC
  5
57D
330
1F
100
AcDbEntity
  8
OBRYS
100
AcDbCircle
 10
120.5673398912087
 20
55.96350056552103
 30
0.0
 40
0.2499999999999432
100
AcDbArc
 50
0.0
 51
90.0
  0
LINE
  5
57E
330
1F
100
AcDbEntity
  8
OBRYS
100
AcDbLine
 10
120.5673398912087
 20
56.21350056552103
 30
0.0
 11
120.3674687433802
 21
56.21350056552103
 31
0.0
  0
ARC
  5
57F
330
1F
100
AcDbEntity
  8
OBRYS
100
AcDbCircle
 10
120.3674687433802
 20
56.46350056552103
 30
0.0
 40
0.2499999999999432
100
AcDbArc
 50
180.0
 51
270.0
  0
LINE
  5
580
330
1F
100
AcDbEntity
  8
OBRYS
100
AcDbLine
 10
120.1174687433802
 20
56.46350056552103
 30
0.0
 11
120.1174687433802
 21
59.70403700573104
 31
0.0
  0
ARC
  5
581
330
1F
100
AcDbEntity
  8
OBRYS
100
AcDbCircle
 10
120.3674687433806
 20
59.70403700573081
 30
0.0
 40
0.2500000000002957
100
AcDbArc
 50
100.0056301602158
 51
179.9999999999479
  0
LINE
  5
582
330
1F
100
AcDbEntity
  8
OBRYS
100
AcDbLine
 10
120.324032506181
 20
59.95023467691829
 30
0.0
 11
126.6648306914228
 21
61.06893093703354
 31
0.0
  0
ARC
  5
583
330
1F
100
AcDbEntity
  8
OBRYS
100
AcDbCircle
 10
126.7082669286218
 20
60.82273326584607
 30
0.0
 40
0.2500000000002673
100
AcDbArc
 50
14.0193726840517
 51
100.0056301600878
  0
LINE
  5
584
330
1F
100
AcDbEntity
  8
OBRYS
100
AcDbLine
 10
126.9508203968418
 20
60.88329575468686
 30
0.0
 11
127.4620926921538
 21
58.8356442990206
 31
0.0
  0
ARC
  5
585
330
1F
100
AcDbEntity
  8
OBRYS
100
AcDbCircle
 10
125.5216649463952
 20
58.35114438829817
 30
0.0
 40
2.000000000000001
100
AcDbArc
 50
281.8690195444069
 51
14.01937268395305
  0
ELLIPSE
  5
586
330
1F
100
AcDbEntity
  8
OBRYS
100
AcDbEllipse
 10
166.7095429776089
 20
58.78535047264688
 30
0.0
 11
-0.1923224554639091
 21
-0.03884345159599434
 31
0.0
210
0.0
220
0.0
230
1.0
 40
0.6726905110995991
 41
3.137255986357017
 42
6.285917136582214
  0
LINE
  5
587
330
1F
100
AcDbEntity
  8
OBRYS
100
AcDbLine
 10
169.4791413655885
 20
67.4636321273789
 30
0.0
 11
169.4791413655885
 21
66.86349649384795
 31
0.0
  0
LINE
  5
588
330
1F
100
AcDbEntity
  8
OBRYS
100
AcDbLine
 10
169.4791413655885
 20
97.76376368447393
 30
0.0
 11
169.4791413655885
 21
97.16397256049197
 31
0.0
  0
CIRCLE
  5
589
330
1F
100
AcDbEntity
  8
OBRYS
100
AcDbCircle
 10
117.02019871106
 20
53.98585876106461
 30
0.0
 40
0.743272328504955
  0
CIRCLE
  5
58A
330
1F
100
AcDbEntity
  8
OBRYS
100
AcDbCircle
 10
128.0271495953525
 20
53.97354254470508
 30
0.0
 40
0.7080004021513181
  0
DIMENSION
  5
58B
330
1F
100
AcDbEntity
  8
KOTY
100
AcDbDimension
  2
*D1
 10
167.3176884581426
 20
119.646716810112
 30
0.0
 11
122.5174083857924
 21
122.688716810112
 31
0.0
 70
    32
  3
ISO-25
100
AcDbAlignedDimension
 13
77.71712831344215
 23
101.963507335768
 33
0.0
 14
167.3176884581426
 24
101.963507335768
 34
0.0
100
AcDbRotatedDimension
1001
ACAD
1000
DSTYLE
1002
{
1070
   287
1070
     5
1070
   271
1070
     0
1070
   278
1070
    44
1070
   140
1040
4.0
1070
   147
1040
1.0
1070
    41
1040
4.0
1070
   178
1070
   256
1070
   176
1070
   256
1070
   177
1070
   256
1070
   279
1070
     2
1002
}
  0
DIMENSION
  5
58D
330
1F
100
AcDbEntity
  8
KOTY
100
AcDbDimension
  2
*D2
 10
60.60119983631799
 20
54.81375826986402
 30
0.0
 11
57.55919983631799
 21
78.56381590824046
 31
0.0
 70
    32
  3
ISO-25
100
AcDbAlignedDimension
 13
78.51759624943989
 23
102.3138735466169
 33
0.0
 14
78.51759624943989
 24
54.81375826986402
 34
0.0
 50
90.0
100
AcDbRotatedDimension
1001
ACAD
1000
DSTYLE
1002
{
1070
   287
1070
     5
1070
   271
1070
     0
1070
   278
1070
    44
1070
   140
1040
4.0
1070
   147
1040
1.0
1070
    41
1040
4.0
1070
   178
1070
   256
1070
   176
1070
   256
1070
   177
1070
   256
1070
   279
1070
     2
1002
}
  0
DIMENSION
  5
590
330
1F
100
AcDbEntity
  8
KOTY
100
AcDbDimension
  2
*D3
 10
41.88366574398972
 20
47.91340426768296
 30
0.0
 11
38.84966574398971
 21
75.11363890714993
 31
0.0
 70
    32
  3
ISO-25
100
AcDbAlignedDimension
 13
78.51759624943989
 23
102.3138735466169
 33
0.0
 14
109.2673710899054
 24
47.91340426768295
 34
0.0
 50
90.0
100
AcDbRotatedDimension
1001
ACAD
1000
DSTYLE
1002
{
1070
   287
1070
     5
1070
   271
1070
     0
1070
   278
1070
    44
1070
   140
1040
4.0
1070
   147
1040
1.0
1070
    41
1040
4.0
1070
   178
1070
   256
1070
   176
1070
   256
1070
   177
1070
   256
1070
   279
1070
     2
1002
}
  0
LINE
  5
593
330
1F
100
AcDbEntity
  8
OBRYS
100
AcDbLine
 10
78.51759624943989
 20
62.31373114125302
 30
0.0
 11
78.51759624943989
 21
102.3138735466169
 31
0.0
  0
LINE
  5
594
330
1F
100
AcDbEntity
  8
OBRYS
100
AcDbLine
 10
77.71712831344215
 20
101.963507335768
 30
0.0
 11
77.71712831344215
 21
62.56350056393387
 31
0.0
  0
LINE
  5
595
330
1F
100
AcDbEntity
  8
OBRYS
100
AcDbLine
 10
166.517220522145
 20
102.3135290370691
 30
0.0
 11
166.517220522145
 21
62.31373114125302
 31
0.0
  0
LINE
  5
596
330
1F
100
AcDbEntity
  8
OBRYS
100
AcDbLine
 10
167.3176884581426
 20
62.56350056393387
 30
0.0
 11
167.3176884581426
 21
101.963507335768
 31
0.0
  0
CIRCLE
  5
597
330
1F
100
AcDbEntity
  8
OBRYS
100
AcDbCircle
 10
202.0912386141286
 20
97.46344701177384
 30
0.0
 40
2.795092210758238
  0
CIRCLE
  5
598
330
1F
100
AcDbEntity
  8
OBRYS
100
AcDbCircle
 10
219.7416685684834
 20
97.46344701177384
 30
0.0
 40
2.795636870350214
  0
LINE
  5
599
330
1F
100
AcDbEntity
  8
OBRYS
100
AcDbLine
 10
201.7913430521376
 20
98.95853232498541
 30
0.0
 11
202.3918231952166
 21
98.95853232498541
 31
0.0
  0
LINE
  5
59A
330
1F
100
AcDbEntity
  8
OBRYS
100
AcDbLine
 10
203.5865823095013
 20
97.76360095592634
 30
0.0
 11
203.5865823095013
 21
97.16329306762134
 31
0.0
  0
LINE
  5
59B
330
1F
100
AcDbEntity
  8
OBRYS
100
AcDbLine
 10
200.5965839378528
 20
97.76360095592634
 30
0.0
 11
200.5965839378528
 21
97.16329306762134
 31
0.0
  0
LINE
  5
59C
330
1F
100
AcDbEntity
  8
OBRYS
100
AcDbLine
 10
201.7913430521376
 20
95.96836169856226
 30
0.0
 11
202.3918231952166
 21
95.96836169856226
 31
0.0
  0
LINE
  5
59D
330
1F
100
AcDbEntity
  8
OBRYS
100
AcDbLine
 10
219.4416007517181
 20
95.96836169856226
 30
0.0
 11
220.0417363852487
 21
95.96836169856226
 31
0.0
  0
LINE
  5
59E
330
1F
100
AcDbEntity
  8
OBRYS
100
AcDbLine
 10
218.2464971278847
 20
97.76360095592634
 30
0.0
 11
218.2464971278847
 21
97.16329306762134
 31
0.0
  0
LINE
  5
59F
330
1F
100
AcDbEntity
  8
OBRYS
100
AcDbLine
 10
221.236495499533
 20
97.76360095592634
 30
0.0
 11
221.236495499533
 21
97.16329306762134
 31
0.0
  0
LINE
  5
5A0
330
1F
100
AcDbEntity
  8
OBRYS
100
AcDbLine
 10
219.4416007517181
 20
98.95853232498541
 30
0.0
 11
220.0417363852487
 21
98.95853232498541
 31
0.0
  0
LINE
  5
5A1
330
1F
100
AcDbEntity
  8
OBRYS
100
AcDbLine
 10
201.7913430521376
 20
68.65874527743824
 30
0.0
 11
202.3911341761196
 21
68.65874527743824
 31
0.0
  0
LINE
  5
5A2
330
1F
100
AcDbEntity
  8
OBRYS
100
AcDbLine
 10
200.5965839378528
 20
67.46364165360535
 30
0.0
 11
200.5965839378528
 21
66.8635060200753
 31
0.0
  0
LINE
  5
5A3
330
1F
100
AcDbEntity
  8
OBRYS
100
AcDbLine
 10
201.7913430521376
 20
65.66823014146723
 30
0.0
 11
202.3911341761196
 21
65.66823014146723
 31
0.0
  0
LINE
  5
5A4
330
1F
100
AcDbEntity
  8
OBRYS
100
AcDbLine
 10
203.5865823095013
 20
67.46364165360535
 30
0.0
 11
203.5865823095013
 21
66.8635060200753
 31
0.0
  0
CIRCLE
  5
5A5
330
1F
100
AcDbEntity
  8
OBRYS
100
AcDbCircle
 10
202.0912386141286
 20
67.16357383684033
 30
0.0
 40
2.79505358413821
  0
LINE
  5
5A6
330
1F
100
AcDbEntity
  8
OBRYS
100
AcDbLine
 10
219.4416007517181
 20
68.65874527743824
 30
0.0
 11
220.0417363852487
 21
68.65874527743824
 31
0.0
  0
LINE
  5
5A7
330
1F
100
AcDbEntity
  8
OBRYS
100
AcDbLine
 10
221.236495499533
 20
67.46364165360535
 30
0.0
 11
221.236495499533
 21
66.8635060200753
 31
0.0
  0
LINE
  5
5A8
330
1F
100
AcDbEntity
  8
OBRYS
100
AcDbLine
 10
218.2464971278847
 20
67.46364165360535
 30
0.0
 11
218.2464971278847
 21
66.8635060200753
 31
0.0
  0
LINE
  5
5A9
330
1F
100
AcDbEntity
  8
OBRYS
100
AcDbLine
 10
219.4416007517181
 20
65.66823014146723
 30
0.0
 11
220.0417363852487
 21
65.66823014146723
 31
0.0
  0
CIRCLE
  5
5AA
330
1F
100
AcDbEntity
  8
OBRYS
100
AcDbCircle
 10
219.7416685684834
 20
67.16357383684033
 30
0.0
 40
2.7957627531352
  0
CIRCLE
  5
5AB
330
1F
100
AcDbEntity
  8
OBRYS
100
AcDbCircle
 10
210.9187790307585
 20
68.61361452658218
 30
0.0
 40
0.4965049076064896
  0
ARC
  5
5AC
330
1F
100
AcDbEntity
  8
OBRYS
100
AcDbCircle
 10
208.1165383630561
 20
64.01337852512722
 30
0.0
 40
0.4003200953860642
100
AcDbArc
 50
0.0
 51
180.0
  0
ARC
  5
5AD
330
1F
100
AcDbEntity
  8
OBRYS
100
AcDbCircle
 10
213.7163688195557
 20
64.013378525127
 30
0.0
 40
0.400147840611794
100
AcDbArc
 50
0.0000000000325568
 51
180.0000000000325
  0
ARC
  5
5AE
330
1F
100
AcDbEntity
  8
OBRYS
100
AcDbCircle
 10
220.4269936810006
 20
55.4736091837982
 30
0.0
 40
1.000120111098736
100
AcDbArc
 50
269.3826763140153
 51
349.9920444720605
  0
LINE
  5
5AF
330
1F
100
AcDbEntity
  8
OBRYS
100
AcDbLine
 10
221.4118955968873
 20
55.29980339359793
 30
0.0
 11
221.7487811981897
 21
57.20931494175932
 31
0.0
  0
LINE
  5
5B0
330
1F
100
AcDbEntity
  8
OBRYS
100
AcDbLine
 10
200.0842982391963
 20
57.20931494175932
 30
0.0
 11
200.4211806322403
 21
55.29982157842448
 31
0.0
  0
ARC
  5
5B1
330
1F
100
AcDbEntity
  8
OBRYS
100
AcDbCircle
 10
201.4060791489909
 20
55.47362533753892
 30
0.0
 40
1.000116410714222
100
AcDbArc
 50
190.0078747811417
 51
270.5979667675315
  0
LINE
  5
5B2
330
1F
100
AcDbEntity
  8
OBRYS
100
AcDbLine
 10
201.4165166633424
 20
51.01348296631124
 30
0.0
 11
201.4165166633424
 21
62.31374066747924
 31
0.0
  0
LINE
  5
5B3
330
1F
100
AcDbEntity
  8
OBRYS
100
AcDbLine
 10
220.4162182644953
 20
51.01348296631124
 30
0.0
 11
220.4162182644953
 21
62.31374066747924
 31
0.0
  0
DIMENSION
  5
5B4
330
1F
100
AcDbEntity
  8
KOTY
100
AcDbDimension
  2
*D4
 10
223.441356610093
 20
119.646716810112
 30
0.0
 11
210.9163674639187
 21
122.688716810112
 31
0.0
 70
    32
  3
ISO-25
100
AcDbAlignedDimension
 13
198.3913783177444
 23
99.38775085398322
 33
0.0
 14
223.441356610093
 24
99.51336630852131
 34
0.0
100
AcDbRotatedDimension
1001
ACAD
1000
DSTYLE
1002
{
1070
   287
1070
     5
1070
   271
1070
     0
1070
   278
1070
    44
1070
   140
1040
4.0
1070
    41
1040
4.0
1070
   147
1040
1.0
1070
   178
1070
   256
1070
   176
1070
   256
1070
   177
1070
   256
1070
   279
1070
     2
1002
}
  0
LINE
  5
5B7
330
1F
100
AcDbEntity
  8
OBRYS
100
AcDbLine
 10
201.7913430521376
 20
68.65874527743824
 30
0.0
 11
201.7913430521376
 21
65.66823014146723
 31
0.0
  0
LINE
  5
5B8
330
1F
100
AcDbEntity
  8
OBRYS
100
AcDbLine
 10
202.3918231952166
 20
68.65874527743824
 30
0.0
 11
202.3911341761196
 21
65.66823014146723
 31
0.0
  0
LINE
  5
5B9
330
1F
100
AcDbEntity
  8
OBRYS
100
AcDbLine
 10
200.5965839378528
 20
67.46364165360535
 30
0.0
 11
203.5865823095013
 21
67.46364165360535
 31
0.0
  0
LINE
  5
5BA
330
1F
100
AcDbEntity
  8
OBRYS
100
AcDbLine
 10
200.5965839378528
 20
66.8635060200753
 30
0.0
 11
203.5865823095013
 21
66.8635060200753
 31
0.0
  0
LINE
  5
5BB
330
1F
100
AcDbEntity
  8
OBRYS
100
AcDbLine
 10
219.4416007517181
 20
68.65874527743824
 30
0.0
 11
219.4416007517181
 21
65.66823014146723
 31
0.0
  0
LINE
  5
5BC
330
1F
100
AcDbEntity
  8
OBRYS
100
AcDbLine
 10
220.0417363852487
 20
68.65874527743824
 30
0.0
 11
220.0417363852487
 21
65.66823014146723
 31
0.0
  0
LINE
  5
5BD
330
1F
100
AcDbEntity
  8
OBRYS
100
AcDbLine
 10
218.2464971278847
 20
67.46364165360535
 30
0.0
 11
221.236495499533
 21
67.46364165360535
 31
0.0
  0
LINE
  5
5BE
330
1F
100
AcDbEntity
  8
OBRYS
100
AcDbLine
 10
218.2464971278847
 20
66.8635060200753
 30
0.0
 11
221.236495499533
 21
66.8635060200753
 31
0.0
  0
LINE
  5
5BF
330
1F
100
AcDbEntity
  8
OBRYS
100
AcDbLine
 10
219.4416007517181
 20
98.95853232498541
 30
0.0
 11
219.4416007517181
 21
95.96836169856226
 31
0.0
  0
LINE
  5
5C0
330
1F
100
AcDbEntity
  8
OBRYS
100
AcDbLine
 10
220.0417363852487
 20
98.95853232498541
 30
0.0
 11
220.0417363852487
 21
95.96836169856226
 31
0.0
  0
LINE
  5
5C1
330
1F
100
AcDbEntity
  8
OBRYS
100
AcDbLine
 10
218.2464971278847
 20
97.76360095592634
 30
0.0
 11
221.236495499533
 21
97.76360095592634
 31
0.0
  0
LINE
  5
5C2
330
1F
100
AcDbEntity
  8
OBRYS
100
AcDbLine
 10
218.2464971278847
 20
97.16329306762134
 30
0.0
 11
221.236495499533
 21
97.16329306762134
 31
0.0
  0
LINE
  5
5C3
330
1F
100
AcDbEntity
  8
OBRYS
100
AcDbLine
 10
201.7913430521376
 20
98.95853232498541
 30
0.0
 11
201.7913430521376
 21
95.96836169856226
 31
0.0
  0
LINE
  5
5C4
330
1F
100
AcDbEntity
  8
OBRYS
100
AcDbLine
 10
202.3911341761196
 20
98.95853232498541
 30
0.0
 11
202.3918231952166
 21
95.96836169856226
 31
0.0
  0
LINE
  5
5C5
330
1F
100
AcDbEntity
  8
OBRYS
100
AcDbLine
 10
200.5965839378528
 20
97.76360095592634
 30
0.0
 11
203.5865823095013
 21
97.76360095592634
 31
0.0
  0
LINE
  5
5C6
330
1F
100
AcDbEntity
  8
OBRYS
100
AcDbLine
 10
200.5965839378528
 20
97.16329306762134
 30
0.0
 11
203.5865823095013
 21
97.16329306762134
 31
0.0
  0
LINE
  5
5FB
330
1F
100
AcDbEntity
  8
OBRYS
100
AcDbLine
 10
204.9663430513438
 20
83.86350194681438
 30
0.0
 11
204.9663430513438
 21
77.03342789253236
 31
0.0
  0
LINE
  5
5FC
330
1F
100
AcDbEntity
  8
OBRYS
100
AcDbLine
 10
204.9663430513438
 20
79.06327815244128
 30
0.0
 11
204.5667119750548
 21
79.06327815244128
 31
0.0
  0
LINE
  5
5FD
330
1F
100
AcDbEntity
  8
OBRYS
100
AcDbLine
 10
204.5667119750548
 20
79.06327815244128
 30
0.0
 11
204.5667119750548
 21
81.86362401762733
 31
0.0
  0
LINE
  5
5FE
330
1F
100
AcDbEntity
  8
OBRYS
100
AcDbLine
 10
204.5667119750548
 20
81.86362401762733
 30
0.0
 11
204.9663430513438
 21
81.86362401762733
 31
0.0
  0
VIEWPORT
  5
5F7
330
58
100
AcDbEntity
 67
     1
  8
0
100
AcDbViewport
 10
0.0
 20
0.0
 30
0.0
 40
8.976
 41
6.936000000000001
 68
     1
 69
     1
1001
ACAD
1000
MVIEW
1002
{
1070
    16
1010
0.0
1020
0.0
1030
0.0
1010
0.0
1020
0.0
1030
1.0
1040
0.0
1040
6.936000000000001
1040
5.25
1040
4.0
1040
50.0
1040
0.0
1040
0.0
1070
     0
1070
   100
1070
     0
1070
     3
1070
     0
1070
     0
1070
     0
1070
     0
1040
0.0
1040
0.0
1040
0.0
1040
0.5
1040
0.5
1040
0.0
1040
0.0
1070
     0
1002
{
1002
}
1002
}
  0
VIEWPORT
  5
5F8
330
58
100
AcDbEntity
 67
     1
  8
0
100
AcDbViewport
 10
5.25
 20
4.0
 30
0.0
 40
8.4
 41
6.4
 68
     2
 69
     2
1001
ACAD
1000
MVIEW
1002
{
1070
    16
1010
0.0
1020
0.0
1030
0.0
1010
0.0
1020
0.0
1030
1.0
1040
0.0
1040
145.8212911873717
1040
129.6225111770414
1040
86.83756053889749
1040
50.0
1040
0.0
1040
0.0
1070
     0
1070
   100
1070
     0
1070
     3
1070
     0
1070
     0
1070
     0
1070
     0
1040
0.0
1040
0.0
1040
0.0
1040
0.5
1040
0.5
1040
0.0
1040
0.0
1070
     0
1002
{
1002
}
1002
}
  0
ENDSEC
  0
SECTION
  2
OBJECTS
  0
DICTIONARY
  5
C
330
0
100
AcDbDictionary
  3
ACAD_DETAILVIEWSTYLE
350
122
  3
ACAD_GROUP
350
D
  3
ACAD_IMAGE_VARS
350
DC
  3
ACAD_MLINESTYLE
350
17
  3
ACAD_SCALELIST
350
600
  3
ACAD_SECTIONVIEWSTYLE
350
123
  3
ACDBVARIABLEDICTIONARY
350
66
  3
APPDATA
350
E1
  3
DWGPROPS
350
646
  0
DICTIONARY
  5
122
102
{ACAD_REACTORS
330
C
102
}
330
C
100
AcDbDictionary
  0
DICTIONARY
  5
D
102
{ACAD_REACTORS
330
C
102
}
330
C
100
AcDbDictionary
  0
RASTERVARIABLES
  5
DC
102
{ACAD_REACTORS
330
C
102
}
330
C
100
AcDbRasterVariables
 90
        0
 70
     1
 71
     1
 72
     5
  0
DICTIONARY
  5
17
102
{ACAD_REACTORS
330
C
102
}
330
C
100
AcDbDictionary
  3
STANDARD
350
18
  0
DICTIONARY
  5
600
102
{ACAD_REACTORS
330
C
102
}
330
C
100
AcDbDictionary
  0
DICTIONARY
  5
123
102
{ACAD_REACTORS
330
C
102
}
330
C
100
AcDbDictionary
  0
DICTIONARY
  5
66
102
{ACAD_REACTORS
330
C
102
}
330
C
100
AcDbDictionary
  3
DIMASSOC
350
67
  3
HIDETEXT
350
6B
  0
DICTIONARY
  5
E1
102
{ACAD_REACTORS
330
C
102
}
330
C
100
AcDbDictionary
  0
XRECORD
  5
646
102
{ACAD_REACTORS
330
C
102
}
330
C
100
AcDbXrecord
  1
DWGPROPS COOKIE
  2

  3

  4

  6

  7

  8
jaromir.podrabsky
  9

300
=
301
=
302
=
303
=
304
=
305
=
306
=
307
=
308
=
309
=
 40
0.0
 41
2452643.021717593
 42
2456765.2267736
  1

 90
        0
  0
MLINESTYLE
  5
18
102
{ACAD_REACTORS
330
17
102
}
330
17
100
AcDbMlineStyle
  2
STANDARD
 70
     0
  3

 62
   256
 51
90.0
 52
90.0
 71
     2
 49
0.5
 62
   256
  6
BYLAYER
 49
-0.5
 62
   256
  6
BYLAYER
  0
DICTIONARYVAR
  5
67
102
{ACAD_REACTORS
330
66
102
}
330
66
100
DictionaryVariables
280
     0
  1
2
  0
DICTIONARYVAR
  5
6B
102
{ACAD_REACTORS
330
66
102
}
330
66
100
DictionaryVariables
280
     0
  1
1
  0
ENDSEC
  0
EOF
