  0
SECTION
  2
HEADER
  9
$ACADVER
  1
AC1014
  9
$ACADMAINTVER
 70
     9
  9
$DWGCODEPAGE
  3
ANSI_1250
  9
$INSBASE
 10
0.0
 20
0.0
 30
0.0
  9
$EXTMIN
 10
20.86639258101223
 20
21.91587100703045
 30
0.0
  9
$EXTMAX
 10
162.6218869573166
 20
68.44054949684084
 30
0.0
  9
$LIMMIN
 10
0.0
 20
0.0
  9
$LIMMAX
 10
12.0
 20
9.0
  9
$ORTHOMODE
 70
     0
  9
$REGENMODE
 70
     1
  9
$FILLMODE
 70
     1
  9
$QTEXTMODE
 70
     0
  9
$MIRRTEXT
 70
     0
  9
$DRAGMODE
 70
     2
  9
$LTSCALE
 40
1.0
  9
$OSMODE
 70
 15359
  9
$ATTMODE
 70
     1
  9
$TEXTSIZE
 40
0.2
  9
$TRACEWID
 40
0.05
  9
$TEXTSTYLE
  7
STANDARD
  9
$CLAYER
  8
0
  9
$CELTYPE
  6
BYLAYER
  9
$CECOLOR
 62
   256
  9
$CELTSCALE
 40
1.0
  9
$DELOBJ
 70
     1
  9
$DISPSILH
 70
     0
  9
$DIMSCALE
 40
1.0
  9
$DIMASZ
 40
0.18
  9
$DIMEXO
 40
0.0625
  9
$DIMDLI
 40
0.38
  9
$DIMRND
 40
0.0
  9
$DIMDLE
 40
0.0
  9
$DIMEXE
 40
0.18
  9
$DIMTP
 40
0.0
  9
$DIMTM
 40
0.0
  9
$DIMTXT
 40
0.18
  9
$DIMCEN
 40
0.09
  9
$DIMTSZ
 40
0.0
  9
$DIMTOL
 70
     0
  9
$DIMLIM
 70
     0
  9
$DIMTIH
 70
     1
  9
$DIMTOH
 70
     1
  9
$DIMSE1
 70
     0
  9
$DIMSE2
 70
     0
  9
$DIMTAD
 70
     0
  9
$DIMZIN
 70
     0
  9
$DIMBLK
  1

  9
$DIMASO
 70
     1
  9
$DIMSHO
 70
     1
  9
$DIMPOST
  1

  9
$DIMAPOST
  1

  9
$DIMALT
 70
     0
  9
$DIMALTD
 70
     2
  9
$DIMALTF
 40
25.4
  9
$DIMLFAC
 40
1.0
  9
$DIMTOFL
 70
     0
  9
$DIMTVP
 40
0.0
  9
$DIMTIX
 70
     0
  9
$DIMSOXD
 70
     0
  9
$DIMSAH
 70
     0
  9
$DIMBLK1
  1

  9
$DIMBLK2
  1

  9
$DIMSTYLE
  2
STANDARD
  9
$DIMCLRD
 70
     0
  9
$DIMCLRE
 70
     0
  9
$DIMCLRT
 70
     0
  9
$DIMTFAC
 40
1.0
  9
$DIMGAP
 40
0.09
  9
$DIMJUST
 70
     0
  9
$DIMSD1
 70
     0
  9
$DIMSD2
 70
     0
  9
$DIMTOLJ
 70
     1
  9
$DIMTZIN
 70
     0
  9
$DIMALTZ
 70
     0
  9
$DIMALTTZ
 70
     0
  9
$DIMFIT
 70
     3
  9
$DIMUPT
 70
     0
  9
$DIMUNIT
 70
     2
  9
$DIMDEC
 70
     4
  9
$DIMTDEC
 70
     4
  9
$DIMALTU
 70
     2
  9
$DIMALTTD
 70
     2
  9
$DIMTXSTY
  7
STANDARD
  9
$DIMAUNIT
 70
     0
  9
$LUNITS
 70
     2
  9
$LUPREC
 70
     4
  9
$SKETCHINC
 40
0.1
  9
$FILLETRAD
 40
0.0
  9
$AUNITS
 70
     0
  9
$AUPREC
 70
     0
  9
$MENU
  1
.
  9
$ELEVATION
 40
0.0
  9
$PELEVATION
 40
0.0
  9
$THICKNESS
 40
0.0
  9
$LIMCHECK
 70
     0
  9
$CHAMFERA
 40
0.0
  9
$CHAMFERB
 40
0.0
  9
$CHAMFERC
 40
0.0
  9
$CHAMFERD
 40
0.0
  9
$SKPOLY
 70
     0
  9
$TDCREATE
 40
2452643.105050937
  9
$TDUPDATE
 40
2456647.566920822
  9
$TDINDWG
 40
0.0089508796
  9
$TDUSRTIMER
 40
2456647.520545475
  9
$USRTIMER
 70
     1
  9
$ANGBASE
 50
0.0
  9
$ANGDIR
 70
     0
  9
$PDMODE
 70
     0
  9
$PDSIZE
 40
0.0
  9
$PLINEWID
 40
0.0
  9
$COORDS
 70
     2
  9
$SPLFRAME
 70
     0
  9
$SPLINETYPE
 70
     6
  9
$SPLINESEGS
 70
     8
  9
$ATTDIA
 70
     0
  9
$ATTREQ
 70
     1
  9
$HANDLING
 70
     1
  9
$HANDSEED
  5
2CF
  9
$SURFTAB1
 70
     6
  9
$SURFTAB2
 70
     6
  9
$SURFTYPE
 70
     6
  9
$SURFU
 70
     6
  9
$SURFV
 70
     6
  9
$UCSNAME
  2

  9
$UCSORG
 10
0.0
 20
0.0
 30
0.0
  9
$UCSXDIR
 10
1.0
 20
0.0
 30
0.0
  9
$UCSYDIR
 10
0.0
 20
1.0
 30
0.0
  9
$PUCSNAME
  2

  9
$PUCSORG
 10
0.0
 20
0.0
 30
0.0
  9
$PUCSXDIR
 10
1.0
 20
0.0
 30
0.0
  9
$PUCSYDIR
 10
0.0
 20
1.0
 30
0.0
  9
$USERI1
 70
     0
  9
$USERI2
 70
     0
  9
$USERI3
 70
     0
  9
$USERI4
 70
     0
  9
$USERI5
 70
     0
  9
$USERR1
 40
0.0
  9
$USERR2
 40
0.0
  9
$USERR3
 40
0.0
  9
$USERR4
 40
0.0
  9
$USERR5
 40
0.0
  9
$WORLDVIEW
 70
     1
  9
$SHADEDGE
 70
     3
  9
$SHADEDIF
 70
    70
  9
$TILEMODE
 70
     0
  9
$MAXACTVP
 70
    64
  9
$PINSBASE
 10
0.0
 20
0.0
 30
0.0
  9
$PLIMCHECK
 70
     0
  9
$PEXTMIN
 10
1.05
 20
0.7999999999999998
 30
0.0
  9
$PEXTMAX
 10
9.45
 20
7.2
 30
0.0
  9
$PLIMMIN
 10
-0.25
 20
-0.25
  9
$PLIMMAX
 10
10.75
 20
8.25
  9
$UNITMODE
 70
     0
  9
$VISRETAIN
 70
     1
  9
$PLINEGEN
 70
     0
  9
$PSLTSCALE
 70
     1
  9
$TREEDEPTH
 70
  3020
  9
$PICKSTYLE
 70
     0
  9
$CMLSTYLE
  2
STANDARD
  9
$CMLJUST
 70
     0
  9
$CMLSCALE
 40
1.0
  9
$PROXYGRAPHICS
 70
     1
  9
$MEASUREMENT
 70
     0
  0
ENDSEC
  0
SECTION
  2
CLASSES
  0
CLASS
  1
ACDBDICTIONARYWDFLT
  2
AcDbDictionaryWithDefault
  3
ObjectDBX Classes
 90
        0
280
     0
281
     0
  0
CLASS
  1
ACDBPLACEHOLDER
  2
AcDbPlaceHolder
  3
ObjectDBX Classes
 90
        0
280
     0
281
     0
  0
CLASS
  1
LAYOUT
  2
AcDbLayout
  3
ObjectDBX Classes
 90
        0
280
     0
281
     0
  0
CLASS
  1
DICTIONARYVAR
  2
AcDbDictionaryVar
  3
ObjectDBX Classes
 90
        0
280
     0
281
     0
  0
CLASS
  1
TABLESTYLE
  2
AcDbTableStyle
  3
ObjectDBX Classes
 90
     4095
280
     0
281
     0
  0
CLASS
  1
MATERIAL
  2
AcDbMaterial
  3
ObjectDBX Classes
 90
     1153
280
     0
281
     0
  0
CLASS
  1
VISUALSTYLE
  2
AcDbVisualStyle
  3
ObjectDBX Classes
 90
     4095
280
     0
281
     0
  0
CLASS
  1
SCALE
  2
AcDbScale
  3
ObjectDBX Classes
 90
     1153
280
     0
281
     0
  0
CLASS
  1
CELLSTYLEMAP
  2
AcDbCellStyleMap
  3
ObjectDBX Classes
 90
     1152
280
     0
281
     0
  0
CLASS
  1
RASTERVARIABLES
  2
AcDbRasterVariables
  3
ISM
 90
        0
280
     0
281
     0
  0
CLASS
  1
SUN
  2
AcDbSun
  3
SCENEOE
 90
     1153
280
     0
281
     0
  0
CLASS
  1
DIMASSOC
  2
AcDbDimAssoc
  3
"AcDbDimAssoc|Product Desc:     AcDim ARX App For Dimension|Company:          Autodesk, Inc.|WEB Address:      www.autodesk.com"
 90
        0
280
     0
281
     0
  0
CLASS
  1
XRECORD
  2
AcDbXrecord
  3
ObjectDBX Classes
 90
        0
280
     0
281
     0
  0
CLASS
  1
LWPOLYLINE
  2
AcDbPolyline
  3
ObjectDBX Classes
 90
        0
280
     0
281
     1
  0
CLASS
  1
HATCH
  2
AcDbHatch
  3
ObjectDBX Classes
 90
        0
280
     0
281
     1
  0
ENDSEC
  0
SECTION
  2
TABLES
  0
TABLE
  2
VPORT
  5
8
330
0
100
AcDbSymbolTable
 70
     1
  0
VPORT
  5
94
330
8
100
AcDbSymbolTableRecord
100
AcDbViewportTableRecord
  2
*ACTIVE
 70
     0
 10
0.0
 20
0.0
 11
1.0
 21
1.0
 12
128.7386431359307
 22
71.73534188343389
 13
0.0
 23
0.0
 14
0.5
 24
0.5
 15
0.5
 25
0.5
 16
0.0
 26
0.0
 36
1.0
 17
-27.66959356597975
 27
-19.53870295786209
 37
0.0
 40
102.4987016405377
 41
1.76056338028169
 42
50.0
 43
0.0
 44
0.0
 50
0.0
 51
0.0
 71
    16
 72
  1000
 73
     1
 74
     3
 75
     0
 76
     0
 77
     0
 78
     0
  0
ENDTAB
  0
TABLE
  2
LTYPE
  5
5
330
0
100
AcDbSymbolTable
 70
     1
  0
LTYPE
  5
14
330
5
100
AcDbSymbolTableRecord
100
AcDbLinetypeTableRecord
  2
BYBLOCK
 70
     0
  3

 72
    65
 73
     0
 40
0.0
  0
LTYPE
  5
15
330
5
100
AcDbSymbolTableRecord
100
AcDbLinetypeTableRecord
  2
BYLAYER
 70
     0
  3

 72
    65
 73
     0
 40
0.0
  0
LTYPE
  5
16
330
5
100
AcDbSymbolTableRecord
100
AcDbLinetypeTableRecord
  2
CONTINUOUS
 70
     0
  3
Solid line
 72
    65
 73
     0
 40
0.0
  0
ENDTAB
  0
TABLE
  2
LAYER
  5
2
330
0
100
AcDbSymbolTable
 70
     4
  0
LAYER
  5
10
330
2
100
AcDbSymbolTableRecord
100
AcDbLayerTableRecord
  2
0
 70
     0
 62
     7
  6
CONTINUOUS
  0
LAYER
  5
125
330
2
100
AcDbSymbolTableRecord
100
AcDbLayerTableRecord
  2
DEFPOINTS
 70
     0
 62
     7
  6
CONTINUOUS
  0
LAYER
  5
126
330
2
100
AcDbSymbolTableRecord
100
AcDbLayerTableRecord
  2
OBRYS
 70
     0
 62
     5
  6
CONTINUOUS
  0
LAYER
  5
128
330
2
100
AcDbSymbolTableRecord
100
AcDbLayerTableRecord
  2
KOTY
 70
     0
 62
     1
  6
CONTINUOUS
  0
ENDTAB
  0
TABLE
  2
STYLE
  5
3
330
0
100
AcDbSymbolTable
 70
     1
  0
STYLE
  5
11
330
3
100
AcDbSymbolTableRecord
100
AcDbTextStyleTableRecord
  2
STANDARD
 70
     0
 40
0.0
 41
1.0
 50
0.0
 71
     0
 42
0.2
  3
arial.ttf
  4

1001
ACAD
1000
Arial
1071
        0
  0
ENDTAB
  0
TABLE
  2
VIEW
  5
6
330
0
100
AcDbSymbolTable
 70
     0
  0
ENDTAB
  0
TABLE
  2
UCS
  5
7
330
0
100
AcDbSymbolTable
 70
     0
  0
ENDTAB
  0
TABLE
  2
APPID
  5
9
330
0
100
AcDbSymbolTable
 70
     1
  0
APPID
  5
12
330
9
100
AcDbSymbolTableRecord
100
AcDbRegAppTableRecord
  2
ACAD
 70
     0
  0
ENDTAB
  0
TABLE
  2
DIMSTYLE
  5
A
330
0
100
AcDbSymbolTable
 70
     2
  0
DIMSTYLE
105
27
330
A
100
AcDbSymbolTableRecord
100
AcDbDimStyleTableRecord
  2
STANDARD
 70
     0
  3

  4

  5

  6

  7

 40
1.0
 41
0.18
 42
0.0625
 43
0.38
 44
0.18
 45
0.0
 46
0.0
 47
0.0
 48
0.0
140
0.18
141
0.09
142
0.0
143
25.4
144
1.0
145
0.0
146
1.0
147
0.09
 71
     0
 72
     0
 73
     1
 74
     1
 75
     0
 76
     0
 77
     0
 78
     0
170
     0
171
     2
172
     0
173
     0
174
     0
175
     0
176
     0
177
     0
178
     0
270
     2
271
     4
272
     4
273
     2
274
     2
340
11
275
     0
280
     0
281
     0
282
     0
283
     1
284
     0
285
     0
286
     0
287
     3
288
     0
  0
DIMSTYLE
105
129
102
{ACAD_REACTORS
330
291
330
294
330
297
330
29A
102
}
330
A
100
AcDbSymbolTableRecord
100
AcDbDimStyleTableRecord
  2
ISO-25
 70
     0
  3

  4

  5

  6

  7

 40
1.0
 41
6.0
 42
0.0
 43
3.75
 44
1.25
 45
0.0
 46
0.0
 47
0.0
 48
0.0
140
3.0
141
2.5
142
0.0
143
0.03937007874016
144
1.0
145
0.0
146
1.0
147
0.625
 71
     0
 72
     0
 73
     0
 74
     1
 75
     0
 76
     0
 77
     1
 78
     8
170
     0
171
     3
172
     1
173
     0
174
     0
175
     0
176
     5
177
     5
178
     5
270
     2
271
     4
272
     4
273
     2
274
     2
340
11
275
     0
280
     0
281
     0
282
     0
283
     1
284
     0
285
     0
286
     0
287
     3
288
     0
  0
ENDTAB
  0
TABLE
  2
BLOCK_RECORD
  5
1
330
0
100
AcDbSymbolTable
 70
    10
  0
BLOCK_RECORD
  5
1F
330
1
100
AcDbSymbolTableRecord
100
AcDbBlockTableRecord
  2
*MODEL_SPACE
  0
BLOCK_RECORD
  5
58
330
1
100
AcDbSymbolTableRecord
100
AcDbBlockTableRecord
  2
*PAPER_SPACE
  0
BLOCK_RECORD
  5
5D
330
1
100
AcDbSymbolTableRecord
100
AcDbBlockTableRecord
  2
*PAPER_SPACE0
  0
BLOCK_RECORD
  5
29B
330
1
100
AcDbSymbolTableRecord
100
AcDbBlockTableRecord
  2
*D6
  0
BLOCK_RECORD
  5
2A7
330
1
100
AcDbSymbolTableRecord
100
AcDbBlockTableRecord
  2
*D7
  0
BLOCK_RECORD
  5
2B3
330
1
100
AcDbSymbolTableRecord
100
AcDbBlockTableRecord
  2
*D8
  0
BLOCK_RECORD
  5
2BF
330
1
100
AcDbSymbolTableRecord
100
AcDbBlockTableRecord
  2
*D9
  0
ENDTAB
  0
ENDSEC
  0
SECTION
  2
BLOCKS
  0
BLOCK
  5
20
330
1F
100
AcDbEntity
  8
0
100
AcDbBlockBegin
  2
*MODEL_SPACE
 70
     0
 10
0.0
 20
0.0
 30
0.0
  3
*MODEL_SPACE
  1

  0
ENDBLK
  5
21
330
1F
100
AcDbEntity
  8
0
100
AcDbBlockEnd
  0
BLOCK
  5
5A
330
58
100
AcDbEntity
 67
     1
  8
0
100
AcDbBlockBegin
  2
*PAPER_SPACE
 70
     0
 10
0.0
 20
0.0
 30
0.0
  3
*PAPER_SPACE
  1

  0
ENDBLK
  5
5B
330
58
100
AcDbEntity
 67
     1
  8
0
100
AcDbBlockEnd
  0
BLOCK
  5
5F
330
5D
100
AcDbEntity
  8
0
100
AcDbBlockBegin
  2
*PAPER_SPACE0
 70
     0
 10
0.0
 20
0.0
 30
0.0
  3
*PAPER_SPACE0
  1
*PAPER_SPACE0
  0
ENDBLK
  5
60
330
5D
100
AcDbEntity
  8
0
100
AcDbBlockEnd
  0
BLOCK
  5
29C
330
29B
100
AcDbEntity
  8
0
100
AcDbBlockBegin
  2
*D6
 70
     1
 10
0.0
 20
0.0
 30
0.0
  3
*D6
  1
*D6
  0
LINE
  5
29E
330
29B
100
AcDbEntity
  8
KOTY
100
AcDbLine
 10
132.422179933616
 20
36.11552106858538
 30
0.0
 11
132.422179933616
 21
64.59854949684085
 31
0.0
  0
LINE
  5
29F
330
29B
100
AcDbEntity
  8
KOTY
100
AcDbLine
 10
162.6218869573166
 20
41.612859934399
 30
0.0
 11
162.6218869573166
 21
64.59854949684085
 31
0.0
  0
LINE
  5
2A0
330
29B
100
AcDbEntity
  8
KOTY
100
AcDbLine
 10
136.422179933616
 20
63.34854949684085
 30
0.0
 11
158.6218869573166
 21
63.34854949684085
 31
0.0
  0
SOLID
  5
2A1
330
29B
100
AcDbEntity
  8
KOTY
100
AcDbTrace
 10
136.422179933616
 20
64.01521616350752
 30
0.0
 11
136.422179933616
 21
62.68188283017418
 31
0.0
 12
132.422179933616
 22
63.34854949684085
 32
0.0
 13
132.422179933616
 23
63.34854949684085
 33
0.0
  0
SOLID
  5
2A2
330
29B
100
AcDbEntity
  8
KOTY
100
AcDbTrace
 10
158.6218869573166
 20
62.68188283017418
 30
0.0
 11
158.6218869573166
 21
64.01521616350752
 31
0.0
 12
162.6218869573166
 22
63.34854949684085
 32
0.0
 13
162.6218869573166
 23
63.34854949684085
 33
0.0
  0
MTEXT
  5
2A3
330
29B
100
AcDbEntity
  8
KOTY
100
AcDbMText
 10
147.5220334454663
 20
66.39054949684085
 30
0.0
 40
4.0
 41
0.0
 71
     5
 72
     1
  1
\A1;30
  0
POINT
  5
2A4
330
29B
100
AcDbEntity
  8
DEFPOINTS
 62
     0
100
AcDbPoint
 10
132.422179933616
 20
36.11552106858538
 30
0.0
  0
POINT
  5
2A5
330
29B
100
AcDbEntity
  8
DEFPOINTS
 62
     0
100
AcDbPoint
 10
162.6218869573166
 20
41.612859934399
 30
0.0
  0
POINT
  5
2A6
330
29B
100
AcDbEntity
  8
DEFPOINTS
 62
     0
100
AcDbPoint
 10
162.6218869573166
 20
63.34854949684085
 30
0.0
  0
ENDBLK
  5
29D
330
29B
100
AcDbEntity
  8
0
100
AcDbBlockEnd
  0
BLOCK
  5
2A8
330
2A7
100
AcDbEntity
  8
0
100
AcDbBlockBegin
  2
*D7
 70
     1
 10
0.0
 20
0.0
 30
0.0
  3
*D7
  1
*D7
  0
LINE
  5
2AA
330
2A7
100
AcDbEntity
  8
KOTY
100
AcDbLine
 10
142.9248980299473
 20
47.31587100068144
 30
0.0
 11
121.0431654287001
 21
47.31587100068144
 31
0.0
  0
LINE
  5
2AB
330
2A7
100
AcDbEntity
  8
KOTY
100
AcDbLine
 10
142.9248980299483
 20
21.91587100703053
 30
0.0
 11
121.0431654287001
 21
21.91587100703053
 31
0.0
  0
LINE
  5
2AC
330
2A7
100
AcDbEntity
  8
KOTY
100
AcDbLine
 10
122.2931654287001
 20
43.31587100068144
 30
0.0
 11
122.2931654287001
 21
25.91587100703053
 31
0.0
  0
SOLID
  5
2AD
330
2A7
100
AcDbEntity
  8
KOTY
100
AcDbTrace
 10
122.9598320953668
 20
43.31587100068144
 30
0.0
 11
121.6264987620334
 21
43.31587100068144
 31
0.0
 12
122.2931654287001
 22
47.31587100068144
 32
0.0
 13
122.2931654287001
 23
47.31587100068144
 33
0.0
  0
SOLID
  5
2AE
330
2A7
100
AcDbEntity
  8
KOTY
100
AcDbTrace
 10
121.6264987620334
 20
25.91587100703053
 30
0.0
 11
122.9598320953668
 21
25.91587100703053
 31
0.0
 12
122.2931654287001
 22
21.91587100703053
 32
0.0
 13
122.2931654287001
 23
21.91587100703053
 33
0.0
  0
MTEXT
  5
2AF
330
2A7
100
AcDbEntity
  8
KOTY
100
AcDbMText
 10
119.2511654287001
 20
34.61587100385599
 30
0.0
 40
4.0
 41
0.0
 71
     5
 72
     1
  1
\A1;25
 11
0.0
 21
1.0
 31
0.0
  0
POINT
  5
2B0
330
2A7
100
AcDbEntity
  8
DEFPOINTS
 62
     0
100
AcDbPoint
 10
142.9248980299473
 20
47.31587100068144
 30
0.0
  0
POINT
  5
2B1
330
2A7
100
AcDbEntity
  8
DEFPOINTS
 62
     0
100
AcDbPoint
 10
142.9248980299483
 20
21.91587100703053
 30
0.0
  0
POINT
  5
2B2
330
2A7
100
AcDbEntity
  8
DEFPOINTS
 62
     0
100
AcDbPoint
 10
122.2931654287001
 20
21.91587100703053
 30
0.0
  0
ENDBLK
  5
2A9
330
2A7
100
AcDbEntity
  8
0
100
AcDbBlockEnd
  0
BLOCK
  5
2B4
330
2B3
100
AcDbEntity
  8
0
100
AcDbBlockBegin
  2
*D8
 70
     1
 10
0.0
 20
0.0
 30
0.0
  3
*D8
  1
*D8
  0
LINE
  5
2B6
330
2B3
100
AcDbEntity
  8
KOTY
100
AcDbLine
 10
64.8447371879234
 20
54.5157760553045
 30
0.0
 11
24.70839258101224
 21
54.5157760553045
 31
0.0
  0
LINE
  5
2B7
330
2B3
100
AcDbEntity
  8
KOTY
100
AcDbLine
 10
60.34475346509005
 20
21.91587100703053
 30
0.0
 11
24.70839258101223
 21
21.91587100703053
 31
0.0
  0
LINE
  5
2B8
330
2B3
100
AcDbEntity
  8
KOTY
100
AcDbLine
 10
25.95839258101224
 20
50.5157760553045
 30
0.0
 11
25.95839258101223
 21
25.91587100703053
 31
0.0
  0
SOLID
  5
2B9
330
2B3
100
AcDbEntity
  8
KOTY
100
AcDbTrace
 10
26.62505924767891
 20
50.5157760553045
 30
0.0
 11
25.29172591434557
 21
50.5157760553045
 31
0.0
 12
25.95839258101224
 22
54.5157760553045
 32
0.0
 13
25.95839258101224
 23
54.5157760553045
 33
0.0
  0
SOLID
  5
2BA
330
2B3
100
AcDbEntity
  8
KOTY
100
AcDbTrace
 10
25.29172591434557
 20
25.91587100703053
 30
0.0
 11
26.6250592476789
 21
25.91587100703053
 31
0.0
 12
25.95839258101223
 22
21.91587100703053
 32
0.0
 13
25.95839258101223
 23
21.91587100703053
 33
0.0
  0
MTEXT
  5
2BB
330
2B3
100
AcDbEntity
  8
KOTY
100
AcDbMText
 10
22.91639258101223
 20
38.21582353116752
 30
0.0
 40
4.0
 41
0.0
 71
     5
 72
     1
  1
\A1;33
 11
1.089792646187049E-16
 21
1.0
 31
0.0
  0
POINT
  5
2BC
330
2B3
100
AcDbEntity
  8
DEFPOINTS
 62
     0
100
AcDbPoint
 10
64.8447371879234
 20
54.5157760553045
 30
0.0
  0
POINT
  5
2BD
330
2B3
100
AcDbEntity
  8
DEFPOINTS
 62
     0
100
AcDbPoint
 10
60.34475346509005
 20
21.91587100703053
 30
0.0
  0
POINT
  5
2BE
330
2B3
100
AcDbEntity
  8
DEFPOINTS
 62
     0
100
AcDbPoint
 10
25.95839258101223
 20
21.91587100703053
 30
0.0
  0
ENDBLK
  5
2B5
330
2B3
100
AcDbEntity
  8
0
100
AcDbBlockEnd
  0
BLOCK
  5
2C0
330
2BF
100
AcDbEntity
  8
0
100
AcDbBlockBegin
  2
*D9
 70
     1
 10
0.0
 20
0.0
 30
0.0
  3
*D9
  1
*D9
  0
LINE
  5
2C2
330
2BF
100
AcDbEntity
  8
KOTY
100
AcDbLine
 10
40.04521733735255
 20
43.31577063275743
 30
0.0
 11
40.04521733735255
 21
64.59854949684085
 31
0.0
  0
LINE
  5
2C3
330
2BF
100
AcDbEntity
  8
KOTY
100
AcDbLine
 10
104.8452241028364
 20
40.86377439998476
 30
0.0
 11
104.8452241028364
 21
64.59854949684085
 31
0.0
  0
LINE
  5
2C4
330
2BF
100
AcDbEntity
  8
KOTY
100
AcDbLine
 10
44.04521733735255
 20
63.34854949684085
 30
0.0
 11
100.8452241028364
 21
63.34854949684085
 31
0.0
  0
SOLID
  5
2C5
330
2BF
100
AcDbEntity
  8
KOTY
100
AcDbTrace
 10
44.04521733735255
 20
64.01521616350752
 30
0.0
 11
44.04521733735255
 21
62.68188283017418
 31
0.0
 12
40.04521733735255
 22
63.34854949684085
 32
0.0
 13
40.04521733735255
 23
63.34854949684085
 33
0.0
  0
SOLID
  5
2C6
330
2BF
100
AcDbEntity
  8
KOTY
100
AcDbTrace
 10
100.8452241028364
 20
62.68188283017418
 30
0.0
 11
100.8452241028364
 21
64.01521616350752
 31
0.0
 12
104.8452241028364
 22
63.34854949684085
 32
0.0
 13
104.8452241028364
 23
63.34854949684085
 33
0.0
  0
MTEXT
  5
2C7
330
2BF
100
AcDbEntity
  8
KOTY
100
AcDbMText
 10
72.4452207200945
 20
66.39054949684085
 30
0.0
 40
4.0
 41
0.0
 71
     5
 72
     1
  1
\A1;65
  0
POINT
  5
2C8
330
2BF
100
AcDbEntity
  8
DEFPOINTS
 62
     0
100
AcDbPoint
 10
40.04521733735255
 20
43.31577063275743
 30
0.0
  0
POINT
  5
2C9
330
2BF
100
AcDbEntity
  8
DEFPOINTS
 62
     0
100
AcDbPoint
 10
104.8452241028364
 20
40.86377439998476
 30
0.0
  0
POINT
  5
2CA
330
2BF
100
AcDbEntity
  8
DEFPOINTS
 62
     0
100
AcDbPoint
 10
104.8452241028364
 20
63.34854949684085
 30
0.0
  0
ENDBLK
  5
2C1
330
2BF
100
AcDbEntity
  8
0
100
AcDbBlockEnd
  0
ENDSEC
  0
SECTION
  2
ENTITIES
  0
LINE
  5
20B
330
1F
100
AcDbEntity
  8
OBRYS
100
AcDbLine
 10
136.2221202538464
 20
31.11565399084246
 30
0.0
 11
136.2221202538464
 21
38.10282439925139
 31
0.0
  0
LINE
  5
20C
330
1F
100
AcDbEntity
  8
OBRYS
100
AcDbLine
 10
136.7220036087561
 20
31.11565399084246
 30
0.0
 11
136.7220036087561
 21
38.10282439925139
 31
0.0
  0
LINE
  5
20D
330
1F
100
AcDbEntity
  8
OBRYS
100
AcDbLine
 10
136.7220036087561
 20
38.10282439925139
 30
0.0
 11
136.7220036087561
 21
38.11539899777243
 31
0.0
  0
LINE
  5
20E
330
1F
100
AcDbEntity
  8
OBRYS
100
AcDbLine
 10
133.1459944950668
 20
34.61587100385644
 30
0.0
 11
136.098441325926
 21
34.61587100385644
 31
0.0
  0
LINE
  5
20F
330
1F
100
AcDbEntity
  8
OBRYS
100
AcDbLine
 10
133.0223155671463
 20
38.11539899777243
 30
0.0
 11
137.2218869636658
 21
38.11539899777243
 31
0.0
  0
LINE
  5
210
330
1F
100
AcDbEntity
  8
OBRYS
100
AcDbLine
 10
136.2221202538464
 20
38.11539899777243
 30
0.0
 11
136.2221202538464
 21
38.10282439925139
 31
0.0
  0
LINE
  5
211
330
1F
100
AcDbEntity
  8
OBRYS
100
AcDbLine
 10
137.2218869636658
 20
31.11565399084246
 30
0.0
 11
133.0223155671463
 21
31.11565399084246
 31
0.0
  0
LINE
  5
212
330
1F
100
AcDbEntity
  8
OBRYS
100
AcDbLine
 10
132.9220632885256
 20
32.61599307466848
 30
0.0
 11
133.0223155671463
 21
32.61599307466848
 31
0.0
  0
LINE
  5
213
330
1F
100
AcDbEntity
  8
OBRYS
100
AcDbLine
 10
133.0223155671463
 20
36.61574893304349
 30
0.0
 11
132.9220632885256
 21
36.61574893304349
 31
0.0
  0
LINE
  5
214
102
{ACAD_REACTORS
102
}
330
1F
100
AcDbEntity
  8
OBRYS
100
AcDbLine
 10
132.9220632885256
 20
36.61574893304349
 30
0.0
 11
132.422179933616
 21
36.11552106858538
 31
0.0
  0
LINE
  5
215
330
1F
100
AcDbEntity
  8
OBRYS
100
AcDbLine
 10
132.9220632885256
 20
36.61574893304349
 30
0.0
 11
132.9220632885256
 21
32.61599307466848
 31
0.0
  0
LINE
  5
216
330
1F
100
AcDbEntity
  8
OBRYS
100
AcDbLine
 10
132.9220632885256
 20
32.61599307466848
 30
0.0
 11
132.422179933616
 21
33.11553192002951
 31
0.0
  0
LINE
  5
217
330
1F
100
AcDbEntity
  8
OBRYS
100
AcDbLine
 10
132.422179933616
 20
33.11553192002951
 30
0.0
 11
132.422179933616
 21
36.11552106858538
 31
0.0
  0
LINE
  5
218
330
1F
100
AcDbEntity
  8
OBRYS
100
AcDbLine
 10
156.9192204005818
 20
21.91587100703053
 30
0.0
 11
142.9248980299483
 21
21.91587100703053
 31
0.0
  0
LINE
  5
219
330
1F
100
AcDbEntity
  8
OBRYS
100
AcDbLine
 10
162.6218869573158
 20
41.61285993439854
 30
0.0
 11
162.6218869573158
 21
27.61853756376443
 31
0.0
  0
LINE
  5
21A
330
1F
100
AcDbEntity
  8
OBRYS
100
AcDbLine
 10
142.9248980299483
 20
47.31587100068144
 30
0.0
 11
156.9192204005818
 21
47.31587100068144
 31
0.0
  0
LINE
  5
21B
330
1F
100
AcDbEntity
  8
OBRYS
100
AcDbLine
 10
137.2218869636658
 20
27.61853756376443
 30
0.0
 11
137.2218869636658
 21
41.61285993439854
 31
0.0
  0
LINE
  5
21C
330
1F
100
AcDbEntity
  8
OBRYS
100
AcDbLine
 10
149.1329600943687
 20
34.48461286586847
 30
0.0
 11
149.1308930370777
 21
34.4983932478094
 31
0.0
  0
LINE
  5
21D
330
1F
100
AcDbEntity
  8
OBRYS
100
AcDbLine
 10
149.1308930370777
 20
34.4983932478094
 30
0.0
 11
149.1284814702379
 21
34.51217362974943
 31
0.0
  0
LINE
  5
21E
330
1F
100
AcDbEntity
  8
OBRYS
100
AcDbLine
 10
155.4223264122408
 20
54.5157760553045
 30
0.0
 11
144.4221365278381
 21
54.5157760553045
 31
0.0
  0
LINE
  5
220
330
1F
100
AcDbEntity
  8
OBRYS
100
AcDbLine
 10
148.1504188619755
 20
48.01574214850937
 30
0.0
 11
148.0918522387262
 21
48.01574214850937
 31
0.0
  0
LINE
  5
221
330
1F
100
AcDbEntity
  8
OBRYS
100
AcDbLine
 10
143.93121042119
 20
48.01574214850937
 30
0.0
 11
143.93121042119
 21
54.01589270039447
 31
0.0
  0
LINE
  5
222
330
1F
100
AcDbEntity
  8
OBRYS
100
AcDbLine
 10
155.9125634997919
 20
48.01574214850937
 30
0.0
 11
155.9125634997919
 21
54.01589270039447
 31
0.0
  0
LINE
  5
223
330
1F
100
AcDbEntity
  8
OBRYS
100
AcDbLine
 10
152.3975325761915
 20
31.3473366622254
 30
0.0
 11
152.310027150866
 21
31.28291337665153
 31
0.0
  0
LINE
  5
224
330
1F
100
AcDbEntity
  8
OBRYS
100
AcDbLine
 10
147.3604584672076
 20
37.81670921920157
 30
0.0
 11
147.4469303638874
 21
37.88440534548657
 31
0.0
  0
LINE
  5
225
330
1F
100
AcDbEntity
  8
OBRYS
100
AcDbLine
 10
143.2266883944564
 20
43.71901905930643
 30
0.0
 11
143.2473589673678
 21
43.73417747944153
 31
0.0
  0
LINE
  5
226
330
1F
100
AcDbEntity
  8
OBRYS
100
AcDbLine
 10
152.6976003929565
 20
45.56955209920851
 30
0.0
 11
152.7282617427755
 21
45.5616283795914
 31
0.0
  0
LINE
  5
227
330
1F
100
AcDbEntity
  8
OBRYS
100
AcDbLine
 10
102.8453461736488
 20
41.36550207855747
 30
0.0
 11
102.8453461736488
 21
27.86589541960641
 31
0.0
  0
LINE
  5
228
330
1F
100
AcDbEntity
  8
OBRYS
100
AcDbLine
 10
104.8452241028364
 20
40.86377439998476
 30
0.0
 11
104.8452241028364
 21
28.36589038075838
 31
0.0
  0
LINE
  5
229
330
1F
100
AcDbEntity
  8
OBRYS
100
AcDbLine
 10
83.94486332247125
 20
41.36550207855747
 30
0.0
 11
84.84523902754127
 21
41.36550207855747
 31
0.0
  0
LINE
  5
22A
330
1F
100
AcDbEntity
  8
OBRYS
100
AcDbLine
 10
103.8451128834685
 20
41.36550207855747
 30
0.0
 11
103.8451128834685
 21
27.86589541960641
 31
0.0
  0
LINE
  5
22B
330
1F
100
AcDbEntity
  8
OBRYS
100
AcDbLine
 10
84.84523902754127
 20
27.86589541960641
 30
0.0
 11
83.94486332247125
 21
27.86589541960641
 31
0.0
  0
LINE
  5
22C
330
1F
100
AcDbEntity
  8
OBRYS
100
AcDbLine
 10
80.34508304993388
 20
23.61550886467851
 30
0.0
 11
83.34507219848929
 21
23.61550886467851
 31
0.0
  0
LINE
  5
22D
330
1F
100
AcDbEntity
  8
OBRYS
100
AcDbLine
 10
80.34508304993388
 20
45.61554412393637
 30
0.0
 11
83.34507219848929
 21
45.61554412393637
 31
0.0
  0
LINE
  5
22E
330
1F
100
AcDbEntity
  8
OBRYS
100
AcDbLine
 10
60.34475346509005
 20
41.61285993439854
 30
0.0
 11
80.34508304993388
 21
41.61285993439854
 31
0.0
  0
LINE
  5
22F
330
1F
100
AcDbEntity
  8
OBRYS
100
AcDbLine
 10
80.34508304993388
 20
27.61853756376443
 30
0.0
 11
60.34475346509005
 21
27.61853756376443
 31
0.0
  0
LINE
  5
230
330
1F
100
AcDbEntity
  8
OBRYS
100
AcDbLine
 10
57.64500438807404
 20
25.86567298086946
 30
0.0
 11
60.34475346509005
 21
25.86567298086946
 31
0.0
  0
LINE
  5
231
330
1F
100
AcDbEntity
  8
OBRYS
100
AcDbLine
 10
57.64500438807404
 20
43.36589677206756
 30
0.0
 11
60.34475346509005
 21
43.36589677206756
 31
0.0
  0
LINE
  5
232
330
1F
100
AcDbEntity
  8
OBRYS
100
AcDbLine
 10
83.34507219848929
 20
45.61554412393637
 30
0.0
 11
83.34507219848929
 21
23.61550886467851
 31
0.0
  0
LINE
  5
233
330
1F
100
AcDbEntity
  8
OBRYS
100
AcDbLine
 10
80.34508304993388
 20
47.31587100068144
 30
0.0
 11
80.34508304993388
 21
21.91587100703053
 31
0.0
  0
LINE
  5
234
102
{ACAD_REACTORS
102
}
330
1F
100
AcDbEntity
  8
OBRYS
100
AcDbLine
 10
60.34475346509005
 20
21.91587100703053
 30
0.0
 11
80.34508304993388
 21
21.91587100703053
 31
0.0
  0
LINE
  5
235
330
1F
100
AcDbEntity
  8
OBRYS
100
AcDbLine
 10
80.34508304993388
 20
47.31587100068144
 30
0.0
 11
60.34475346509005
 21
47.31587100068144
 31
0.0
  0
LINE
  5
236
330
1F
100
AcDbEntity
  8
OBRYS
100
AcDbLine
 10
60.34475346509005
 20
47.31587100068144
 30
0.0
 11
60.34475346509005
 21
21.91587100703053
 31
0.0
  0
LINE
  5
237
330
1F
100
AcDbEntity
  8
OBRYS
100
AcDbLine
 10
75.8450993271003
 20
54.5157760553045
 30
0.0
 11
64.8447371879234
 21
54.5157760553045
 31
0.0
  0
LINE
  5
239
330
1F
100
AcDbEntity
  8
OBRYS
100
AcDbLine
 10
65.67104334006065
 20
48.01574214850937
 30
0.0
 11
65.65933001541073
 21
48.01574214850937
 31
0.0
  0
LINE
  5
23A
330
1F
100
AcDbEntity
  8
OBRYS
100
AcDbLine
 10
64.34674863553046
 20
48.01574214850937
 30
0.0
 11
64.34674863553046
 21
54.01589270039447
 31
0.0
  0
LINE
  5
23B
330
1F
100
AcDbEntity
  8
OBRYS
100
AcDbLine
 10
76.33792023626536
 20
48.01574214850937
 30
0.0
 11
76.33792023626536
 21
54.01589270039447
 31
0.0
  0
LINE
  5
23C
330
1F
100
AcDbEntity
  8
OBRYS
100
AcDbLine
 10
40.04521733735255
 20
25.91562686540554
 30
0.0
 11
40.34511289934353
 21
25.61590355818951
 31
0.0
  0
LINE
  5
23D
330
1F
100
AcDbEntity
  8
OBRYS
100
AcDbLine
 10
40.34511289934353
 20
43.61566619474841
 30
0.0
 11
40.04521733735255
 21
43.31577063275743
 31
0.0
  0
LINE
  5
23E
330
1F
100
AcDbEntity
  8
OBRYS
100
AcDbLine
 10
40.04521733735255
 20
43.31577063275743
 30
0.0
 11
40.04521733735255
 21
25.91562686540554
 31
0.0
  0
LINE
  5
23F
330
1F
100
AcDbEntity
  8
OBRYS
100
AcDbLine
 10
43.04520648590797
 20
25.61590355818951
 30
0.0
 11
45.34532448663511
 21
23.31578555746249
 31
0.0
  0
LINE
  5
240
330
1F
100
AcDbEntity
  8
OBRYS
100
AcDbLine
 10
45.34532448663511
 20
45.91578419547544
 30
0.0
 11
43.04520648590797
 21
43.61566619474841
 31
0.0
  0
LINE
  5
241
330
1F
100
AcDbEntity
  8
OBRYS
100
AcDbLine
 10
51.04489045743237
 20
24.11590898391158
 30
0.0
 11
57.64500438807404
 21
24.11590898391158
 31
0.0
  0
LINE
  5
242
330
1F
100
AcDbEntity
  8
OBRYS
100
AcDbLine
 10
57.64500438807404
 20
24.11590898391158
 30
0.0
 11
57.64500438807404
 21
45.11566076902544
 31
0.0
  0
LINE
  5
243
330
1F
100
AcDbEntity
  8
OBRYS
100
AcDbLine
 10
57.64500438807404
 20
45.11566076902544
 30
0.0
 11
51.04489045743237
 21
45.11566076902544
 31
0.0
  0
LINE
  5
244
330
1F
100
AcDbEntity
  8
OBRYS
100
AcDbLine
 10
51.04489045743237
 20
45.11566076902544
 30
0.0
 11
50.2451115405316
 21
45.91578419547544
 31
0.0
  0
LINE
  5
245
330
1F
100
AcDbEntity
  8
OBRYS
100
AcDbLine
 10
50.2451115405316
 20
23.31578555746249
 30
0.0
 11
51.04489045743237
 21
24.11590898391158
 31
0.0
  0
LINE
  5
246
330
1F
100
AcDbEntity
  8
OBRYS
100
AcDbLine
 10
51.04489045743237
 20
45.11566076902544
 30
0.0
 11
51.04489045743237
 21
24.11590898391158
 31
0.0
  0
LINE
  5
247
330
1F
100
AcDbEntity
  8
OBRYS
100
AcDbLine
 10
40.34511289934353
 20
25.61590355818951
 30
0.0
 11
43.04520648590797
 21
25.61590355818951
 31
0.0
  0
LINE
  5
248
330
1F
100
AcDbEntity
  8
OBRYS
100
AcDbLine
 10
40.34511289934353
 20
25.61590355818951
 30
0.0
 11
40.34511289934353
 21
43.61566619474841
 31
0.0
  0
LINE
  5
249
330
1F
100
AcDbEntity
  8
OBRYS
100
AcDbLine
 10
43.04520648590797
 20
43.61566619474841
 30
0.0
 11
40.34511289934353
 21
43.61566619474841
 31
0.0
  0
LINE
  5
24A
330
1F
100
AcDbEntity
  8
OBRYS
100
AcDbLine
 10
43.04520648590797
 20
43.61566619474841
 30
0.0
 11
43.04520648590797
 21
25.61590355818951
 31
0.0
  0
LINE
  5
24B
330
1F
100
AcDbEntity
  8
OBRYS
100
AcDbLine
 10
50.2451115405316
 20
23.31578555746249
 30
0.0
 11
50.2451115405316
 21
23.31578555746249
 31
0.0
  0
LINE
  5
24C
330
1F
100
AcDbEntity
  8
OBRYS
100
AcDbLine
 10
87.87089413746203
 20
34.61587100385644
 30
0.0
 11
85.31928416631168
 21
34.61587100385644
 31
0.0
  0
LINE
  5
24D
330
1F
100
AcDbEntity
  8
OBRYS
100
AcDbLine
 10
84.84523902754127
 20
44.11589405920652
 30
0.0
 11
88.34511153100648
 21
44.11589405920652
 31
0.0
  0
LINE
  5
24E
330
1F
100
AcDbEntity
  8
OBRYS
100
AcDbLine
 10
84.84523902754127
 20
25.11602020327949
 30
0.0
 11
84.84523902754127
 21
44.11589405920652
 31
0.0
  0
LINE
  5
24F
330
1F
100
AcDbEntity
  8
OBRYS
100
AcDbLine
 10
84.84523902754127
 20
25.11602020327949
 30
0.0
 11
88.34555134611078
 21
25.11671915036048
 31
0.0
  0
LINE
  5
250
330
1F
100
AcDbEntity
  8
OBRYS
100
AcDbLine
 10
88.34555134611078
 20
25.11671915036048
 30
0.0
 11
88.34511153100648
 21
44.11589405920652
 31
0.0
  0
LINE
  5
251
102
{ACAD_REACTORS
330
259
102
}
330
1F
100
AcDbEntity
  8
OBRYS
100
AcDbLine
 10
45.34532448663511
 20
45.91578419547544
 30
0.0
 11
50.2451115405316
 21
45.91578419547544
 31
0.0
  0
LINE
  5
252
102
{ACAD_REACTORS
330
259
102
}
330
1F
100
AcDbEntity
  8
OBRYS
100
AcDbLine
 10
50.2451115405316
 20
23.31578555746249
 30
0.0
 11
45.34532448663511
 21
23.31578555746249
 31
0.0
  0
LINE
  5
253
102
{ACAD_REACTORS
330
259
102
}
330
1F
100
AcDbEntity
  8
OBRYS
100
AcDbLine
 10
45.34532448663511
 20
23.31578555746249
 30
0.0
 11
45.34532448663511
 21
45.91578419547544
 31
0.0
  0
LINE
  5
254
102
{ACAD_REACTORS
330
259
102
}
330
1F
100
AcDbEntity
  8
OBRYS
100
AcDbLine
 10
50.2451115405316
 20
45.91578419547544
 30
0.0
 11
50.2451115405316
 21
23.31578555746249
 31
0.0
  0
LINE
  5
255
330
1F
100
AcDbEntity
  8
OBRYS
100
AcDbLine
 10
143.93121042119
 20
54.01589270039447
 30
0.0
 11
144.4221365278381
 21
54.5157760553045
 31
0.0
  0
LINE
  5
256
330
1F
100
AcDbEntity
  8
OBRYS
100
AcDbLine
 10
155.4223264122408
 20
54.5157760553045
 30
0.0
 11
155.9125634997919
 21
54.01589270039447
 31
0.0
  0
LINE
  5
257
330
1F
100
AcDbEntity
  8
OBRYS
100
AcDbLine
 10
75.8450993271003
 20
54.5157760553045
 30
0.0
 11
76.33792023626536
 21
54.01589270039447
 31
0.0
  0
LINE
  5
258
102
{ACAD_REACTORS
102
}
330
1F
100
AcDbEntity
  8
OBRYS
100
AcDbLine
 10
64.8447371879234
 20
54.5157760553045
 30
0.0
 11
64.34674863553046
 21
54.01589270039447
 31
0.0
  0
HATCH
  5
259
330
1F
100
AcDbEntity
  8
OBRYS
100
AcDbHatch
 10
0.0
 20
0.0
 30
0.0
210
0.0
220
0.0
230
1.0
  2
user
 70
     0
 71
     1
 91
        1
 92
        7
 72
     0
 73
     1
 93
        4
 10
50.2451115405316
 20
23.31578555746249
 10
50.2451115405316
 20
45.91578419547544
 10
45.34532448663511
 20
45.91578419547544
 10
45.34532448663511
 20
23.31578555746249
 97
        4
330
254
330
251
330
253
330
252
 75
     0
 76
     0
 52
45.0
 41
0.5
 77
     0
 78
     1
 53
45.0
 43
-763.2186572626067
 44
-1759.878443107079
 45
-0.3535533905932737
 46
0.3535533905932738
 79
     0
 47
0.0
 98
        1
 10
48.43358159631335
 20
36.13892130904354
1001
ACAD
1010
0.0
1020
0.0
1030
0.0
  0
LINE
  5
25A
330
1F
100
AcDbEntity
  8
OBRYS
100
AcDbLine
 10
64.34674863553046
 20
48.01574214850937
 30
0.0
 11
76.33792023626536
 21
48.01574214850937
 31
0.0
  0
HATCH
  5
25B
330
1F
100
AcDbEntity
  8
OBRYS
100
AcDbHatch
 10
0.0
 20
0.0
 30
0.0
210
0.0
220
0.0
230
1.0
  2
user
 70
     0
 71
     0
 91
        1
 92
        7
 72
     0
 73
     1
 93
        7
 10
76.33792023626536
 20
48.01574214850937
 10
76.33792023626536
 20
54.01589270039447
 10
75.8450993271003
 20
54.5157760553045
 10
65.26452207280109
 20
54.5157760553045
 10
64.8447371879234
 20
54.5157760553045
 10
64.34674863553046
 20
54.01589270039447
 10
64.34674863553046
 20
48.01574214850937
 97
        0
 75
     0
 76
     0
 52
89.99999999999999
 41
0.5
 77
     0
 78
     1
 53
89.99999999999999
 43
-763.2186572626067
 44
-1759.878443107079
 45
-0.5
 46
0.0000000000000001
 79
     0
 47
0.0
 98
        1
 10
72.63478434793178
 20
49.67532467169143
1001
ACAD
1010
0.0
1020
0.0
1030
0.0
  0
HATCH
  5
25C
330
1F
100
AcDbEntity
  8
OBRYS
100
AcDbHatch
 10
0.0
 20
0.0
 30
0.0
210
0.0
220
0.0
230
1.0
  2
user
 70
     0
 71
     0
 91
        1
 92
        7
 72
     0
 73
     1
 93
        7
 10
155.9125634997919
 20
48.01574214850937
 10
155.9125634997919
 20
54.01589270039447
 10
155.4223264122408
 20
54.5157760553045
 10
152.0289073592697
 20
54.5157760553045
 10
144.4221365278381
 20
54.5157760553045
 10
143.93121042119
 20
54.01589270039447
 10
143.93121042119
 20
48.01574214850937
 97
        0
 75
     0
 76
     0
 52
89.99999999999999
 41
0.5
 77
     0
 78
     1
 53
89.99999999999999
 43
-763.2186572626067
 44
-1759.878443107079
 45
-0.5
 46
0.0000000000000001
 79
     0
 47
0.0
 98
        1
 10
148.7118577897344
 20
51.56674316538668
1001
ACAD
1010
0.0
1020
0.0
1030
0.0
  0
ARC
  5
25D
330
1F
100
AcDbEntity
  8
OBRYS
100
AcDbCircle
 10
83.14486332247152
 20
25.66891412099652
 30
0.0
 40
0.799999999999675
100
AcDbArc
 50
284.4929629766984
 51
0.0000000000162844
  0
ARC
  5
25E
330
1F
100
AcDbEntity
  8
OBRYS
100
AcDbCircle
 10
83.14486332247141
 20
43.55395015723751
 30
0.0
 40
0.7999999999998408
100
AcDbArc
 50
0.0
 51
75.5070370232972
  0
LINE
  5
25F
330
1F
100
AcDbEntity
  8
OBRYS
100
AcDbLine
 10
83.94486332247125
 20
43.55395015723751
 30
0.0
 11
83.94486332247125
 21
25.66891412099674
 31
0.0
  0
ARC
  5
260
330
1F
100
AcDbEntity
  8
OBRYS
100
AcDbCircle
 10
108.8802163335933
 20
39.36588253153148
 30
0.0
 40
24.03497730609065
100
AcDbArc
 50
168.6016491696558
 51
191.3983508303442
  0
ARC
  5
261
330
1F
100
AcDbEntity
  8
OBRYS
100
AcDbCircle
 10
108.8802029508116
 20
29.86612638625432
 30
0.0
 40
24.03497730609065
100
AcDbArc
 50
168.6016491696558
 51
191.3983508303442
  0
LINE
  5
262
330
1F
100
AcDbEntity
  8
OBRYS
100
AcDbLine
 10
88.34511153100648
 20
44.11589405920652
 30
0.0
 11
88.34533144838822
 21
34.61588198668572
 31
0.0
  0
ARC
  5
263
330
1F
100
AcDbEntity
  8
OBRYS
100
AcDbCircle
 10
64.2343071999838
 20
39.37486526986594
 30
0.0
 40
24.11091596096833
100
AcDbArc
 50
348.616254203773
 51
11.34020028172053
  0
ARC
  5
264
330
1F
100
AcDbEntity
  8
OBRYS
100
AcDbCircle
 10
64.23430719998096
 20
29.85687673784672
 30
0.0
 40
24.11091596097113
100
AcDbArc
 50
348.6616833160828
 51
11.38374579622621
  0
LINE
  5
265
330
1F
100
AcDbEntity
  8
OBRYS
100
AcDbLine
 10
104.3452356774207
 20
27.86589038089231
 30
0.0
 11
88.34548771365628
 21
27.86552000002824
 31
0.0
  0
LINE
  5
266
330
1F
100
AcDbEntity
  8
OBRYS
100
AcDbLine
 10
104.3452125282522
 20
41.36377439985084
 30
0.0
 11
88.34517524886276
 21
41.36340401228925
 31
0.0
  0
ARC
  5
267
330
1F
100
AcDbEntity
  8
OBRYS
100
AcDbCircle
 10
104.3452241028364
 20
40.86377439998476
 30
0.0
 40
0.4999999999999997
100
AcDbArc
 50
0.0
 51
90.00132634965759
  0
ARC
  5
268
330
1F
100
AcDbEntity
  8
OBRYS
100
AcDbCircle
 10
104.3452241028364
 20
28.36589038075838
 30
0.0
 40
0.5000000000000001
100
AcDbArc
 50
270.0013263496575
 51
0.0
  0
LINE
  5
269
330
1F
100
AcDbEntity
  8
OBRYS
100
AcDbLine
 10
133.0223155671463
 20
31.11565399084246
 30
0.0
 11
133.0223155671463
 21
38.11539899777243
 31
0.0
  0
ARC
  5
26A
330
1F
100
AcDbEntity
  8
OBRYS
100
AcDbCircle
 10
74.59214388436631
 20
47.30901488862035
 30
0.0
 40
0.7067325647762859
100
AcDbArc
 50
0.5558431384495895
 51
89.77800232560912
  0
ARC
  5
26B
330
1F
100
AcDbEntity
  8
OBRYS
100
AcDbCircle
 10
66.08717344748909
 20
47.31574214850933
 30
0.0
 40
0.7000000000002728
100
AcDbArc
 50
90.0000000000186
 51
179.9894533061647
  0
ARC
  5
26C
330
1F
100
AcDbEntity
  8
OBRYS
100
AcDbCircle
 10
145.4665383362021
 20
32.86576249734934
 30
0.0
 40
12.44422276905572
100
AcDbArc
 50
171.9153365237162
 51
188.0846634762827
  0
ARC
  5
26D
330
1F
100
AcDbEntity
  8
OBRYS
100
AcDbCircle
 10
145.4665383362027
 20
36.36597951036332
 30
0.0
 40
12.44422276905641
100
AcDbArc
 50
171.9185407434366
 51
188.0846634762823
  0
ARC
  5
26E
330
1F
100
AcDbEntity
  8
OBRYS
100
AcDbCircle
 10
123.7778974847906
 20
32.86576249734934
 30
0.0
 40
12.44422276905583
100
AcDbArc
 50
351.9153365237173
 51
8.084663476283676
  0
ARC
  5
26F
330
1F
100
AcDbEntity
  8
OBRYS
100
AcDbCircle
 10
123.7778974847899
 20
36.36597951036332
 30
0.0
 40
12.44422276905651
100
AcDbArc
 50
351.9153365237178
 51
8.081459256563368
  0
CIRCLE
  5
270
330
1F
100
AcDbEntity
  8
OBRYS
100
AcDbCircle
 10
149.921886960491
 20
34.61587100385644
 30
0.0
 40
0.0933620876503483
  0
CIRCLE
  5
271
330
1F
100
AcDbEntity
  8
OBRYS
100
AcDbCircle
 10
149.921886960491
 20
34.61587100385644
 30
0.0
 40
0.7933625654047483
  0
CIRCLE
  5
272
330
1F
100
AcDbEntity
  8
OBRYS
100
AcDbCircle
 10
149.921886960491
 20
34.61587100385644
 30
0.0
 40
0.8953933016732594
  0
CIRCLE
  5
273
330
1F
100
AcDbEntity
  8
OBRYS
100
AcDbCircle
 10
149.921886960491
 20
34.61587100385644
 30
0.0
 40
1.488581747720606
  0
LINE
  5
274
330
1F
100
AcDbEntity
  8
OBRYS
100
AcDbLine
 10
145.8270464667231
 20
34.81585879677458
 30
0.0
 11
146.4278711193506
 21
34.81585879677458
 31
0.0
  0
LINE
  5
275
330
1F
100
AcDbEntity
  8
OBRYS
100
AcDbLine
 10
145.8270464667231
 20
34.41588321093739
 30
0.0
 11
146.4278711193506
 21
34.41561357126078
 31
0.0
  0
LINE
  5
276
330
1F
100
AcDbEntity
  8
OBRYS
100
AcDbLine
 10
149.7220714223466
 20
38.11023135454455
 30
0.0
 11
149.7220714223466
 21
38.71053924284955
 31
0.0
  0
LINE
  5
277
330
1F
100
AcDbEntity
  8
OBRYS
100
AcDbLine
 10
150.1217024986353
 20
38.10833655202849
 30
0.0
 11
150.1217024986353
 21
38.71053924284955
 31
0.0
  0
LINE
  5
278
330
1F
100
AcDbEntity
  8
OBRYS
100
AcDbLine
 10
153.4159028016313
 20
34.81585879677458
 30
0.0
 11
154.0170719638074
 21
34.81585879677458
 31
0.0
  0
LINE
  5
279
330
1F
100
AcDbEntity
  8
OBRYS
100
AcDbLine
 10
153.4159028016313
 20
34.41588321093739
 30
0.0
 11
154.0170719638074
 21
34.41588321093739
 31
0.0
  0
LINE
  5
27A
330
1F
100
AcDbEntity
  8
OBRYS
100
AcDbLine
 10
150.1217024986353
 20
31.12168290794146
 30
0.0
 11
150.1217024986353
 21
30.52051374576443
 31
0.0
  0
LINE
  5
27B
330
1F
100
AcDbEntity
  8
OBRYS
100
AcDbLine
 10
149.7220714223466
 20
31.12168290794146
 30
0.0
 11
149.7220714223466
 21
30.52051374576443
 31
0.0
  0
CIRCLE
  5
27C
330
1F
100
AcDbEntity
  8
OBRYS
100
AcDbCircle
 10
149.921886960491
 20
34.61587100385644
 30
0.0
 40
0.1998155381444349
  0
CIRCLE
  5
27D
330
1F
100
AcDbEntity
  8
OBRYS
100
AcDbCircle
 10
149.921886960491
 20
34.61587100385644
 30
0.0
 40
0.2018254659412181
  0
CIRCLE
  5
27E
330
1F
100
AcDbEntity
  8
OBRYS
100
AcDbCircle
 10
149.921886960491
 20
34.61587100385644
 30
0.0
 40
0.2018254659412181
  0
CIRCLE
  5
27F
330
1F
100
AcDbEntity
  8
OBRYS
100
AcDbCircle
 10
149.921886960491
 20
34.61587100385644
 30
0.0
 40
3.499749953560916
  0
CIRCLE
  5
280
330
1F
100
AcDbEntity
  8
OBRYS
100
AcDbCircle
 10
149.921886960491
 20
34.61587100385644
 30
0.0
 40
4.099721184021951
  0
ARC
  5
281
330
1F
100
AcDbEntity
  8
OBRYS
100
AcDbCircle
 10
149.9219764293895
 20
34.61268970216746
 30
0.0
 40
3.799952864654494
100
AcDbArc
 50
182.9708145229543
 51
266.9844355256897
  0
ARC
  5
282
330
1F
100
AcDbEntity
  8
OBRYS
100
AcDbCircle
 10
149.9219764293892
 20
34.61268970216746
 30
0.0
 40
3.799952864654154
100
AcDbArc
 50
93.0131830668155
 51
176.9351501683105
  0
ARC
  5
283
330
1F
100
AcDbEntity
  8
OBRYS
100
AcDbCircle
 10
149.9219764293892
 20
34.61268970216746
 30
0.0
 40
3.799952864654154
100
AcDbArc
 50
3.064855219316756
 51
86.98713729187577
  0
ARC
  5
284
330
1F
100
AcDbEntity
  8
OBRYS
100
AcDbCircle
 10
149.9219764293891
 20
34.61268970216723
 30
0.0
 40
3.799952864654029
100
AcDbArc
 50
273.0153286497617
 51
357.0312188027929
  0
CIRCLE
  5
285
330
1F
100
AcDbEntity
  8
OBRYS
100
AcDbCircle
 10
149.921886960491
 20
34.61587100385644
 30
0.0
 40
4.631280142877759
  0
CIRCLE
  5
286
330
1F
100
AcDbEntity
  8
OBRYS
100
AcDbCircle
 10
149.921886960491
 20
34.61587100385644
 30
0.0
 40
7.496648591089199
  0
CIRCLE
  5
287
330
1F
100
AcDbEntity
  8
OBRYS
100
AcDbCircle
 10
149.921886960491
 20
34.61587100385644
 30
0.0
 40
8.146210008130204
  0
CIRCLE
  5
288
330
1F
100
AcDbEntity
  8
OBRYS
100
AcDbCircle
 10
149.921886960491
 20
34.61587100385644
 30
0.0
 40
8.69083865014322
  0
CIRCLE
  5
289
330
1F
100
AcDbEntity
  8
OBRYS
100
AcDbCircle
 10
149.921886960491
 20
34.61587100385644
 30
0.0
 40
11.29958522137591
  0
ARC
  5
28A
330
1F
100
AcDbEntity
  8
OBRYS
100
AcDbCircle
 10
149.9218869604912
 20
34.61587100385599
 30
0.0
 40
14.49992600027667
100
AcDbArc
 50
298.8534956559864
 51
331.1476966591649
  0
ARC
  5
28B
102
{ACAD_REACTORS
102
}
330
1F
100
AcDbEntity
  8
OBRYS
100
AcDbCircle
 10
149.9218869604895
 20
34.61587100385485
 30
0.0
 40
14.49992600027891
100
AcDbArc
 50
28.85230334083106
 51
61.14769665916534
  0
ARC
  5
28C
102
{ACAD_REACTORS
102
}
330
1F
100
AcDbEntity
  8
OBRYS
100
AcDbCircle
 10
149.9218869604908
 20
34.61587100385644
 30
0.0
 40
14.49992600027679
100
AcDbArc
 50
118.8523033408326
 51
151.1476966591674
  0
ARC
  5
28D
102
{ACAD_REACTORS
102
}
330
1F
100
AcDbEntity
  8
OBRYS
100
AcDbCircle
 10
149.9218869604909
 20
34.61587100385621
 30
0.0
 40
14.49992600027703
100
AcDbArc
 50
208.8523033408332
 51
241.1476966591719
  0
ARC
  5
28E
330
1F
100
AcDbEntity
  8
OBRYS
100
AcDbCircle
 10
145.6701377725088
 20
47.3157421485091
 30
0.0
 40
0.7000000000002728
100
AcDbArc
 50
90.0000000000186
 51
179.9999999999814
  0
LINE
  5
28F
330
1F
100
AcDbEntity
  8
OBRYS
100
AcDbLine
 10
143.93121042119
 20
48.01574214850937
 30
0.0
 11
155.9125634997919
 21
48.01574214850937
 31
0.0
  0
ARC
  5
290
330
1F
100
AcDbEntity
  8
OBRYS
100
AcDbCircle
 10
154.1752849902983
 20
47.3105973329243
 30
0.0
 40
0.7051476227779259
100
AcDbArc
 50
0.428508459940712
 51
89.83832834644647
  0
DIMENSION
  5
291
102
{ACAD_REACTORS
102
}
102
{ACAD_XDICTIONARY
360
292
102
}
330
1F
100
AcDbEntity
  8
KOTY
100
AcDbDimension
  2
*D6
 10
162.6218869573166
 20
63.34854949684085
 30
0.0
 11
147.5220334454663
 21
66.39054949684085
 31
0.0
 70
    32
  3
ISO-25
100
AcDbAlignedDimension
 13
132.422179933616
 23
36.11552106858538
 33
0.0
 14
162.6218869573166
 24
41.612859934399
 34
0.0
100
AcDbRotatedDimension
1001
ACAD
1000
DSTYLE
1002
{
1070
   287
1070
     5
1070
   271
1070
     0
1070
   278
1070
    44
1070
   140
1040
4.0
1070
   147
1040
1.0
1070
    41
1040
4.0
1070
   178
1070
   256
1070
   176
1070
   256
1070
   177
1070
   256
1070
   279
1070
     2
1002
}
  0
DIMENSION
  5
294
102
{ACAD_REACTORS
102
}
102
{ACAD_XDICTIONARY
360
295
102
}
330
1F
100
AcDbEntity
  8
KOTY
100
AcDbDimension
  2
*D7
 10
122.2931654287001
 20
21.91587100703053
 30
0.0
 11
119.2511654287001
 21
34.61587100385599
 31
0.0
 70
    32
  3
ISO-25
100
AcDbAlignedDimension
 13
142.9248980299473
 23
47.31587100068144
 33
0.0
 14
142.9248980299483
 24
21.91587100703053
 34
0.0
 50
90.0
100
AcDbRotatedDimension
1001
ACAD
1000
DSTYLE
1002
{
1070
   287
1070
     5
1070
   271
1070
     0
1070
   278
1070
    44
1070
   140
1040
4.0
1070
   147
1040
1.0
1070
    41
1040
4.0
1070
   178
1070
   256
1070
   176
1070
   256
1070
   177
1070
   256
1070
   279
1070
     2
1002
}
  0
DIMENSION
  5
297
102
{ACAD_REACTORS
102
}
102
{ACAD_XDICTIONARY
360
298
102
}
330
1F
100
AcDbEntity
  8
KOTY
100
AcDbDimension
  2
*D8
 10
25.95839258101223
 20
21.91587100703053
 30
0.0
 11
22.91639258101223
 21
38.21582353116752
 31
0.0
 70
    32
  3
ISO-25
100
AcDbAlignedDimension
 13
64.8447371879234
 23
54.5157760553045
 33
0.0
 14
60.34475346509005
 24
21.91587100703053
 34
0.0
 50
90.0
100
AcDbRotatedDimension
1001
ACAD
1000
DSTYLE
1002
{
1070
   287
1070
     5
1070
   271
1070
     0
1070
   278
1070
    44
1070
   140
1040
4.0
1070
   147
1040
1.0
1070
    41
1040
4.0
1070
   178
1070
   256
1070
   176
1070
   256
1070
   177
1070
   256
1070
   279
1070
     2
1002
}
  0
DIMENSION
  5
29A
330
1F
100
AcDbEntity
  8
KOTY
100
AcDbDimension
  2
*D9
 10
104.8452241028364
 20
63.34854949684085
 30
0.0
 11
72.4452207200945
 21
66.39054949684085
 31
0.0
 70
    32
  3
ISO-25
100
AcDbAlignedDimension
 13
40.04521733735255
 23
43.31577063275743
 33
0.0
 14
104.8452241028364
 24
40.86377439998476
 34
0.0
100
AcDbRotatedDimension
1001
ACAD
1000
DSTYLE
1002
{
1070
   287
1070
     5
1070
   271
1070
     0
1070
   278
1070
    44
1070
   140
1040
4.0
1070
   147
1040
1.0
1070
    41
1040
4.0
1070
   178
1070
   256
1070
   176
1070
   256
1070
   177
1070
   256
1070
   279
1070
     2
1002
}
  0
VIEWPORT
  5
2CB
330
58
100
AcDbEntity
 67
     1
  8
0
100
AcDbViewport
 10
5.25
 20
4.0
 30
0.0
 40
12.6
 41
9.6
 68
     1
 69
     1
1001
ACAD
1000
MVIEW
1002
{
1070
    16
1010
0.0
1020
0.0
1030
0.0
1010
0.0
1020
0.0
1030
1.0
1040
0.0
1040
9.6
1040
5.25
1040
4.0
1040
50.0
1040
0.0
1040
0.0
1070
     0
1070
   100
1070
     0
1070
     3
1070
     0
1070
     0
1070
     0
1070
     0
1040
0.0
1040
0.0
1040
0.0
1040
0.5
1040
0.5
1040
0.0
1040
0.0
1070
     0
1002
{
1002
}
1002
}
  0
VIEWPORT
  5
2CC
330
58
100
AcDbEntity
 67
     1
  8
0
100
AcDbViewport
 10
5.25
 20
4.0
 30
0.0
 40
8.4
 41
6.4
 68
     2
 69
     2
1001
ACAD
1000
MVIEW
1002
{
1070
    16
1010
0.0
1020
0.0
1030
0.0
1010
0.0
1020
0.0
1030
1.0
1040
0.0
1040
110.1642699152994
1040
91.7441397691644
1040
45.17821025193565
1040
50.0
1040
0.0
1040
0.0
1070
     0
1070
   100
1070
     0
1070
     3
1070
     0
1070
     0
1070
     0
1070
     0
1040
0.0
1040
0.0
1040
0.0
1040
0.5
1040
0.5
1040
0.0
1040
0.0
1070
     0
1002
{
1002
}
1002
}
  0
ENDSEC
  0
SECTION
  2
OBJECTS
  0
DICTIONARY
  5
C
330
0
100
AcDbDictionary
  3
ACAD_DETAILVIEWSTYLE
350
122
  3
ACAD_GROUP
350
D
  3
ACAD_IMAGE_VARS
350
DC
  3
ACAD_MLINESTYLE
350
17
  3
ACAD_SCALELIST
350
B6
  3
ACAD_SECTIONVIEWSTYLE
350
123
  3
ACDBVARIABLEDICTIONARY
350
66
  3
APPDATA
350
E1
  3
DWGPROPS
350
2CE
  0
DICTIONARY
  5
292
330
291
100
AcDbDictionary
280
     1
  0
DICTIONARY
  5
295
330
294
100
AcDbDictionary
280
     1
  0
DICTIONARY
  5
298
330
297
100
AcDbDictionary
280
     1
  0
DICTIONARY
  5
122
102
{ACAD_REACTORS
330
C
102
}
330
C
100
AcDbDictionary
  0
DICTIONARY
  5
D
102
{ACAD_REACTORS
330
C
102
}
330
C
100
AcDbDictionary
  0
RASTERVARIABLES
  5
DC
102
{ACAD_REACTORS
330
C
102
}
330
C
100
AcDbRasterVariables
 90
        0
 70
     1
 71
     1
 72
     5
  0
DICTIONARY
  5
17
102
{ACAD_REACTORS
330
C
102
}
330
C
100
AcDbDictionary
  3
STANDARD
350
18
  0
DICTIONARY
  5
B6
102
{ACAD_REACTORS
330
C
102
}
330
C
100
AcDbDictionary
  0
DICTIONARY
  5
123
102
{ACAD_REACTORS
330
C
102
}
330
C
100
AcDbDictionary
  0
DICTIONARY
  5
66
102
{ACAD_REACTORS
330
C
102
}
330
C
100
AcDbDictionary
  3
DIMASSOC
350
67
  3
HIDETEXT
350
6B
  0
DICTIONARY
  5
E1
102
{ACAD_REACTORS
330
C
102
}
330
C
100
AcDbDictionary
  0
XRECORD
  5
2CE
102
{ACAD_REACTORS
330
C
102
}
330
C
100
AcDbXrecord
  1
DWGPROPS COOKIE
  2

  3

  4

  6

  7

  8
jaromir.podrabsky
  9

300
=
301
=
302
=
303
=
304
=
305
=
306
=
307
=
308
=
309
=
 40
0.0
 41
2452643.063384271
 42
2456647.525254155
  1

 90
        0
  0
MLINESTYLE
  5
18
102
{ACAD_REACTORS
330
17
102
}
330
17
100
AcDbMlineStyle
  2
STANDARD
 70
     0
  3

 62
   256
 51
90.0
 52
90.0
 71
     2
 49
0.5
 62
   256
  6
BYLAYER
 49
-0.5
 62
   256
  6
BYLAYER
  0
DICTIONARYVAR
  5
67
102
{ACAD_REACTORS
330
66
102
}
330
66
100
DictionaryVariables
280
     0
  1
2
  0
DICTIONARYVAR
  5
6B
102
{ACAD_REACTORS
330
66
102
}
330
66
100
DictionaryVariables
280
     0
  1
1
  0
ENDSEC
  0
EOF
