  0
SECTION
  2
HEADER
  9
$ACADVER
  1
AC1014
  9
$ACADMAINTVER
 70
     9
  9
$DWGCODEPAGE
  3
ANSI_1250
  9
$INSBASE
 10
0.0
 20
0.0
 30
0.0
  9
$EXTMIN
 10
270.9934903178158
 20
248.8327361319833
 30
0.0
  9
$EXTMAX
 10
479.552126725146
 20
385.7701281600246
 30
0.0
  9
$LIMMIN
 10
0.0
 20
0.0
  9
$LIMMAX
 10
12.0
 20
9.0
  9
$ORTHOMODE
 70
     0
  9
$REGENMODE
 70
     1
  9
$FILLMODE
 70
     1
  9
$QTEXTMODE
 70
     0
  9
$MIRRTEXT
 70
     0
  9
$DRAGMODE
 70
     2
  9
$LTSCALE
 40
1.0
  9
$OSMODE
 70
 15359
  9
$ATTMODE
 70
     1
  9
$TEXTSIZE
 40
0.2
  9
$TRACEWID
 40
0.05
  9
$TEXTSTYLE
  7
STANDARD
  9
$CLAYER
  8
KOTY
  9
$CELTYPE
  6
HIDDEN
  9
$CECOLOR
 62
   256
  9
$CELTSCALE
 40
1.0
  9
$DELOBJ
 70
     1
  9
$DISPSILH
 70
     0
  9
$DIMSCALE
 40
1.0
  9
$DIMASZ
 40
0.18
  9
$DIMEXO
 40
0.0625
  9
$DIMDLI
 40
0.38
  9
$DIMRND
 40
0.0
  9
$DIMDLE
 40
0.0
  9
$DIMEXE
 40
0.18
  9
$DIMTP
 40
0.0
  9
$DIMTM
 40
0.0
  9
$DIMTXT
 40
0.18
  9
$DIMCEN
 40
0.09
  9
$DIMTSZ
 40
0.0
  9
$DIMTOL
 70
     0
  9
$DIMLIM
 70
     0
  9
$DIMTIH
 70
     1
  9
$DIMTOH
 70
     1
  9
$DIMSE1
 70
     0
  9
$DIMSE2
 70
     0
  9
$DIMTAD
 70
     0
  9
$DIMZIN
 70
     0
  9
$DIMBLK
  1

  9
$DIMASO
 70
     1
  9
$DIMSHO
 70
     1
  9
$DIMPOST
  1

  9
$DIMAPOST
  1

  9
$DIMALT
 70
     0
  9
$DIMALTD
 70
     2
  9
$DIMALTF
 40
25.4
  9
$DIMLFAC
 40
1.0
  9
$DIMTOFL
 70
     0
  9
$DIMTVP
 40
0.0
  9
$DIMTIX
 70
     0
  9
$DIMSOXD
 70
     0
  9
$DIMSAH
 70
     0
  9
$DIMBLK1
  1

  9
$DIMBLK2
  1

  9
$DIMSTYLE
  2
STANDARD
  9
$DIMCLRD
 70
     0
  9
$DIMCLRE
 70
     0
  9
$DIMCLRT
 70
     0
  9
$DIMTFAC
 40
1.0
  9
$DIMGAP
 40
0.09
  9
$DIMJUST
 70
     0
  9
$DIMSD1
 70
     0
  9
$DIMSD2
 70
     0
  9
$DIMTOLJ
 70
     1
  9
$DIMTZIN
 70
     0
  9
$DIMALTZ
 70
     0
  9
$DIMALTTZ
 70
     0
  9
$DIMFIT
 70
     5
  9
$DIMUPT
 70
     0
  9
$DIMUNIT
 70
     2
  9
$DIMDEC
 70
     4
  9
$DIMTDEC
 70
     4
  9
$DIMALTU
 70
     2
  9
$DIMALTTD
 70
     2
  9
$DIMTXSTY
  7
STANDARD
  9
$DIMAUNIT
 70
     0
  9
$LUNITS
 70
     2
  9
$LUPREC
 70
     4
  9
$SKETCHINC
 40
0.1
  9
$FILLETRAD
 40
0.6968703693801268
  9
$AUNITS
 70
     0
  9
$AUPREC
 70
     0
  9
$MENU
  1
.
  9
$ELEVATION
 40
0.0
  9
$PELEVATION
 40
0.0
  9
$THICKNESS
 40
0.0
  9
$LIMCHECK
 70
     0
  9
$CHAMFERA
 40
0.0
  9
$CHAMFERB
 40
0.0
  9
$CHAMFERC
 40
0.0
  9
$CHAMFERD
 40
0.0
  9
$SKPOLY
 70
     0
  9
$TDCREATE
 40
2452643.105050926
  9
$TDUPDATE
 40
2456765.54022338
  9
$TDINDWG
 40
0.594911088
  9
$TDUSRTIMER
 40
2456765.45467228
  9
$USRTIMER
 70
     1
  9
$ANGBASE
 50
0.0
  9
$ANGDIR
 70
     0
  9
$PDMODE
 70
     0
  9
$PDSIZE
 40
0.0
  9
$PLINEWID
 40
0.0
  9
$COORDS
 70
     2
  9
$SPLFRAME
 70
     0
  9
$SPLINETYPE
 70
     6
  9
$SPLINESEGS
 70
     8
  9
$ATTDIA
 70
     0
  9
$ATTREQ
 70
     1
  9
$HANDLING
 70
     1
  9
$HANDSEED
  5
CF6
  9
$SURFTAB1
 70
     6
  9
$SURFTAB2
 70
     6
  9
$SURFTYPE
 70
     6
  9
$SURFU
 70
     6
  9
$SURFV
 70
     6
  9
$UCSNAME
  2

  9
$UCSORG
 10
0.0
 20
0.0
 30
0.0
  9
$UCSXDIR
 10
1.0
 20
0.0
 30
0.0
  9
$UCSYDIR
 10
0.0
 20
1.0
 30
0.0
  9
$PUCSNAME
  2

  9
$PUCSORG
 10
0.0
 20
0.0
 30
0.0
  9
$PUCSXDIR
 10
1.0
 20
0.0
 30
0.0
  9
$PUCSYDIR
 10
0.0
 20
1.0
 30
0.0
  9
$USERI1
 70
     0
  9
$USERI2
 70
     0
  9
$USERI3
 70
     0
  9
$USERI4
 70
     0
  9
$USERI5
 70
     0
  9
$USERR1
 40
0.0
  9
$USERR2
 40
0.0
  9
$USERR3
 40
0.0
  9
$USERR4
 40
0.0
  9
$USERR5
 40
0.0
  9
$WORLDVIEW
 70
     1
  9
$SHADEDGE
 70
     3
  9
$SHADEDIF
 70
    70
  9
$TILEMODE
 70
     0
  9
$MAXACTVP
 70
    64
  9
$PINSBASE
 10
0.0
 20
0.0
 30
0.0
  9
$PLIMCHECK
 70
     0
  9
$PEXTMIN
 10
0.0
 20
0.0
 30
0.0
  9
$PEXTMAX
 10
0.0
 20
0.0
 30
0.0
  9
$PLIMMIN
 10
-0.25
 20
-0.25
  9
$PLIMMAX
 10
10.75
 20
8.25
  9
$UNITMODE
 70
     0
  9
$VISRETAIN
 70
     1
  9
$PLINEGEN
 70
     0
  9
$PSLTSCALE
 70
     1
  9
$TREEDEPTH
 70
  3020
  9
$PICKSTYLE
 70
     0
  9
$CMLSTYLE
  2
STANDARD
  9
$CMLJUST
 70
     0
  9
$CMLSCALE
 40
1.0
  9
$PROXYGRAPHICS
 70
     1
  9
$MEASUREMENT
 70
     0
  0
ENDSEC
  0
SECTION
  2
CLASSES
  0
CLASS
  1
ACDBDICTIONARYWDFLT
  2
AcDbDictionaryWithDefault
  3
ObjectDBX Classes
 90
        0
280
     0
281
     0
  0
CLASS
  1
ACDBPLACEHOLDER
  2
AcDbPlaceHolder
  3
ObjectDBX Classes
 90
        0
280
     0
281
     0
  0
CLASS
  1
LAYOUT
  2
AcDbLayout
  3
ObjectDBX Classes
 90
        0
280
     0
281
     0
  0
CLASS
  1
DICTIONARYVAR
  2
AcDbDictionaryVar
  3
ObjectDBX Classes
 90
        0
280
     0
281
     0
  0
CLASS
  1
TABLESTYLE
  2
AcDbTableStyle
  3
ObjectDBX Classes
 90
     4095
280
     0
281
     0
  0
CLASS
  1
MATERIAL
  2
AcDbMaterial
  3
ObjectDBX Classes
 90
     1153
280
     0
281
     0
  0
CLASS
  1
VISUALSTYLE
  2
AcDbVisualStyle
  3
ObjectDBX Classes
 90
     4095
280
     0
281
     0
  0
CLASS
  1
SCALE
  2
AcDbScale
  3
ObjectDBX Classes
 90
     1153
280
     0
281
     0
  0
CLASS
  1
CELLSTYLEMAP
  2
AcDbCellStyleMap
  3
ObjectDBX Classes
 90
     1152
280
     0
281
     0
  0
CLASS
  1
RASTERVARIABLES
  2
AcDbRasterVariables
  3
ISM
 90
        0
280
     0
281
     0
  0
CLASS
  1
DIMASSOC
  2
AcDbDimAssoc
  3
"AcDbDimAssoc|Product Desc:     AcDim ARX App For Dimension|Company:          Autodesk, Inc.|WEB Address:      www.autodesk.com"
 90
        0
280
     0
281
     0
  0
CLASS
  1
SUN
  2
AcDbSun
  3
SCENEOE
 90
     1153
280
     0
281
     0
  0
CLASS
  1
XRECORD
  2
AcDbXrecord
  3
ObjectDBX Classes
 90
        0
280
     0
281
     0
  0
CLASS
  1
LWPOLYLINE
  2
AcDbPolyline
  3
ObjectDBX Classes
 90
        0
280
     0
281
     1
  0
CLASS
  1
HATCH
  2
AcDbHatch
  3
ObjectDBX Classes
 90
        0
280
     0
281
     1
  0
ENDSEC
  0
SECTION
  2
TABLES
  0
TABLE
  2
VPORT
  5
8
330
0
100
AcDbSymbolTable
 70
     1
  0
VPORT
  5
94
330
8
100
AcDbSymbolTableRecord
100
AcDbViewportTableRecord
  2
*ACTIVE
 70
     0
 10
0.0
 20
0.0
 11
1.0
 21
1.0
 12
401.7904702237085
 22
342.5444317732475
 13
0.0
 23
0.0
 14
0.5
 24
0.5
 15
0.5
 25
0.5
 16
0.0
 26
0.0
 36
1.0
 17
-27.66959356598079
 27
-19.53870295786191
 37
0.0
 40
207.5795422682326
 41
1.260923845193508
 42
50.0
 43
0.0
 44
0.0
 50
0.0
 51
0.0
 71
    16
 72
  1000
 73
     1
 74
     3
 75
     0
 76
     0
 77
     0
 78
     0
  0
ENDTAB
  0
TABLE
  2
LTYPE
  5
5
330
0
100
AcDbSymbolTable
 70
    28
  0
LTYPE
  5
14
330
5
100
AcDbSymbolTableRecord
100
AcDbLinetypeTableRecord
  2
BYBLOCK
 70
     0
  3

 72
    65
 73
     0
 40
0.0
  0
LTYPE
  5
15
330
5
100
AcDbSymbolTableRecord
100
AcDbLinetypeTableRecord
  2
BYLAYER
 70
     0
  3

 72
    65
 73
     0
 40
0.0
  0
LTYPE
  5
16
330
5
100
AcDbSymbolTableRecord
100
AcDbLinetypeTableRecord
  2
CONTINUOUS
 70
     0
  3
Solid line
 72
    65
 73
     0
 40
0.0
  0
LTYPE
  5
A06
330
5
100
AcDbSymbolTableRecord
100
AcDbLinetypeTableRecord
  2
BATTING
 70
     0
  3
Batting SSSSSSSSSSSSSSSSSSSSSSSSSSSSSSSSSSSSSSS
 72
    65
 73
     4
 40
0.4001
 49
0.0001
 74
     0
 49
-0.1
 74
     4
 75
   134
340
A05
 46
0.1
 50
0.0
 44
-0.1
 45
0.0
 49
-0.2
 74
     4
 75
   134
340
A05
 46
0.1
 50
180.0
 44
0.1
 45
0.0
 49
-0.1
 74
     0
  0
LTYPE
  5
A07
330
5
100
AcDbSymbolTableRecord
100
AcDbLinetypeTableRecord
  2
BORDER
 70
     0
  3
 Border __ __ . __ __ . __ __ . __ __ . __ __ .
 72
    65
 73
     6
 40
1.75
 49
0.5
 74
     0
 49
-0.25
 74
     0
 49
0.5
 74
     0
 49
-0.25
 74
     0
 49
0.0
 74
     0
 49
-0.25
 74
     0
  0
LTYPE
  5
A08
330
5
100
AcDbSymbolTableRecord
100
AcDbLinetypeTableRecord
  2
CENTER
 70
     0
  3
 Center ____ _ ____ _ ____ _ ____ _ ____ _ ____
 72
    65
 73
     4
 40
2.0
 49
1.25
 74
     0
 49
-0.25
 74
     0
 49
0.25
 74
     0
 49
-0.25
 74
     0
  0
LTYPE
  5
A09
330
5
100
AcDbSymbolTableRecord
100
AcDbLinetypeTableRecord
  2
DASH2
 70
     0
  3
 DashLong ____   ____   ____   ____   ____   __
 72
    65
 73
     2
 40
0.75
 49
0.5
 74
     0
 49
-0.25
 74
     0
  0
LTYPE
  5
A0A
330
5
100
AcDbSymbolTableRecord
100
AcDbLinetypeTableRecord
  2
DASH2DOT
 70
     0
  3
 DashDotDot ____ . . ____ . . ____ . . ____ . .
 72
    65
 73
     6
 40
1.25
 49
0.5
 74
     0
 49
-0.25
 74
     0
 49
0.0
 74
     0
 49
-0.25
 74
     0
 49
0.0
 74
     0
 49
-0.25
 74
     0
  0
LTYPE
  5
A0B
330
5
100
AcDbSymbolTableRecord
100
AcDbLinetypeTableRecord
  2
DASHDOT
 70
     0
  3
 DashDot __ . __ . __ . __ . __ . __ . __ . __ 
 72
    65
 73
     4
 40
1.0
 49
0.5
 74
     0
 49
-0.25
 74
     0
 49
0.0
 74
     0
 49
-0.25
 74
     0
  0
LTYPE
  5
A0C
330
5
100
AcDbSymbolTableRecord
100
AcDbLinetypeTableRecord
  2
DASHED
 70
     0
  3
 Dashed __ __ __ __ __ __ __ __ __ __ __ __ __ 
 72
    65
 73
     2
 40
0.375
 49
0.25
 74
     0
 49
-0.125
 74
     0
  0
LTYPE
  5
A0D
330
5
100
AcDbSymbolTableRecord
100
AcDbLinetypeTableRecord
  2
DIAMOND
 70
     0
  3
Diamond ######################
 72
    65
 73
     2
 40
0.15748
 49
0.0
 74
     2
 75
     0
340
11
 46
0.23622
 50
0.0
 44
0.0
 45
-0.11811
  9
#
 49
-0.15748
 74
     0
  0
LTYPE
  5
A0E
330
5
100
AcDbSymbolTableRecord
100
AcDbLinetypeTableRecord
  2
DIAMONDSMALL
 70
     0
  3
DiamondSmall ######################
 72
    65
 73
     2
 40
0.052493
 49
0.0
 74
     2
 75
     0
340
11
 46
0.07874
 50
0.0
 44
0.0
 45
-0.03937
  9
#
 49
-0.052493
 74
     2
 75
     0
340
11
 46
0.07874
 50
0.0
 44
-0.052493
 45
-0.03937
  9
#
  0
LTYPE
  5
A0F
330
5
100
AcDbSymbolTableRecord
100
AcDbLinetypeTableRecord
  2
DIVIDE
 70
     0
  3
 DashDotDot __  .  . __  .  . __  .  . __  .  .
 72
    65
 73
     6
 40
1.25
 49
0.5
 74
     0
 49
-0.25
 74
     0
 49
0.0
 74
     0
 49
-0.25
 74
     0
 49
0.0
 74
     0
 49
-0.25
 74
     0
  0
LTYPE
  5
A10
330
5
100
AcDbSymbolTableRecord
100
AcDbLinetypeTableRecord
  2
DOTTED
 70
     0
  3
 Dotted . . . . . . . . . . . . . . . . . . . .
 72
    65
 73
     2
 40
0.25
 49
0.0
 74
     0
 49
-0.25
 74
     0
  0
LTYPE
  5
A11
330
5
100
AcDbSymbolTableRecord
100
AcDbLinetypeTableRecord
  2
FENCELINE
 70
     0
  3
 Fenceline ----0-----0----0-----0----0-----0--
 72
    65
 73
     4
 40
1.375
 49
0.625
 74
     0
 49
-0.25
 74
     4
 75
   133
340
A05
 46
0.25
 50
0.0
 44
-0.25
 45
0.0
 49
-0.25
 74
     0
 49
0.25
 74
     0
  0
LTYPE
  5
A12
330
5
100
AcDbSymbolTableRecord
100
AcDbLinetypeTableRecord
  2
FENCELINE1
 70
     0
  3
Fence circle ----0-----0----0-----0----0-----0-
 72
    65
 73
     4
 40
0.5499999999999999
 49
0.25
 74
     0
 49
-0.1
 74
     4
 75
   133
340
A05
 46
0.1
 50
0.0
 44
-0.1
 45
0.0
 49
-0.1
 74
     0
 49
0.1
 74
     0
  0
LTYPE
  5
A13
330
5
100
AcDbSymbolTableRecord
100
AcDbLinetypeTableRecord
  2
FENCELINE2
 70
     0
  3
Fence square ----[]-----[]----[]-----[]----[]--
 72
    65
 73
     4
 40
0.5499999999999999
 49
0.25
 74
     0
 49
-0.1
 74
     4
 75
   132
340
A05
 46
0.1
 50
0.0
 44
-0.1
 45
0.0
 49
-0.1
 74
     0
 49
0.1
 74
     0
  0
LTYPE
  5
A14
330
5
100
AcDbSymbolTableRecord
100
AcDbLinetypeTableRecord
  2
FENCELINE21
 70
     0
  3
Fence square 45 ----[]-----[]----[]-----[]----[
 72
    65
 73
     4
 40
0.5413380000000001
 49
0.205294
 74
     0
 49
-0.139194
 74
     4
 75
   132
340
A05
 46
0.098425
 50
45.0
 44
-0.069597
 45
-0.069597
 49
-0.139194
 74
     0
 49
0.057656
 74
     0
  0
LTYPE
  5
A15
330
5
100
AcDbSymbolTableRecord
100
AcDbLinetypeTableRecord
  2
FIVELINE
 70
     0
  3
FIVELINE =5=5=5=5=5=5=5=5=5=
 72
    65
 73
     2
 40
0.19685
 49
0.0
 74
     4
 75
   137
340
A05
 46
0.03937
 50
0.0
 44
0.0
 45
0.0
 49
-0.19685
 74
     0
  0
LTYPE
  5
A16
330
5
100
AcDbSymbolTableRecord
100
AcDbLinetypeTableRecord
  2
GAS_LINE
 70
     0
  3
Gas line ----GAS----GAS----GAS----GAS----GAS---
 72
    65
 73
     3
 40
0.95
 49
0.5
 74
     0
 49
-0.2
 74
     2
 75
     0
340
11
 46
0.1
 50
0.0
 44
-0.1
 45
-0.05
  9
GAS
 49
-0.25
 74
     0
  0
LTYPE
  5
A17
330
5
100
AcDbSymbolTableRecord
100
AcDbLinetypeTableRecord
  2
HIDDEN
 70
     0
  3
 Hidden _ _ _ _ _ _ _ _ _ _ _ _ _ _ _ _ _ _ _ _
 72
    65
 73
     2
 40
0.375
 49
0.25
 74
     0
 49
-0.125
 74
     0
  0
LTYPE
  5
A18
330
5
100
AcDbSymbolTableRecord
100
AcDbLinetypeTableRecord
  2
HOT_WATER
 70
     0
  3
Hot water line ---- HW ---- HW ---- HW ----
 72
    65
 73
     3
 40
0.8999999999999999
 49
0.5
 74
     0
 49
-0.2
 74
     2
 75
     0
340
11
 46
0.1
 50
0.0
 44
-0.1
 45
-0.05
  9
HW
 49
-0.2
 74
     0
  0
LTYPE
  5
A19
330
5
100
AcDbSymbolTableRecord
100
AcDbLinetypeTableRecord
  2
PHANTOM
 70
     0
  3
Phantom ______  __  __  ______  __  __  ______ 
 72
    65
 73
     6
 40
2.5
 49
1.25
 74
     0
 49
-0.25
 74
     0
 49
0.25
 74
     0
 49
-0.25
 74
     0
 49
0.25
 74
     0
 49
-0.25
 74
     0
  0
LTYPE
  5
A1A
330
5
100
AcDbSymbolTableRecord
100
AcDbLinetypeTableRecord
  2
SINUS
 70
     0
  3
SINUS ~~~~~~~~~~~~~~~~~~~~~~
 72
    65
 73
     3
 40
0.31496
 49
0.0
 74
     4
 75
   150
340
A05
 46
0.03937
 50
0.0
 44
0.0
 45
0.0
 49
-0.15748
 74
     4
 75
   150
340
A05
 46
0.03937
 50
180.0
 44
0.15748
 45
0.0
 49
-0.15748
 74
     0
  0
LTYPE
  5
A1B
330
5
100
AcDbSymbolTableRecord
100
AcDbLinetypeTableRecord
  2
STAR4
 70
     0
  3
Star4
 72
    65
 73
     2
 40
0.35433
 49
0.0
 74
     4
 75
   138
340
A05
 46
0.03937
 50
0.0
 44
0.0
 45
0.0
 49
-0.35433
 74
     0
  0
LTYPE
  5
A1C
330
5
100
AcDbSymbolTableRecord
100
AcDbLinetypeTableRecord
  2
STAR4ROT45
 70
     0
  3
Star4R45
 72
    65
 73
     2
 40
0.35433
 49
0.0
 74
     4
 75
   138
340
A05
 46
0.03937
 50
45.0
 44
0.0
 45
0.0
 49
-0.35433
 74
     0
  0
LTYPE
  5
A1D
330
5
100
AcDbSymbolTableRecord
100
AcDbLinetypeTableRecord
  2
TRACK
 70
     0
  3
Tracks -|-|-|-|-|-|-|-|-|-|-|-|-|-|-|-|-|-|-|-|
 72
    65
 73
     2
 40
0.3
 49
0.15
 74
     4
 75
   130
340
A05
 46
0.25
 50
0.0
 44
0.0
 45
0.0
 49
0.15
 74
     0
  0
LTYPE
  5
A1E
330
5
100
AcDbSymbolTableRecord
100
AcDbLinetypeTableRecord
  2
TRILINE
 70
     0
  3
TriLine =3=3=3=3=3=3=3=3=3=
 72
    65
 73
     2
 40
0.19685
 49
0.0
 74
     4
 75
   136
340
A05
 46
0.03937
 50
0.0
 44
0.0
 45
0.0
 49
-0.19685
 74
     0
  0
LTYPE
  5
A1F
330
5
100
AcDbSymbolTableRecord
100
AcDbLinetypeTableRecord
  2
XLINE
 70
     0
  3
XLine X-X-X-X-X-X-X-X-X-X-X-X-X-X-X-X-X-X-X
 72
    65
 73
     2
 40
0.23622
 49
0.15748
 74
     2
 75
     0
340
11
 46
0.11811
 50
0.0
 44
-0.11811
 45
-0.059055
  9
X
 49
-0.07874
 74
     0
  0
LTYPE
  5
A20
330
5
100
AcDbSymbolTableRecord
100
AcDbLinetypeTableRecord
  2
ZIGZAG
 70
     0
  3
Zig zag /\/\/\/\/\/\/\/\/\/\/\/\/\/\/\/\/\/\/\/
 72
    65
 73
     4
 40
0.8001
 49
0.0001
 74
     0
 49
-0.2
 74
     4
 75
   131
340
A05
 46
0.2
 50
0.0
 44
-0.2
 45
0.0
 49
-0.4
 74
     4
 75
   131
340
A05
 46
0.2
 50
180.0
 44
0.2
 45
0.0
 49
-0.2
 74
     0
  0
ENDTAB
  0
TABLE
  2
LAYER
  5
2
102
{ACAD_XDICTIONARY
360
B41
102
}
330
0
100
AcDbSymbolTable
 70
     4
  0
LAYER
  5
10
330
2
100
AcDbSymbolTableRecord
100
AcDbLayerTableRecord
  2
0
 70
     0
 62
     7
  6
CONTINUOUS
  0
LAYER
  5
101
330
2
100
AcDbSymbolTableRecord
100
AcDbLayerTableRecord
  2
DEFPOINTS
 70
     0
 62
     7
  6
CONTINUOUS
  0
LAYER
  5
B44
330
2
100
AcDbSymbolTableRecord
100
AcDbLayerTableRecord
  2
OBRYS
 70
     0
 62
     5
  6
CONTINUOUS
1001
ACAECLAYERSTANDARD
1000

1000

  0
LAYER
  5
B46
330
2
100
AcDbSymbolTableRecord
100
AcDbLayerTableRecord
  2
KOTY
 70
     0
 62
     1
  6
CONTINUOUS
1001
ACAECLAYERSTANDARD
1000

1000

  0
ENDTAB
  0
TABLE
  2
STYLE
  5
3
330
0
100
AcDbSymbolTable
 70
     2
  0
STYLE
  5
11
330
3
100
AcDbSymbolTableRecord
100
AcDbTextStyleTableRecord
  2
STANDARD
 70
     0
 40
0.0
 41
1.0
 50
0.0
 71
     0
 42
0.2
  3
arial.ttf
  4

1001
ACAD
1000
Arial
1071
        0
  0
STYLE
  5
A05
330
3
100
AcDbSymbolTableRecord
100
AcDbTextStyleTableRecord
  2

 70
     1
 40
0.0
 41
1.0
 50
0.0
 71
     0
 42
0.2
  3
ltypeshp.shx
  4

  0
ENDTAB
  0
TABLE
  2
VIEW
  5
6
330
0
100
AcDbSymbolTable
 70
     0
  0
ENDTAB
  0
TABLE
  2
UCS
  5
7
330
0
100
AcDbSymbolTable
 70
     0
  0
ENDTAB
  0
TABLE
  2
APPID
  5
9
330
0
100
AcDbSymbolTable
 70
     2
  0
APPID
  5
12
330
9
100
AcDbSymbolTableRecord
100
AcDbRegAppTableRecord
  2
ACAD
 70
     0
  0
APPID
  5
B45
330
9
100
AcDbSymbolTableRecord
100
AcDbRegAppTableRecord
  2
ACAECLAYERSTANDARD
 70
     0
  0
ENDTAB
  0
TABLE
  2
DIMSTYLE
  5
A
330
0
100
AcDbSymbolTable
 70
     1
  0
DIMSTYLE
105
27
102
{ACAD_REACTORS
330
55F
330
57F
330
5AF
330
5BF
330
5DA
330
5EA
330
95C
330
96C
330
9E1
102
}
330
A
100
AcDbSymbolTableRecord
100
AcDbDimStyleTableRecord
  2
STANDARD
 70
     0
  3

  4

  5

  6

  7

 40
1.0
 41
0.18
 42
0.0625
 43
0.38
 44
0.18
 45
0.0
 46
0.0
 47
0.0
 48
0.0
140
0.18
141
0.09
142
0.0
143
25.4
144
1.0
145
0.0
146
1.0
147
0.09
 71
     0
 72
     0
 73
     1
 74
     1
 75
     0
 76
     0
 77
     0
 78
     0
170
     0
171
     2
172
     0
173
     0
174
     0
175
     0
176
     0
177
     0
178
     0
270
     2
271
     4
272
     4
273
     2
274
     2
340
11
275
     0
280
     0
281
     0
282
     0
283
     1
284
     0
285
     0
286
     0
287
     3
288
     0
  0
ENDTAB
  0
TABLE
  2
BLOCK_RECORD
  5
1
330
0
100
AcDbSymbolTable
 70
    20
  0
BLOCK_RECORD
  5
1F
330
1
100
AcDbSymbolTableRecord
100
AcDbBlockTableRecord
  2
*MODEL_SPACE
  0
BLOCK_RECORD
  5
CEE
330
1
100
AcDbSymbolTableRecord
100
AcDbBlockTableRecord
  2
*PAPER_SPACE
  0
BLOCK_RECORD
  5
2F1
330
1
100
AcDbSymbolTableRecord
100
AcDbBlockTableRecord
  2
KRAJ
  0
BLOCK_RECORD
  5
30C
330
1
100
AcDbSymbolTableRecord
100
AcDbBlockTableRecord
  2
FRONT
  0
BLOCK_RECORD
  5
562
330
1
100
AcDbSymbolTableRecord
100
AcDbBlockTableRecord
  2
*D2
  0
BLOCK_RECORD
  5
572
330
1
100
AcDbSymbolTableRecord
100
AcDbBlockTableRecord
  2
*D3
  0
BLOCK_RECORD
  5
582
330
1
100
AcDbSymbolTableRecord
100
AcDbBlockTableRecord
  2
*D4
  0
BLOCK_RECORD
  5
5B2
330
1
100
AcDbSymbolTableRecord
100
AcDbBlockTableRecord
  2
*D5
  0
BLOCK_RECORD
  5
5C2
330
1
100
AcDbSymbolTableRecord
100
AcDbBlockTableRecord
  2
*D6
  0
BLOCK_RECORD
  5
5DD
330
1
100
AcDbSymbolTableRecord
100
AcDbBlockTableRecord
  2
*D7
  0
BLOCK_RECORD
  5
5ED
330
1
100
AcDbSymbolTableRecord
100
AcDbBlockTableRecord
  2
*D8
  0
BLOCK_RECORD
  5
607
330
1
100
AcDbSymbolTableRecord
100
AcDbBlockTableRecord
  2
_CLOSEDBLANK
  0
BLOCK_RECORD
  5
60D
330
1
100
AcDbSymbolTableRecord
100
AcDbBlockTableRecord
  2
_CLOSED
  0
BLOCK_RECORD
  5
614
330
1
100
AcDbSymbolTableRecord
100
AcDbBlockTableRecord
  2
_DOT
  0
BLOCK_RECORD
  5
619
330
1
100
AcDbSymbolTableRecord
100
AcDbBlockTableRecord
  2
_ARCHTICK
  0
BLOCK_RECORD
  5
95F
330
1
100
AcDbSymbolTableRecord
100
AcDbBlockTableRecord
  2
*D13
  0
BLOCK_RECORD
  5
96F
330
1
100
AcDbSymbolTableRecord
100
AcDbBlockTableRecord
  2
*D14
  0
BLOCK_RECORD
  5
9E4
330
1
100
AcDbSymbolTableRecord
100
AcDbBlockTableRecord
  2
*D15
  0
BLOCK_RECORD
  5
B0B
330
1
100
AcDbSymbolTableRecord
100
AcDbBlockTableRecord
  2
*D16
  0
BLOCK_RECORD
  5
B15
330
1
100
AcDbSymbolTableRecord
100
AcDbBlockTableRecord
  2
*D17
  0
BLOCK_RECORD
  5
B1F
330
1
100
AcDbSymbolTableRecord
100
AcDbBlockTableRecord
  2
*D18
  0
ENDTAB
  0
ENDSEC
  0
SECTION
  2
BLOCKS
  0
BLOCK
  5
20
330
1F
100
AcDbEntity
  8
0
100
AcDbBlockBegin
  2
*MODEL_SPACE
 70
     0
 10
0.0
 20
0.0
 30
0.0
  3
*MODEL_SPACE
  1

  0
ENDBLK
  5
21
330
1F
100
AcDbEntity
  8
0
100
AcDbBlockEnd
  0
BLOCK
  5
CF0
330
CEE
100
AcDbEntity
 67
     1
  8
0
100
AcDbBlockBegin
  2
*PAPER_SPACE
 70
     0
 10
0.0
 20
0.0
 30
0.0
  3
*PAPER_SPACE
  1

  0
ENDBLK
  5
CF1
330
CEE
100
AcDbEntity
 67
     1
  8
0
100
AcDbBlockEnd
  0
BLOCK
  5
2F2
330
2F1
100
AcDbEntity
  8
0
100
AcDbBlockBegin
  2
KRAJ
 70
     0
 10
0.0
 20
0.0
 30
0.0
  3
KRAJ
  1
KRAJ
  0
LINE
  5
2F4
330
2F1
100
AcDbEntity
  8
0
100
AcDbLine
 10
23.17858802006699
 20
11.88396178886323
 30
0.0
 11
23.60596071879165
 21
11.63561481963468
 31
0.0
  0
LINE
  5
2F5
330
2F1
100
AcDbEntity
  8
0
100
AcDbLine
 10
28.08586695810881
 20
9.034769131708918
 30
0.0
 11
28.51846735840103
 21
8.783581802506982
 31
0.0
  0
LINE
  5
2F6
330
2F1
100
AcDbEntity
  8
0
100
AcDbLine
 10
23.17858802006699
 20
11.88396178886323
 30
0.0
 11
23.73102181544385
 21
12.83537554756782
 31
0.0
  0
LINE
  5
2F7
330
2F1
100
AcDbEntity
  8
0
100
AcDbLine
 10
28.51846735840103
 20
8.783581802506982
 30
0.0
 11
29.07081642752618
 21
9.73484964377808
 31
0.0
  0
LINE
  5
2F8
330
2F1
100
AcDbEntity
  8
0
100
AcDbLine
 10
27.83479919941555
 20
8.602374658403873
 30
0.0
 11
28.08586695810881
 21
9.034769131708918
 31
0.0
  0
LINE
  5
2F9
330
2F1
100
AcDbEntity
  8
0
100
AcDbLine
 10
23.35474539744931
 20
11.20330606154289
 30
0.0
 11
23.60581314151945
 21
11.63570050966369
 31
0.0
  0
LINE
  5
2FA
330
2F1
100
AcDbEntity
  8
0
100
AcDbLine
 10
23.73102181544385
 20
12.83537554756782
 30
0.0
 11
29.07081642752618
 21
9.73484964377808
 31
0.0
  0
ELLIPSE
  5
2FB
330
2F1
100
AcDbEntity
  8
0
100
AcDbEllipse
 10
26.40091912148502
 20
11.28511259567295
 30
0.0
 11
-1.039943320270123
 21
0.6038380569310341
 31
0.0
210
0.0
220
0.0
230
1.0
 40
0.6385440653482459
 41
6.283185307179586
 42
9.42477796076938
  0
LINE
  5
2FC
330
2F1
100
AcDbEntity
  8
0
100
AcDbLine
 10
24.60098340460934
 20
12.33023656031044
 30
0.0
 11
24.09875154992429
 21
11.46515194972255
 31
0.0
  0
LINE
  5
2FD
330
2F1
100
AcDbEntity
  8
0
100
AcDbLine
 10
28.20211116541818
 20
10.23925915080853
 30
0.0
 11
27.70001548530882
 21
9.374409098281191
 31
0.0
  0
LINE
  5
2FE
330
2F1
100
AcDbEntity
  8
0
100
AcDbLine
 10
27.70001548530882
 20
9.374409098281191
 30
0.0
 11
24.09875154992429
 21
11.46515194972255
 31
0.0
  0
ENDBLK
  5
2F3
330
2F1
100
AcDbEntity
  8
0
100
AcDbBlockEnd
  0
BLOCK
  5
30D
330
30C
100
AcDbEntity
  8
0
100
AcDbBlockBegin
  2
FRONT
 70
     0
 10
0.0
 20
0.0
 30
0.0
  3
FRONT
  1
FRONT
  0
LINE
  5
30F
330
30C
100
AcDbEntity
  8
0
100
AcDbLine
 10
124.7071067811866
 20
0.0
 30
0.0
 11
133.2928932188134
 21
0.0
 31
0.0
  0
LINE
  5
310
330
30C
100
AcDbEntity
  8
0
100
AcDbLine
 10
120.0
 20
8.1
 30
0.0
 11
138.0
 21
8.1
 31
0.0
  0
LINE
  5
311
330
30C
100
AcDbEntity
  8
0
100
AcDbLine
 10
123.15
 20
6.2
 30
0.0
 11
134.85
 21
6.2
 31
0.0
  0
LINE
  5
312
330
30C
100
AcDbEntity
  8
0
100
AcDbLine
 10
123.15
 20
6.2
 30
0.0
 11
121.95
 21
8.1
 31
0.0
  0
LINE
  5
313
330
30C
100
AcDbEntity
  8
0
100
AcDbLine
 10
134.85
 20
6.2
 30
0.0
 11
136.05
 21
8.1
 31
0.0
  0
LINE
  5
314
330
30C
100
AcDbEntity
  8
0
100
AcDbLine
 10
125.7071067811866
 20
1.0
 30
0.0
 11
132.2928932188134
 21
1.0
 31
0.0
  0
LINE
  5
315
330
30C
100
AcDbEntity
  8
0
100
AcDbLine
 10
125.0
 20
1.707106781186548
 30
0.0
 11
125.0
 21
6.2
 31
0.0
  0
LINE
  5
316
330
30C
100
AcDbEntity
  8
0
100
AcDbLine
 10
133.0
 20
1.707106781186548
 30
0.0
 11
133.0
 21
6.2
 31
0.0
  0
ARC
  5
317
330
30C
100
AcDbEntity
  8
0
100
AcDbCircle
 10
125.7071067811866
 20
1.707106781186548
 30
0.0
 40
0.707106781186548
100
AcDbArc
 50
180.0
 51
270.0
  0
ARC
  5
318
330
30C
100
AcDbEntity
  8
0
100
AcDbCircle
 10
132.2928932188134
 20
1.707106781186548
 30
0.0
 40
0.707106781186548
100
AcDbArc
 50
270.0
 51
359.9999999999998
  0
LINE
  5
319
330
30C
100
AcDbEntity
  8
0
100
AcDbLine
 10
121.7
 20
8.1
 30
0.0
 11
121.7
 21
5.207106781186549
 31
0.0
  0
LINE
  5
31A
330
30C
100
AcDbEntity
  8
0
100
AcDbLine
 10
125.0
 20
4.5
 30
0.0
 11
122.4071067811866
 21
4.500000000000001
 31
0.0
  0
ARC
  5
31B
330
30C
100
AcDbEntity
  8
0
100
AcDbCircle
 10
122.4071067811866
 20
5.207106781186549
 30
0.0
 40
0.707106781186548
100
AcDbArc
 50
180.0
 51
270.0
  0
LINE
  5
31C
330
30C
100
AcDbEntity
  8
0
100
AcDbLine
 10
136.3
 20
8.100000000000001
 30
0.0
 11
136.3
 21
5.207106781186541
 31
0.0
  0
LINE
  5
31D
330
30C
100
AcDbEntity
  8
0
100
AcDbLine
 10
133.0170014197672
 20
4.5
 30
0.0
 11
135.5928932188135
 21
4.5
 31
0.0
  0
ARC
  5
31E
330
30C
100
AcDbEntity
  8
0
100
AcDbCircle
 10
135.5928932188135
 20
5.207106781186548
 30
0.0
 40
0.7071067811865475
100
AcDbArc
 50
270.0
 51
359.9999999999993
  0
LINE
  5
31F
330
30C
100
AcDbEntity
  8
0
100
AcDbLine
 10
124.0
 20
4.5
 30
0.0
 11
124.0
 21
0.7071067811865479
 31
0.0
  0
LINE
  5
320
330
30C
100
AcDbEntity
  8
0
100
AcDbLine
 10
134.0
 20
4.5
 30
0.0
 11
134.0
 21
0.7071067811865479
 31
0.0
  0
ARC
  5
321
330
30C
100
AcDbEntity
  8
0
100
AcDbCircle
 10
133.2928932188134
 20
0.707106781186548
 30
0.0
 40
0.707106781186548
100
AcDbArc
 50
270.0
 51
359.9999999999998
  0
ARC
  5
322
330
30C
100
AcDbEntity
  8
0
100
AcDbCircle
 10
124.7071067811866
 20
0.7071067811865479
 30
0.0
 40
0.707106781186548
100
AcDbArc
 50
180.0
 51
270.0
  0
LINE
  5
323
330
30C
100
AcDbEntity
  8
0
100
AcDbLine
 10
120.0
 20
8.1
 30
0.0
 11
120.0
 21
90.1
 31
0.0
  0
LINE
  5
324
330
30C
100
AcDbEntity
  8
0
100
AcDbLine
 10
120.0
 20
90.1
 30
0.0
 11
138.0
 21
90.1
 31
0.0
  0
LINE
  5
325
330
30C
100
AcDbEntity
  8
0
100
AcDbLine
 10
138.0
 20
90.1
 30
0.0
 11
138.0
 21
8.1
 31
0.0
  0
LINE
  5
326
330
30C
100
AcDbEntity
  8
0
100
AcDbLine
 10
123.15
 20
91.99999999999999
 30
0.0
 11
121.95
 21
90.1
 31
0.0
  0
LINE
  5
327
330
30C
100
AcDbEntity
  8
0
100
AcDbLine
 10
123.15
 20
91.99999999999999
 30
0.0
 11
134.85
 21
91.99999999999999
 31
0.0
  0
LINE
  5
328
330
30C
100
AcDbEntity
  8
0
100
AcDbLine
 10
134.85
 20
91.99999999999999
 30
0.0
 11
136.05
 21
90.1
 31
0.0
  0
LINE
  5
329
330
30C
100
AcDbEntity
  8
0
100
AcDbLine
 10
120.0
 20
26.1
 30
0.0
 11
138.0
 21
26.1
 31
0.0
  0
LINE
  5
32A
330
30C
100
AcDbEntity
  8
0
100
AcDbLine
 10
120.0
 20
26.6
 30
0.0
 11
138.0
 21
26.6
 31
0.0
  0
LINE
  5
32B
330
30C
100
AcDbEntity
  8
0
100
AcDbLine
 10
120.0
 20
71.6
 30
0.0
 11
138.0
 21
71.6
 31
0.0
  0
LINE
  5
32C
330
30C
100
AcDbEntity
  8
0
100
AcDbLine
 10
120.0
 20
72.1
 30
0.0
 11
138.0
 21
72.1
 31
0.0
  0
LWPOLYLINE
  5
32D
330
30C
100
AcDbEntity
  8
0
100
AcDbPolyline
 90
        4
 70
     1
 43
0.0
 10
123.0
 20
54.2
 10
123.0
 20
59.89999999999999
 10
135.0
 20
59.89999999999999
 10
135.0
 20
54.2
  0
LINE
  5
32E
330
30C
100
AcDbEntity
  8
0
100
AcDbLine
 10
127.3
 20
26.1
 30
0.0
 11
127.3
 21
24.6
 31
0.0
  0
LINE
  5
32F
330
30C
100
AcDbEntity
  8
0
100
AcDbLine
 10
127.3
 20
24.6
 30
0.0
 11
129.0
 21
24.6
 31
0.0
  0
LINE
  5
330
330
30C
100
AcDbEntity
  8
0
100
AcDbLine
 10
129.0
 20
24.6
 30
0.0
 11
129.0
 21
26.1
 31
0.0
  0
LINE
  5
331
330
30C
100
AcDbEntity
  8
0
100
AcDbLine
 10
126.45
 20
26.1
 30
0.0
 11
126.45
 21
23.6
 31
0.0
  0
LINE
  5
332
330
30C
100
AcDbEntity
  8
0
100
AcDbLine
 10
126.45
 20
23.6
 30
0.0
 11
129.85
 21
23.6
 31
0.0
  0
LINE
  5
333
330
30C
100
AcDbEntity
  8
0
100
AcDbLine
 10
129.85
 20
23.6
 30
0.0
 11
129.85
 21
26.1
 31
0.0
  0
LINE
  5
334
330
30C
100
AcDbEntity
  8
0
100
AcDbLine
 10
126.45
 20
23.6
 30
0.0
 11
127.3
 21
24.6
 31
0.0
  0
LINE
  5
335
330
30C
100
AcDbEntity
  8
0
100
AcDbLine
 10
129.0
 20
24.6
 30
0.0
 11
129.85
 21
23.6
 31
0.0
  0
LINE
  5
336
330
30C
100
AcDbEntity
  8
0
100
AcDbLine
 10
127.3
 20
72.1
 30
0.0
 11
127.3
 21
73.6
 31
0.0
  0
LINE
  5
337
330
30C
100
AcDbEntity
  8
0
100
AcDbLine
 10
127.3
 20
73.6
 30
0.0
 11
129.0
 21
73.6
 31
0.0
  0
LINE
  5
338
330
30C
100
AcDbEntity
  8
0
100
AcDbLine
 10
129.0
 20
73.6
 30
0.0
 11
129.0
 21
72.1
 31
0.0
  0
LINE
  5
339
330
30C
100
AcDbEntity
  8
0
100
AcDbLine
 10
126.45
 20
72.1
 30
0.0
 11
126.45
 21
74.6
 31
0.0
  0
LINE
  5
33A
330
30C
100
AcDbEntity
  8
0
100
AcDbLine
 10
126.45
 20
74.6
 30
0.0
 11
129.85
 21
74.6
 31
0.0
  0
LINE
  5
33B
330
30C
100
AcDbEntity
  8
0
100
AcDbLine
 10
129.85
 20
74.6
 30
0.0
 11
129.85
 21
72.1
 31
0.0
  0
LINE
  5
33C
330
30C
100
AcDbEntity
  8
0
100
AcDbLine
 10
126.45
 20
74.6
 30
0.0
 11
127.3
 21
73.6
 31
0.0
  0
LINE
  5
33D
330
30C
100
AcDbEntity
  8
0
100
AcDbLine
 10
129.0
 20
73.6
 30
0.0
 11
129.85
 21
74.6
 31
0.0
  0
CIRCLE
  5
33E
330
30C
100
AcDbEntity
  8
0
100
AcDbCircle
 10
129.0
 20
16.85
 30
0.0
 40
3.2
  0
LINE
  5
33F
330
30C
100
AcDbEntity
  8
0
100
AcDbLine
 10
120.0
 20
11.7
 30
0.0
 11
138.0
 21
11.7
 31
0.0
  0
LINE
  5
340
330
30C
100
AcDbEntity
  8
0
100
AcDbLine
 10
120.0
 20
86.5
 30
0.0
 11
138.0
 21
86.5
 31
0.0
  0
LINE
  5
341
330
30C
100
AcDbEntity
  8
0
100
AcDbLine
 10
128.35
 20
18.20710678118655
 30
0.0
 11
128.35
 21
19.98328900677866
 31
0.0
  0
LINE
  5
342
330
30C
100
AcDbEntity
  8
0
100
AcDbLine
 10
128.35
 20
13.71671099322134
 30
0.0
 11
128.35
 21
15.49289321881345
 31
0.0
  0
LINE
  5
343
330
30C
100
AcDbEntity
  8
0
100
AcDbLine
 10
129.65
 20
18.20710678118655
 30
0.0
 11
129.65
 21
19.98328900677866
 31
0.0
  0
LINE
  5
344
330
30C
100
AcDbEntity
  8
0
100
AcDbLine
 10
129.65
 20
13.71671099322134
 30
0.0
 11
129.65
 21
15.49289321881345
 31
0.0
  0
ARC
  5
345
330
30C
100
AcDbEntity
  8
0
100
AcDbCircle
 10
127.6428932188135
 20
18.20710678118655
 30
0.0
 40
0.707106781186548
100
AcDbArc
 50
270.0
 51
0.0
  0
ARC
  5
346
330
30C
100
AcDbEntity
  8
0
100
AcDbCircle
 10
130.3571067811866
 20
18.20710678118655
 30
0.0
 40
0.707106781186548
100
AcDbArc
 50
180.0
 51
270.0
  0
ARC
  5
347
330
30C
100
AcDbEntity
  8
0
100
AcDbCircle
 10
130.3571067811866
 20
15.49289321881345
 30
0.0
 40
0.707106781186548
100
AcDbArc
 50
90.0
 51
180.0
  0
ARC
  5
348
330
30C
100
AcDbEntity
  8
0
100
AcDbCircle
 10
127.6428932188135
 20
15.49289321881345
 30
0.0
 40
0.707106781186548
100
AcDbArc
 50
0.0
 51
90.0
  0
LINE
  5
349
330
30C
100
AcDbEntity
  8
0
100
AcDbLine
 10
126.75
 20
16.2
 30
0.0
 11
126.75
 21
17.5
 31
0.0
  0
LINE
  5
34A
330
30C
100
AcDbEntity
  8
0
100
AcDbLine
 10
131.25
 20
16.2
 30
0.0
 11
131.25
 21
17.5
 31
0.0
  0
LINE
  5
34B
330
30C
100
AcDbEntity
  8
0
100
AcDbLine
 10
130.3571067811866
 20
16.2
 30
0.0
 11
131.2451978939826
 21
16.2
 31
0.0
  0
LINE
  5
34C
330
30C
100
AcDbEntity
  8
0
100
AcDbLine
 10
130.3571067811866
 20
17.5
 30
0.0
 11
131.2451978939826
 21
17.5
 31
0.0
  0
LINE
  5
34D
330
30C
100
AcDbEntity
  8
0
100
AcDbLine
 10
126.7548021060174
 20
17.5
 30
0.0
 11
127.6428932188135
 21
17.5
 31
0.0
  0
LINE
  5
34E
330
30C
100
AcDbEntity
  8
0
100
AcDbLine
 10
129.8571067811866
 20
17.70710678118655
 30
0.0
 11
130.3571067811866
 21
18.20710678118655
 31
0.0
  0
LINE
  5
34F
330
30C
100
AcDbEntity
  8
0
100
AcDbLine
 10
126.7548021060174
 20
16.2
 30
0.0
 11
127.6428932188135
 21
16.2
 31
0.0
  0
LINE
  5
350
330
30C
100
AcDbEntity
  8
0
100
AcDbLine
 10
129.8571067811866
 20
15.99289321881345
 30
0.0
 11
130.3571067811866
 21
15.49289321881345
 31
0.0
  0
LINE
  5
351
330
30C
100
AcDbEntity
  8
0
100
AcDbLine
 10
128.1428932188135
 20
17.70710678118655
 30
0.0
 11
127.6428932188135
 21
18.20710678118655
 31
0.0
  0
LINE
  5
352
330
30C
100
AcDbEntity
  8
0
100
AcDbLine
 10
128.1428932188135
 20
15.99289321881345
 30
0.0
 11
127.6428932188135
 21
15.49289321881345
 31
0.0
  0
CIRCLE
  5
353
330
30C
100
AcDbEntity
  8
0
100
AcDbCircle
 10
129.0
 20
16.85
 30
0.0
 40
0.7
  0
CIRCLE
  5
354
330
30C
100
AcDbEntity
  8
0
100
AcDbCircle
 10
129.0
 20
81.35
 30
0.0
 40
3.2
  0
LINE
  5
355
330
30C
100
AcDbEntity
  8
0
100
AcDbLine
 10
128.35
 20
78.21671099322133
 30
0.0
 11
128.35
 21
79.99289321881345
 31
0.0
  0
LINE
  5
356
330
30C
100
AcDbEntity
  8
0
100
AcDbLine
 10
128.35
 20
82.70710678118654
 30
0.0
 11
128.35
 21
84.48328900677866
 31
0.0
  0
LINE
  5
357
330
30C
100
AcDbEntity
  8
0
100
AcDbLine
 10
129.65
 20
78.21671099322133
 30
0.0
 11
129.65
 21
79.99289321881345
 31
0.0
  0
LINE
  5
358
330
30C
100
AcDbEntity
  8
0
100
AcDbLine
 10
129.65
 20
82.70710678118654
 30
0.0
 11
129.65
 21
84.48328900677865
 31
0.0
  0
ARC
  5
359
330
30C
100
AcDbEntity
  8
0
100
AcDbCircle
 10
127.6428932188135
 20
82.70710678118654
 30
0.0
 40
0.707106781186548
100
AcDbArc
 50
270.0
 51
0.0
  0
ARC
  5
35A
330
30C
100
AcDbEntity
  8
0
100
AcDbCircle
 10
130.3571067811866
 20
82.70710678118654
 30
0.0
 40
0.707106781186548
100
AcDbArc
 50
180.0
 51
270.0
  0
ARC
  5
35B
330
30C
100
AcDbEntity
  8
0
100
AcDbCircle
 10
130.3571067811866
 20
79.99289321881345
 30
0.0
 40
0.707106781186548
100
AcDbArc
 50
90.0
 51
180.0
  0
ARC
  5
35C
330
30C
100
AcDbEntity
  8
0
100
AcDbCircle
 10
127.6428932188135
 20
79.99289321881345
 30
0.0
 40
0.707106781186548
100
AcDbArc
 50
0.0
 51
90.0
  0
LINE
  5
35D
330
30C
100
AcDbEntity
  8
0
100
AcDbLine
 10
126.75
 20
80.69999999999999
 30
0.0
 11
126.75
 21
81.99999999999999
 31
0.0
  0
LINE
  5
35E
330
30C
100
AcDbEntity
  8
0
100
AcDbLine
 10
131.25
 20
80.69999999999999
 30
0.0
 11
131.25
 21
81.99999999999999
 31
0.0
  0
LINE
  5
35F
330
30C
100
AcDbEntity
  8
0
100
AcDbLine
 10
130.3571067811866
 20
80.69999999999999
 30
0.0
 11
131.2451978939826
 21
80.69999999999999
 31
0.0
  0
LINE
  5
360
330
30C
100
AcDbEntity
  8
0
100
AcDbLine
 10
130.3571067811866
 20
81.99999999999999
 30
0.0
 11
131.2451978939826
 21
81.99999999999999
 31
0.0
  0
LINE
  5
361
330
30C
100
AcDbEntity
  8
0
100
AcDbLine
 10
126.7548021060174
 20
81.99999999999999
 30
0.0
 11
127.6428932188135
 21
81.99999999999999
 31
0.0
  0
LINE
  5
362
330
30C
100
AcDbEntity
  8
0
100
AcDbLine
 10
129.8571067811866
 20
82.20710678118654
 30
0.0
 11
130.3571067811866
 21
82.70710678118654
 31
0.0
  0
LINE
  5
363
330
30C
100
AcDbEntity
  8
0
100
AcDbLine
 10
126.7548021060174
 20
80.69999999999999
 30
0.0
 11
127.6428932188135
 21
80.69999999999999
 31
0.0
  0
LINE
  5
364
330
30C
100
AcDbEntity
  8
0
100
AcDbLine
 10
129.8571067811866
 20
80.49289321881345
 30
0.0
 11
130.3571067811866
 21
79.99289321881345
 31
0.0
  0
LINE
  5
365
330
30C
100
AcDbEntity
  8
0
100
AcDbLine
 10
128.1428932188135
 20
82.20710678118654
 30
0.0
 11
127.6428932188135
 21
82.70710678118654
 31
0.0
  0
LINE
  5
366
330
30C
100
AcDbEntity
  8
0
100
AcDbLine
 10
128.1428932188135
 20
80.49289321881345
 30
0.0
 11
127.6428932188135
 21
79.99289321881345
 31
0.0
  0
CIRCLE
  5
367
330
30C
100
AcDbEntity
  8
0
100
AcDbCircle
 10
129.0
 20
81.35
 30
0.0
 40
0.7
  0
LINE
  5
368
330
30C
100
AcDbEntity
  8
0
100
AcDbLine
 10
132.0
 20
26.6
 30
0.0
 11
132.0
 21
45.6069647979778
 31
0.0
  0
LINE
  5
369
330
30C
100
AcDbEntity
  8
0
100
AcDbLine
 10
135.0
 20
71.6
 30
0.0
 11
135.0004309006888
 21
51.59527469691521
 31
0.0
  0
LINE
  5
36A
330
30C
100
AcDbEntity
  8
0
100
AcDbLine
 10
132.6112875855771
 20
47.4150501141028
 30
0.0
 11
134.4004309006888
 21
49.79527469691521
 31
0.0
  0
ARC
  5
36B
330
30C
100
AcDbEntity
  8
0
100
AcDbCircle
 10
135.0096524697065
 20
45.6163229958218
 30
0.0
 40
3.0
100
AcDbArc
 50
143.1301023541561
 51
180.0
  0
ARC
  5
36C
330
30C
100
AcDbEntity
  8
0
100
AcDbCircle
 10
135.0096524697065
 20
45.6163229958218
 30
0.0
 40
3.0
100
AcDbArc
 50
143.1301023541561
 51
180.0
  0
ARC
  5
36D
330
30C
100
AcDbEntity
  8
0
100
AcDbCircle
 10
132.0004309006888
 20
51.59527469691521
 30
0.0
 40
3.0
100
AcDbArc
 50
323.1301023541561
 51
0.0
  0
ENDBLK
  5
30E
330
30C
100
AcDbEntity
  8
0
100
AcDbBlockEnd
  0
BLOCK
  5
56D
330
562
100
AcDbEntity
  8
0
100
AcDbBlockBegin
  2
*D2
 70
     1
 10
0.0
 20
0.0
 30
0.0
  3
*D2
  1
*D26
  0
LINE
  5
563
330
562
100
AcDbEntity
  8
KOTY
 62
     0
100
AcDbLine
 10
343.3854600584793
 20
316.6398351464614
 30
0.0
 11
343.3854600584793
 21
316.7573351464614
 31
0.0
  0
LINE
  5
564
330
562
100
AcDbEntity
  8
KOTY
 62
     0
100
AcDbLine
 10
361.3854600584793
 20
316.6398351464614
 30
0.0
 11
361.3854600584793
 21
316.7573351464614
 31
0.0
  0
LINE
  5
565
330
562
100
AcDbEntity
  8
KOTY
 62
     0
100
AcDbLine
 10
347.3854600584793
 20
316.5773351464614
 30
0.0
 11
357.3854600584793
 21
316.5773351464614
 31
0.0
  0
SOLID
  5
566
330
562
100
AcDbEntity
  8
KOTY
 62
     0
100
AcDbTrace
 10
347.3854600584793
 20
317.2440018131281
 30
0.0
 11
347.3854600584793
 21
315.9106684797947
 31
0.0
 12
343.3854600584793
 22
316.5773351464614
 32
0.0
 13
343.3854600584793
 23
316.5773351464614
 33
0.0
  0
SOLID
  5
567
330
562
100
AcDbEntity
  8
KOTY
 62
     0
100
AcDbTrace
 10
357.3854600584793
 20
315.9106684797947
 30
0.0
 11
357.3854600584793
 21
317.2440018131281
 31
0.0
 12
361.3854600584793
 22
316.5773351464614
 32
0.0
 13
361.3854600584793
 23
316.5773351464614
 33
0.0
  0
MTEXT
  5
568
330
562
100
AcDbEntity
  8
KOTY
  6
HIDDEN
 62
     0
100
AcDbMText
 10
352.1963934905782
 20
319.6193351464614
 30
0.0
 40
4.0
 41
0.0
 71
     5
 72
     1
  1
\A1;18
  0
POINT
  5
569
330
562
100
AcDbEntity
  8
DEFPOINTS
 62
     0
100
AcDbPoint
 10
343.3854600584793
 20
316.5773351464614
 30
0.0
  0
POINT
  5
56A
330
562
100
AcDbEntity
  8
DEFPOINTS
 62
     0
100
AcDbPoint
 10
361.3854600584793
 20
316.5773351464614
 30
0.0
  0
POINT
  5
56B
330
562
100
AcDbEntity
  8
DEFPOINTS
 62
     0
100
AcDbPoint
 10
361.3854600584793
 20
316.5773351464614
 30
0.0
  0
ENDBLK
  5
56E
330
562
100
AcDbEntity
  8
0
100
AcDbBlockEnd
  0
BLOCK
  5
57D
330
572
100
AcDbEntity
  8
0
100
AcDbBlockBegin
  2
*D3
 70
     1
 10
0.0
 20
0.0
 30
0.0
  3
*D3
  1
*D27
  0
LINE
  5
573
330
572
100
AcDbEntity
  8
KOTY
 62
     0
100
AcDbLine
 10
72.5625
 20
0.0
 30
0.0
 11
82.68
 21
0.0
 31
0.0
  0
LINE
  5
574
330
572
100
AcDbEntity
  8
KOTY
 62
     0
100
AcDbLine
 10
61.7125
 20
92.0
 30
0.0
 11
82.68
 21
92.0
 31
0.0
  0
LINE
  5
575
330
572
100
AcDbEntity
  8
KOTY
 62
     0
100
AcDbLine
 10
82.5
 20
3.0
 30
0.0
 11
82.5
 21
89.0
 31
0.0
  0
SOLID
  5
576
330
572
100
AcDbEntity
  8
KOTY
 62
     0
100
AcDbTrace
 10
82.0
 20
3.0
 30
0.0
 11
83.0
 21
3.0
 31
0.0
 12
82.5
 22
0.0
 32
0.0
 13
82.5
 23
0.0
 33
0.0
  0
SOLID
  5
577
330
572
100
AcDbEntity
  8
KOTY
 62
     0
100
AcDbTrace
 10
83.0
 20
89.0
 30
0.0
 11
82.0
 21
89.0
 31
0.0
 12
82.5
 22
92.0
 32
0.0
 13
82.5
 23
92.0
 33
0.0
  0
MTEXT
  5
578
330
572
100
AcDbEntity
  8
KOTY
  6
HIDDEN
 62
     0
100
AcDbMText
 10
79.99875
 20
46.0
 30
0.0
 40
2.5
 41
0.0
 71
     5
 72
     1
  1
\A1;92,0
 11
0.0
 21
1.0
 31
0.0
  0
POINT
  5
579
330
572
100
AcDbEntity
  8
DEFPOINTS
 62
     0
100
AcDbPoint
 10
72.5
 20
0.0
 30
0.0
  0
POINT
  5
57A
330
572
100
AcDbEntity
  8
DEFPOINTS
 62
     0
100
AcDbPoint
 10
61.65
 20
92.0
 30
0.0
  0
POINT
  5
57B
330
572
100
AcDbEntity
  8
DEFPOINTS
 62
     0
100
AcDbPoint
 10
82.5
 20
92.0
 30
0.0
  0
ENDBLK
  5
57E
330
572
100
AcDbEntity
  8
0
100
AcDbBlockEnd
  0
BLOCK
  5
58D
330
582
100
AcDbEntity
  8
0
100
AcDbBlockBegin
  2
*D4
 70
     1
 10
0.0
 20
0.0
 30
0.0
  3
*D4
  1
*D28
  0
LINE
  5
583
330
582
100
AcDbEntity
  8
KOTY
 62
     0
100
AcDbLine
 10
294.8854600584793
 20
304.4956281600248
 30
0.0
 11
294.8854600584793
 21
249.3194027986499
 31
0.0
  0
LINE
  5
584
330
582
100
AcDbEntity
  8
KOTY
 62
     0
100
AcDbLine
 10
367.3854600584793
 20
277.8956281600247
 30
0.0
 11
367.3854600584793
 21
249.3194027986499
 31
0.0
  0
LINE
  5
585
330
582
100
AcDbEntity
  8
KOTY
 62
     0
100
AcDbLine
 10
298.8854600584793
 20
249.4994027986499
 30
0.0
 11
363.3854600584793
 21
249.4994027986499
 31
0.0
  0
SOLID
  5
586
330
582
100
AcDbEntity
  8
KOTY
 62
     0
100
AcDbTrace
 10
298.8854600584793
 20
250.1660694653166
 30
0.0
 11
298.8854600584793
 21
248.8327361319833
 31
0.0
 12
294.8854600584793
 22
249.4994027986499
 32
0.0
 13
294.8854600584793
 23
249.4994027986499
 33
0.0
  0
SOLID
  5
587
330
582
100
AcDbEntity
  8
KOTY
 62
     0
100
AcDbTrace
 10
363.3854600584793
 20
248.8327361319833
 30
0.0
 11
363.3854600584793
 21
250.1660694653166
 31
0.0
 12
367.3854600584793
 22
249.4994027986499
 32
0.0
 13
367.3854600584793
 23
249.4994027986499
 33
0.0
  0
MTEXT
  5
588
330
582
100
AcDbEntity
  8
KOTY
  6
HIDDEN
 62
     0
100
AcDbMText
 10
330.5834302231116
 20
252.9014027986499
 30
0.0
 40
4.0
 41
0.0
 71
     5
 72
     1
  1
\A1;72,5
  0
POINT
  5
589
330
582
100
AcDbEntity
  8
DEFPOINTS
 62
     0
100
AcDbPoint
 10
294.8854600584793
 20
304.5581281600248
 30
0.0
  0
POINT
  5
58A
330
582
100
AcDbEntity
  8
DEFPOINTS
 62
     0
100
AcDbPoint
 10
367.3854600584793
 20
277.9581281600247
 30
0.0
  0
POINT
  5
58B
330
582
100
AcDbEntity
  8
DEFPOINTS
 62
     0
100
AcDbPoint
 10
367.3854600584793
 20
249.4994027986499
 30
0.0
  0
ENDBLK
  5
58E
330
582
100
AcDbEntity
  8
0
100
AcDbBlockEnd
  0
BLOCK
  5
5BD
330
5B2
100
AcDbEntity
  8
0
100
AcDbBlockBegin
  2
*D5
 70
     1
 10
0.0
 20
0.0
 30
0.0
  3
*D5
  1
*D31
  0
LINE
  5
5B3
330
5B2
100
AcDbEntity
  8
KOTY
 62
     0
100
AcDbLine
 10
294.8229600584793
 20
304.5581281600248
 30
0.0
 11
284.7054600584793
 21
304.5581281600248
 31
0.0
  0
LINE
  5
5B4
330
5B2
100
AcDbEntity
  8
KOTY
 62
     0
100
AcDbLine
 10
294.8229600584793
 20
349.5581281600247
 30
0.0
 11
284.7054600584793
 21
349.5581281600247
 31
0.0
  0
LINE
  5
5B5
330
5B2
100
AcDbEntity
  8
KOTY
 62
     0
100
AcDbLine
 10
284.8854600584793
 20
308.5581281600248
 30
0.0
 11
284.8854600584793
 21
345.5581281600247
 31
0.0
  0
SOLID
  5
5B6
330
5B2
100
AcDbEntity
  8
KOTY
 62
     0
100
AcDbTrace
 10
284.2187933918126
 20
308.5581281600248
 30
0.0
 11
285.552126725146
 21
308.5581281600248
 31
0.0
 12
284.8854600584793
 22
304.5581281600248
 32
0.0
 13
284.8854600584793
 23
304.5581281600248
 33
0.0
  0
SOLID
  5
5B7
330
5B2
100
AcDbEntity
  8
KOTY
 62
     0
100
AcDbTrace
 10
285.552126725146
 20
345.5581281600247
 30
0.0
 11
284.2187933918126
 21
345.5581281600247
 31
0.0
 12
284.8854600584793
 22
349.5581281600247
 32
0.0
 13
284.8854600584793
 23
349.5581281600247
 33
0.0
  0
MTEXT
  5
5B8
330
5B2
100
AcDbEntity
  8
KOTY
  6
HIDDEN
 62
     0
100
AcDbMText
 10
281.8514600584793
 20
323.9581281600247
 30
0.0
 40
4.0
 41
0.0
 71
     5
 72
     1
  1
\A1;45
 11
0.0
 21
1.0
 31
0.0
  0
POINT
  5
5B9
330
5B2
100
AcDbEntity
  8
DEFPOINTS
 62
     0
100
AcDbPoint
 10
294.8854600584793
 20
304.5581281600248
 30
0.0
  0
POINT
  5
5BA
330
5B2
100
AcDbEntity
  8
DEFPOINTS
 62
     0
100
AcDbPoint
 10
294.8854600584793
 20
349.5581281600247
 30
0.0
  0
POINT
  5
5BB
330
5B2
100
AcDbEntity
  8
DEFPOINTS
 62
     0
100
AcDbPoint
 10
284.8854600584793
 20
349.5581281600247
 30
0.0
  0
ENDBLK
  5
5BE
330
5B2
100
AcDbEntity
  8
0
100
AcDbBlockEnd
  0
BLOCK
  5
5CD
330
5C2
100
AcDbEntity
  8
0
100
AcDbBlockBegin
  2
*D6
 70
     1
 10
0.0
 20
0.0
 30
0.0
  3
*D6
  1
*D32
  0
LINE
  5
5C3
330
5C2
100
AcDbEntity
  8
KOTY
 62
     0
100
AcDbLine
 10
323.5229600584793
 20
286.0581281600248
 30
0.0
 11
275.9054903178157
 21
286.0581281600248
 31
0.0
  0
LINE
  5
5C4
330
5C2
100
AcDbEntity
  8
KOTY
 62
     0
100
AcDbLine
 10
323.5229600584793
 20
368.0581281600247
 30
0.0
 11
275.9054903178157
 21
368.0581281600247
 31
0.0
  0
LINE
  5
5C5
330
5C2
100
AcDbEntity
  8
KOTY
 62
     0
100
AcDbLine
 10
276.0854903178157
 20
290.0581281600248
 30
0.0
 11
276.0854903178157
 21
364.0581281600247
 31
0.0
  0
SOLID
  5
5C6
330
5C2
100
AcDbEntity
  8
KOTY
 62
     0
100
AcDbTrace
 10
275.418823651149
 20
290.0581281600248
 30
0.0
 11
276.7521569844824
 21
290.0581281600248
 31
0.0
 12
276.0854903178157
 22
286.0581281600248
 32
0.0
 13
276.0854903178157
 23
286.0581281600248
 33
0.0
  0
SOLID
  5
5C7
330
5C2
100
AcDbEntity
  8
KOTY
 62
     0
100
AcDbTrace
 10
276.7521569844824
 20
364.0581281600247
 30
0.0
 11
275.418823651149
 21
364.0581281600247
 31
0.0
 12
276.0854903178157
 22
368.0581281600247
 32
0.0
 13
276.0854903178157
 23
368.0581281600247
 33
0.0
  0
MTEXT
  5
5C8
330
5C2
100
AcDbEntity
  8
KOTY
  6
HIDDEN
 62
     0
100
AcDbMText
 10
273.0434903178157
 20
323.9581281600247
 30
0.0
 40
4.0
 41
0.0
 71
     5
 72
     1
  1
\A1;82
 11
0.0
 21
1.0
 31
0.0
  0
POINT
  5
5C9
330
5C2
100
AcDbEntity
  8
DEFPOINTS
 62
     0
100
AcDbPoint
 10
323.5854600584793
 20
286.0581281600248
 30
0.0
  0
POINT
  5
5CA
330
5C2
100
AcDbEntity
  8
DEFPOINTS
 62
     0
100
AcDbPoint
 10
323.5854600584793
 20
368.0581281600247
 30
0.0
  0
POINT
  5
5CB
330
5C2
100
AcDbEntity
  8
DEFPOINTS
 62
     0
100
AcDbPoint
 10
276.0854903178157
 20
368.0581281600247
 30
0.0
  0
ENDBLK
  5
5CE
330
5C2
100
AcDbEntity
  8
0
100
AcDbBlockEnd
  0
BLOCK
  5
5E8
330
5DD
100
AcDbEntity
  8
0
100
AcDbBlockBegin
  2
*D7
 70
     1
 10
0.0
 20
0.0
 30
0.0
  3
*D7
  1
*D34
  0
LINE
  5
5DE
330
5DD
100
AcDbEntity
  8
KOTY
 62
     0
100
AcDbLine
 10
361.3854600584793
 20
308.3956281600247
 30
0.0
 11
361.3854600584793
 21
267.7781281600247
 31
0.0
  0
LINE
  5
5DF
330
5DD
100
AcDbEntity
  8
KOTY
 62
     0
100
AcDbLine
 10
317.3854600584793
 20
289.5956281600247
 30
0.0
 11
317.3854600584793
 21
267.7781281600247
 31
0.0
  0
LINE
  5
5E0
330
5DD
100
AcDbEntity
  8
KOTY
 62
     0
100
AcDbLine
 10
357.3854600584793
 20
267.9581281600247
 30
0.0
 11
321.3854600584793
 21
267.9581281600247
 31
0.0
  0
SOLID
  5
5E1
330
5DD
100
AcDbEntity
  8
KOTY
 62
     0
100
AcDbTrace
 10
357.3854600584793
 20
267.291461493358
 30
0.0
 11
357.3854600584793
 21
268.6247948266914
 31
0.0
 12
361.3854600584793
 22
267.9581281600247
 32
0.0
 13
361.3854600584793
 23
267.9581281600247
 33
0.0
  0
SOLID
  5
5E2
330
5DD
100
AcDbEntity
  8
KOTY
 62
     0
100
AcDbTrace
 10
321.3854600584793
 20
268.6247948266914
 30
0.0
 11
321.3854600584793
 21
267.291461493358
 31
0.0
 12
317.3854600584793
 22
267.9581281600247
 32
0.0
 13
317.3854600584793
 23
267.9581281600247
 33
0.0
  0
MTEXT
  5
5E3
330
5DD
100
AcDbEntity
  8
KOTY
  6
HIDDEN
 62
     0
100
AcDbMText
 10
339.3854600584793
 20
270.9581281600247
 30
0.0
 40
4.0
 41
0.0
 71
     5
 72
     1
  1
\A1;44
  0
POINT
  5
5E4
330
5DD
100
AcDbEntity
  8
DEFPOINTS
 62
     0
100
AcDbPoint
 10
361.3854600584793
 20
308.4581281600247
 30
0.0
  0
POINT
  5
5E5
330
5DD
100
AcDbEntity
  8
DEFPOINTS
 62
     0
100
AcDbPoint
 10
317.3854600584793
 20
289.6581281600247
 30
0.0
  0
POINT
  5
5E6
330
5DD
100
AcDbEntity
  8
DEFPOINTS
 62
     0
100
AcDbPoint
 10
317.3854600584793
 20
267.9581281600247
 30
0.0
  0
ENDBLK
  5
5E9
330
5DD
100
AcDbEntity
  8
0
100
AcDbBlockEnd
  0
BLOCK
  5
5F8
330
5ED
100
AcDbEntity
  8
0
100
AcDbBlockBegin
  2
*D8
 70
     1
 10
0.0
 20
0.0
 30
0.0
  3
*D8
  1
*D35
  0
LINE
  5
5EE
330
5ED
100
AcDbEntity
  8
KOTY
 62
     0
100
AcDbLine
 10
294.8854600584793
 20
304.4956281600248
 30
0.0
 11
294.8854600584793
 21
257.4928019241259
 31
0.0
  0
LINE
  5
5EF
330
5ED
100
AcDbEntity
  8
KOTY
 62
     0
100
AcDbLine
 10
361.3854600584793
 20
308.3331281600247
 30
0.0
 11
361.3854600584793
 21
257.4928019241259
 31
0.0
  0
LINE
  5
5F0
330
5ED
100
AcDbEntity
  8
KOTY
 62
     0
100
AcDbLine
 10
298.8854600584793
 20
257.6728019241259
 30
0.0
 11
357.3854600584793
 21
257.6728019241259
 31
0.0
  0
SOLID
  5
5F1
330
5ED
100
AcDbEntity
  8
KOTY
 62
     0
100
AcDbTrace
 10
298.8854600584793
 20
258.3394685907926
 30
0.0
 11
298.8854600584793
 21
257.0061352574592
 31
0.0
 12
294.8854600584793
 22
257.6728019241259
 32
0.0
 13
294.8854600584793
 23
257.6728019241259
 33
0.0
  0
SOLID
  5
5F2
330
5ED
100
AcDbEntity
  8
KOTY
 62
     0
100
AcDbTrace
 10
357.3854600584793
 20
257.0061352574592
 30
0.0
 11
357.3854600584793
 21
258.3394685907926
 31
0.0
 12
361.3854600584793
 22
257.6728019241259
 32
0.0
 13
361.3854600584793
 23
257.6728019241259
 33
0.0
  0
MTEXT
  5
5F3
330
5ED
100
AcDbEntity
  8
KOTY
  6
HIDDEN
 62
     0
100
AcDbMText
 10
328.1354600584793
 20
261.0748019241259
 30
0.0
 40
4.0
 41
0.0
 71
     5
 72
     1
  1
\A1;66,5
  0
POINT
  5
5F4
330
5ED
100
AcDbEntity
  8
DEFPOINTS
 62
     0
100
AcDbPoint
 10
294.8854600584793
 20
304.5581281600248
 30
0.0
  0
POINT
  5
5F5
330
5ED
100
AcDbEntity
  8
DEFPOINTS
 62
     0
100
AcDbPoint
 10
361.3854600584793
 20
308.3956281600247
 30
0.0
  0
POINT
  5
5F6
330
5ED
100
AcDbEntity
  8
DEFPOINTS
 62
     0
100
AcDbPoint
 10
361.3854600584793
 20
257.6728019241259
 30
0.0
  0
ENDBLK
  5
5F9
330
5ED
100
AcDbEntity
  8
0
100
AcDbBlockEnd
  0
BLOCK
  5
608
330
607
100
AcDbEntity
  8
0
100
AcDbBlockBegin
  2
_CLOSEDBLANK
 70
     0
 10
0.0
 20
0.0
 30
0.0
  3
_CLOSEDBLANK
  1
_CLOSEDBLANK
  0
LINE
  5
60A
330
607
100
AcDbEntity
  8
0
  6
BYBLOCK
 62
     0
100
AcDbLine
 10
-1.0
 20
0.166667
 30
0.0
 11
0.0
 21
0.0
 31
0.0
  0
LINE
  5
60B
330
607
100
AcDbEntity
  8
0
  6
BYBLOCK
 62
     0
100
AcDbLine
 10
0.0
 20
0.0
 30
0.0
 11
-1.0
 21
-0.166667
 31
0.0
  0
LINE
  5
60C
330
607
100
AcDbEntity
  8
0
  6
BYBLOCK
 62
     0
100
AcDbLine
 10
-1.0
 20
0.166667
 30
0.0
 11
-1.0
 21
-0.166667
 31
0.0
  0
ENDBLK
  5
609
330
607
100
AcDbEntity
  8
0
100
AcDbBlockEnd
  0
BLOCK
  5
60E
330
60D
100
AcDbEntity
  8
0
100
AcDbBlockBegin
  2
_CLOSED
 70
     0
 10
0.0
 20
0.0
 30
0.0
  3
_CLOSED
  1
_CLOSED
  0
LINE
  5
610
330
60D
100
AcDbEntity
  8
0
  6
BYBLOCK
 62
     0
100
AcDbLine
 10
-1.0
 20
0.166667
 30
0.0
 11
0.0
 21
0.0
 31
0.0
  0
LINE
  5
611
330
60D
100
AcDbEntity
  8
0
  6
BYBLOCK
 62
     0
100
AcDbLine
 10
0.0
 20
0.0
 30
0.0
 11
-1.0
 21
-0.166667
 31
0.0
  0
LINE
  5
612
330
60D
100
AcDbEntity
  8
0
  6
BYBLOCK
 62
     0
100
AcDbLine
 10
-1.0
 20
0.166667
 30
0.0
 11
-1.0
 21
-0.166667
 31
0.0
  0
LINE
  5
613
330
60D
100
AcDbEntity
  8
0
  6
BYBLOCK
 62
     0
100
AcDbLine
 10
0.0
 20
0.0
 30
0.0
 11
-1.0
 21
0.0
 31
0.0
  0
ENDBLK
  5
60F
330
60D
100
AcDbEntity
  8
0
100
AcDbBlockEnd
  0
BLOCK
  5
615
330
614
100
AcDbEntity
  8
0
100
AcDbBlockBegin
  2
_DOT
 70
     0
 10
0.0
 20
0.0
 30
0.0
  3
_DOT
  1
_DOT
  0
LWPOLYLINE
  5
617
330
614
100
AcDbEntity
  8
0
  6
BYBLOCK
 62
     0
100
AcDbPolyline
 90
        2
 70
     1
 43
0.5
 10
-0.25
 20
0.0
 42
1.0
 10
0.25
 20
0.0
 42
1.0
  0
LINE
  5
618
330
614
100
AcDbEntity
  8
0
  6
BYBLOCK
 62
     0
100
AcDbLine
 10
-0.5
 20
0.0
 30
0.0
 11
-1.0
 21
0.0
 31
0.0
  0
ENDBLK
  5
616
330
614
100
AcDbEntity
  8
0
100
AcDbBlockEnd
  0
BLOCK
  5
61A
330
619
100
AcDbEntity
  8
0
100
AcDbBlockBegin
  2
_ARCHTICK
 70
     0
 10
0.0
 20
0.0
 30
0.0
  3
_ARCHTICK
  1
_ARCHTICK
  0
LWPOLYLINE
  5
61C
330
619
100
AcDbEntity
  8
0
  6
BYBLOCK
 62
     0
100
AcDbPolyline
 90
        2
 70
     0
 43
0.15
 10
-0.5
 20
-0.5
 10
0.5
 20
0.5
  0
ENDBLK
  5
61B
330
619
100
AcDbEntity
  8
0
100
AcDbBlockEnd
  0
BLOCK
  5
96A
330
95F
100
AcDbEntity
  8
0
100
AcDbBlockBegin
  2
*D13
 70
     1
 10
0.0
 20
0.0
 30
0.0
  3
*D13
  1
*D44
  0
LINE
  5
960
330
95F
100
AcDbEntity
  8
KOTY
 62
     0
100
AcDbLine
 10
414.8854600584793
 20
285.9956281600248
 30
0.0
 11
414.8854600584793
 21
267.7781281600247
 31
0.0
  0
LINE
  5
961
330
95F
100
AcDbEntity
  8
KOTY
 62
     0
100
AcDbLine
 10
468.8854600584793
 20
285.9956281600248
 30
0.0
 11
468.8854600584793
 21
267.7781281600247
 31
0.0
  0
LINE
  5
962
330
95F
100
AcDbEntity
  8
KOTY
 62
     0
100
AcDbLine
 10
418.8854600584793
 20
267.9581281600247
 30
0.0
 11
464.8854600584793
 21
267.9581281600247
 31
0.0
  0
SOLID
  5
963
330
95F
100
AcDbEntity
  8
KOTY
 62
     0
100
AcDbTrace
 10
418.8854600584793
 20
268.6247948266914
 30
0.0
 11
418.8854600584793
 21
267.291461493358
 31
0.0
 12
414.8854600584793
 22
267.9581281600247
 32
0.0
 13
414.8854600584793
 23
267.9581281600247
 33
0.0
  0
SOLID
  5
964
330
95F
100
AcDbEntity
  8
KOTY
 62
     0
100
AcDbTrace
 10
464.8854600584793
 20
267.291461493358
 30
0.0
 11
464.8854600584793
 21
268.6247948266914
 31
0.0
 12
468.8854600584793
 22
267.9581281600247
 32
0.0
 13
468.8854600584793
 23
267.9581281600247
 33
0.0
  0
MTEXT
  5
965
330
95F
100
AcDbEntity
  8
KOTY
  6
HIDDEN
 62
     0
100
AcDbMText
 10
441.8854600584793
 20
270.9921281600247
 30
0.0
 40
4.0
 41
0.0
 71
     5
 72
     1
  1
\A1;54
  0
POINT
  5
966
330
95F
100
AcDbEntity
  8
DEFPOINTS
 62
     0
100
AcDbPoint
 10
414.8854600584793
 20
286.0581281600248
 30
0.0
  0
POINT
  5
967
330
95F
100
AcDbEntity
  8
DEFPOINTS
 62
     0
100
AcDbPoint
 10
468.8854600584793
 20
286.0581281600248
 30
0.0
  0
POINT
  5
968
330
95F
100
AcDbEntity
  8
DEFPOINTS
 62
     0
100
AcDbPoint
 10
468.8854600584793
 20
267.9581281600247
 30
0.0
  0
ENDBLK
  5
96B
330
95F
100
AcDbEntity
  8
0
100
AcDbBlockEnd
  0
BLOCK
  5
97A
330
96F
100
AcDbEntity
  8
0
100
AcDbBlockBegin
  2
*D14
 70
     1
 10
0.0
 20
0.0
 30
0.0
  3
*D14
  1
*D45
  0
LINE
  5
970
330
96F
100
AcDbEntity
  8
KOTY
 62
     0
100
AcDbLine
 10
459.9479600584793
 20
359.3081281600247
 30
0.0
 11
479.0654600584793
 21
359.3081281600247
 31
0.0
  0
LINE
  5
971
330
96F
100
AcDbEntity
  8
KOTY
 62
     0
100
AcDbLine
 10
459.9479600584793
 20
294.8081281600248
 30
0.0
 11
479.0654600584793
 21
294.8081281600248
 31
0.0
  0
LINE
  5
972
330
96F
100
AcDbEntity
  8
KOTY
 62
     0
100
AcDbLine
 10
478.8854600584793
 20
355.3081281600247
 30
0.0
 11
478.8854600584793
 21
298.8081281600248
 31
0.0
  0
SOLID
  5
973
330
96F
100
AcDbEntity
  8
KOTY
 62
     0
100
AcDbTrace
 10
479.552126725146
 20
355.3081281600247
 30
0.0
 11
478.2187933918126
 21
355.3081281600247
 31
0.0
 12
478.8854600584793
 22
359.3081281600247
 32
0.0
 13
478.8854600584793
 23
359.3081281600247
 33
0.0
  0
SOLID
  5
974
330
96F
100
AcDbEntity
  8
KOTY
 62
     0
100
AcDbTrace
 10
478.2187933918126
 20
298.8081281600248
 30
0.0
 11
479.552126725146
 21
298.8081281600248
 31
0.0
 12
478.8854600584793
 22
294.8081281600248
 32
0.0
 13
478.8854600584793
 23
294.8081281600248
 33
0.0
  0
MTEXT
  5
975
330
96F
100
AcDbEntity
  8
KOTY
  6
HIDDEN
 62
     0
100
AcDbMText
 10
475.4834600584793
 20
327.0581281600247
 30
0.0
 40
4.0
 41
0.0
 71
     5
 72
     1
  1
\A1;64,5
 11
0.0
 21
1.0
 31
0.0
  0
POINT
  5
976
330
96F
100
AcDbEntity
  8
DEFPOINTS
 62
     0
100
AcDbPoint
 10
459.8854600584793
 20
359.3081281600247
 30
0.0
  0
POINT
  5
977
330
96F
100
AcDbEntity
  8
DEFPOINTS
 62
     0
100
AcDbPoint
 10
459.8854600584793
 20
294.8081281600248
 30
0.0
  0
POINT
  5
978
330
96F
100
AcDbEntity
  8
DEFPOINTS
 62
     0
100
AcDbPoint
 10
478.8854600584793
 20
294.8081281600248
 30
0.0
  0
ENDBLK
  5
97B
330
96F
100
AcDbEntity
  8
0
100
AcDbBlockEnd
  0
BLOCK
  5
9EF
330
9E4
100
AcDbEntity
  8
0
100
AcDbBlockBegin
  2
*D15
 70
     1
 10
0.0
 20
0.0
 30
0.0
  3
*D15
  1
*D46
  0
LINE
  5
9E5
330
9E4
100
AcDbEntity
  8
KOTY
 62
     0
100
AcDbLine
 10
330.8854600584793
 20
368.1206281600247
 30
0.0
 11
330.8854600584793
 21
380.1381281600247
 31
0.0
  0
LINE
  5
9E6
330
9E4
100
AcDbEntity
  8
KOTY
 62
     0
100
AcDbLine
 10
361.3854600584793
 20
344.6206281600247
 30
0.0
 11
361.3854600584793
 21
380.1381281600247
 31
0.0
  0
LINE
  5
9E7
330
9E4
100
AcDbEntity
  8
KOTY
 62
     0
100
AcDbLine
 10
334.8854600584793
 20
379.9581281600247
 30
0.0
 11
357.3854600584793
 21
379.9581281600247
 31
0.0
  0
SOLID
  5
9E8
330
9E4
100
AcDbEntity
  8
KOTY
 62
     0
100
AcDbTrace
 10
334.8854600584793
 20
380.6247948266914
 30
0.0
 11
334.8854600584793
 21
379.291461493358
 31
0.0
 12
330.8854600584793
 22
379.9581281600247
 32
0.0
 13
330.8854600584793
 23
379.9581281600247
 33
0.0
  0
SOLID
  5
9E9
330
9E4
100
AcDbEntity
  8
KOTY
 62
     0
100
AcDbTrace
 10
357.3854600584793
 20
379.291461493358
 30
0.0
 11
357.3854600584793
 21
380.6247948266914
 31
0.0
 12
361.3854600584793
 22
379.9581281600247
 32
0.0
 13
361.3854600584793
 23
379.9581281600247
 33
0.0
  0
MTEXT
  5
9EA
330
9E4
100
AcDbEntity
  8
KOTY
  6
HIDDEN
 62
     0
100
AcDbMText
 10
346.1354600584793
 20
383.3601281600247
 30
0.0
 40
4.0
 41
0.0
 71
     5
 72
     1
  1
\A1;30,5
  0
POINT
  5
9EB
330
9E4
100
AcDbEntity
  8
DEFPOINTS
 62
     0
100
AcDbPoint
 10
330.8854600584793
 20
368.0581281600247
 30
0.0
  0
POINT
  5
9EC
330
9E4
100
AcDbEntity
  8
DEFPOINTS
 62
     0
100
AcDbPoint
 10
361.3854600584793
 20
344.5581281600247
 30
0.0
  0
POINT
  5
9ED
330
9E4
100
AcDbEntity
  8
DEFPOINTS
 62
     0
100
AcDbPoint
 10
361.3854600584793
 20
379.9581281600247
 30
0.0
  0
ENDBLK
  5
9F0
330
9E4
100
AcDbEntity
  8
0
100
AcDbBlockEnd
  0
BLOCK
  5
B29
330
B0B
100
AcDbEntity
  8
0
100
AcDbBlockBegin
  2
*D16
 70
     1
 10
0.0
 20
0.0
 30
0.0
  3
*D16
  1
*D51
  0
LINE
  5
B0C
330
B0B
100
AcDbEntity
  8
KOTY
 62
     0
100
AcDbLine
 10
368.9479296553577
 20
401.9581017251082
 30
0.0
 11
377.5654296553577
 21
401.9581017251082
 31
0.0
  0
LINE
  5
B0D
330
B0B
100
AcDbEntity
  8
KOTY
 62
     0
100
AcDbLine
 10
368.2479296553577
 20
392.9581017251082
 30
0.0
 11
377.5654296553577
 21
392.9581017251082
 31
0.0
  0
LINE
  5
B0E
330
B0B
100
AcDbEntity
  8
KOTY
 62
     0
100
AcDbLine
 10
377.3854296553577
 20
398.9581017251082
 30
0.0
 11
377.3854296553577
 21
395.9581017251082
 31
0.0
  0
SOLID
  5
B0F
330
B0B
100
AcDbEntity
  8
KOTY
 62
     0
100
AcDbTrace
 10
377.8854296553577
 20
398.9581017251082
 30
0.0
 11
376.8854296553577
 21
398.9581017251082
 31
0.0
 12
377.3854296553577
 22
401.9581017251082
 32
0.0
 13
377.3854296553577
 23
401.9581017251082
 33
0.0
  0
SOLID
  5
B10
330
B0B
100
AcDbEntity
  8
KOTY
 62
     0
100
AcDbTrace
 10
376.8854296553577
 20
395.9581017251082
 30
0.0
 11
377.8854296553577
 21
395.9581017251082
 31
0.0
 12
377.3854296553577
 22
392.9581017251082
 32
0.0
 13
377.3854296553577
 23
392.9581017251082
 33
0.0
  0
MTEXT
  5
B11
330
B0B
100
AcDbEntity
  8
KOTY
  6
HIDDEN
 62
     0
100
AcDbMText
 10
374.8841796553577
 20
397.4581017251082
 30
0.0
 40
2.5
 41
0.0
 71
     5
 72
     1
  1
\A1;9,0
 11
0.0
 21
1.0
 31
0.0
  0
POINT
  5
B12
330
B0B
100
AcDbEntity
  8
DEFPOINTS
 62
     0
100
AcDbPoint
 10
368.8854296553577
 20
401.9581017251082
 30
0.0
  0
POINT
  5
B13
330
B0B
100
AcDbEntity
  8
DEFPOINTS
 62
     0
100
AcDbPoint
 10
368.1854296553577
 20
392.9581017251082
 30
0.0
  0
POINT
  5
B14
330
B0B
100
AcDbEntity
  8
DEFPOINTS
 62
     0
100
AcDbPoint
 10
377.3854296553577
 20
392.9581017251082
 30
0.0
  0
ENDBLK
  5
B2A
330
B0B
100
AcDbEntity
  8
0
100
AcDbBlockEnd
  0
BLOCK
  5
B2B
330
B15
100
AcDbEntity
  8
0
100
AcDbBlockBegin
  2
*D17
 70
     1
 10
0.0
 20
0.0
 30
0.0
  3
*D17
  1
*D52
  0
LINE
  5
B16
330
B15
100
AcDbEntity
  8
KOTY
 62
     0
100
AcDbLine
 10
357.8854296553577
 20
400.3206017251082
 30
0.0
 11
357.8854296553577
 21
412.1381017251082
 31
0.0
  0
LINE
  5
B17
330
B15
100
AcDbEntity
  8
KOTY
 62
     0
100
AcDbLine
 10
368.8854296553577
 20
402.0206017251082
 30
0.0
 11
368.8854296553577
 21
412.1381017251082
 31
0.0
  0
LINE
  5
B18
330
B15
100
AcDbEntity
  8
KOTY
 62
     0
100
AcDbLine
 10
360.8854296553577
 20
411.9581017251082
 30
0.0
 11
365.8854296553577
 21
411.9581017251082
 31
0.0
  0
SOLID
  5
B19
330
B15
100
AcDbEntity
  8
KOTY
 62
     0
100
AcDbTrace
 10
360.8854296553577
 20
412.4581017251082
 30
0.0
 11
360.8854296553577
 21
411.4581017251082
 31
0.0
 12
357.8854296553577
 22
411.9581017251082
 32
0.0
 13
357.8854296553577
 23
411.9581017251082
 33
0.0
  0
SOLID
  5
B1A
330
B15
100
AcDbEntity
  8
KOTY
 62
     0
100
AcDbTrace
 10
365.8854296553577
 20
411.4581017251082
 30
0.0
 11
365.8854296553577
 21
412.4581017251082
 31
0.0
 12
368.8854296553577
 22
411.9581017251082
 32
0.0
 13
368.8854296553577
 23
411.9581017251082
 33
0.0
  0
MTEXT
  5
B1B
330
B15
100
AcDbEntity
  8
KOTY
  6
HIDDEN
 62
     0
100
AcDbMText
 10
363.3854296553577
 20
414.4593517251083
 30
0.0
 40
2.5
 41
0.0
 71
     5
 72
     1
  1
\A1;11,0
  0
POINT
  5
B1C
330
B15
100
AcDbEntity
  8
DEFPOINTS
 62
     0
100
AcDbPoint
 10
357.8854296553577
 20
400.2581017251082
 30
0.0
  0
POINT
  5
B1D
330
B15
100
AcDbEntity
  8
DEFPOINTS
 62
     0
100
AcDbPoint
 10
368.8854296553577
 20
401.9581017251082
 30
0.0
  0
POINT
  5
B1E
330
B15
100
AcDbEntity
  8
DEFPOINTS
 62
     0
100
AcDbPoint
 10
368.8854296553577
 20
411.9581017251082
 30
0.0
  0
ENDBLK
  5
B2C
330
B15
100
AcDbEntity
  8
0
100
AcDbBlockEnd
  0
BLOCK
  5
B2D
330
B1F
100
AcDbEntity
  8
0
100
AcDbBlockBegin
  2
*D18
 70
     1
 10
0.0
 20
0.0
 30
0.0
  3
*D18
  1
*D53
  0
LINE
  5
B20
330
B1F
100
AcDbEntity
  8
KOTY
 62
     0
100
AcDbLine
 10
416.3854296553577
 20
402.0206017251082
 30
0.0
 11
416.3854296553577
 21
412.1381017251082
 31
0.0
  0
LINE
  5
B21
330
B1F
100
AcDbEntity
  8
KOTY
 62
     0
100
AcDbLine
 10
431.3854296553577
 20
402.0206017251082
 30
0.0
 11
431.3854296553577
 21
412.1381017251082
 31
0.0
  0
LINE
  5
B22
330
B1F
100
AcDbEntity
  8
KOTY
 62
     0
100
AcDbLine
 10
419.3854296553577
 20
411.9581017251082
 30
0.0
 11
428.3854296553577
 21
411.9581017251082
 31
0.0
  0
SOLID
  5
B23
330
B1F
100
AcDbEntity
  8
KOTY
 62
     0
100
AcDbTrace
 10
419.3854296553577
 20
412.4581017251082
 30
0.0
 11
419.3854296553577
 21
411.4581017251082
 31
0.0
 12
416.3854296553577
 22
411.9581017251082
 32
0.0
 13
416.3854296553577
 23
411.9581017251082
 33
0.0
  0
SOLID
  5
B24
330
B1F
100
AcDbEntity
  8
KOTY
 62
     0
100
AcDbTrace
 10
428.3854296553577
 20
411.4581017251082
 30
0.0
 11
428.3854296553577
 21
412.4581017251082
 31
0.0
 12
431.3854296553577
 22
411.9581017251082
 32
0.0
 13
431.3854296553577
 23
411.9581017251082
 33
0.0
  0
MTEXT
  5
B25
330
B1F
100
AcDbEntity
  8
KOTY
  6
HIDDEN
 62
     0
100
AcDbMText
 10
423.8854296553577
 20
414.4593517251083
 30
0.0
 40
2.5
 41
0.0
 71
     5
 72
     1
  1
\A1;15,0
  0
POINT
  5
B26
330
B1F
100
AcDbEntity
  8
DEFPOINTS
 62
     0
100
AcDbPoint
 10
416.3854296553577
 20
401.9581017251082
 30
0.0
  0
POINT
  5
B27
330
B1F
100
AcDbEntity
  8
DEFPOINTS
 62
     0
100
AcDbPoint
 10
431.3854296553577
 20
401.9581017251082
 30
0.0
  0
POINT
  5
B28
330
B1F
100
AcDbEntity
  8
DEFPOINTS
 62
     0
100
AcDbPoint
 10
431.3854296553577
 20
411.9581017251082
 30
0.0
  0
ENDBLK
  5
B2E
330
B1F
100
AcDbEntity
  8
0
100
AcDbBlockEnd
  0
ENDSEC
  0
SECTION
  2
ENTITIES
  0
LINE
  5
E3
330
1F
100
AcDbEntity
  8
OBRYS
 62
     5
100
AcDbLine
 10
367.3854600584793
 20
286.0581281600248
 30
0.0
 11
367.3854600584793
 21
277.9581281600247
 31
0.0
  0
LINE
  5
E4
330
1F
100
AcDbEntity
  8
OBRYS
 62
     5
100
AcDbLine
 10
367.3854600584793
 20
277.9581281600247
 30
0.0
 11
362.7854600584793
 21
277.9581281600247
 31
0.0
  0
LINE
  5
E5
330
1F
100
AcDbEntity
  8
OBRYS
 62
     5
100
AcDbLine
 10
362.7854600584793
 20
277.9581281600247
 30
0.0
 11
362.7854600584793
 21
286.0581281600248
 31
0.0
  0
LINE
  5
E6
330
1F
100
AcDbEntity
  8
OBRYS
 62
     5
100
AcDbLine
 10
362.7854600584793
 20
282.4581281600247
 30
0.0
 11
361.4854600584794
 21
282.4581281600247
 31
0.0
  0
LINE
  5
E7
330
1F
100
AcDbEntity
  8
OBRYS
 62
     5
100
AcDbLine
 10
361.4854600584794
 20
282.4581281600247
 30
0.0
 11
361.4854600584794
 21
286.0581281600248
 31
0.0
  0
LINE
  5
E8
330
1F
100
AcDbEntity
  8
OBRYS
 62
     5
100
AcDbLine
 10
367.3854600584793
 20
286.0581281600248
 30
0.0
 11
323.5854600584793
 21
286.0581281600248
 31
0.0
  0
LINE
  5
EB
330
1F
100
AcDbEntity
  8
OBRYS
 62
     5
100
AcDbLine
 10
360.1854600584794
 20
286.0581281600248
 30
0.0
 11
360.1854600584794
 21
308.4581281600247
 31
0.0
  0
LINE
  5
EC
330
1F
100
AcDbEntity
  8
OBRYS
 62
     5
100
AcDbLine
 10
360.1854600584794
 20
308.4581281600247
 30
0.0
 11
367.3854600584793
 21
308.4581281600247
 31
0.0
  0
LINE
  5
ED
330
1F
100
AcDbEntity
  8
OBRYS
 62
     5
100
AcDbLine
 10
367.3854600584793
 20
308.4581281600247
 30
0.0
 11
367.3854600584793
 21
286.0581281600248
 31
0.0
  0
LINE
  5
EE
330
1F
100
AcDbEntity
  8
OBRYS
 62
     5
100
AcDbLine
 10
356.5354600584793
 20
284.1581281600247
 30
0.0
 11
344.2354600584793
 21
284.1581281600247
 31
0.0
  0
LINE
  5
F0
330
1F
100
AcDbEntity
  8
OBRYS
 62
     5
100
AcDbLine
 10
356.5354600584793
 20
284.1581281600247
 30
0.0
 11
357.6854600584794
 21
286.0581281600248
 31
0.0
  0
LINE
  5
F1
330
1F
100
AcDbEntity
  8
OBRYS
 62
     5
100
AcDbLine
 10
344.2354600584793
 20
284.1581281600247
 30
0.0
 11
343.0854600584793
 21
286.0581281600248
 31
0.0
  0
LINE
  5
F2
330
1F
100
AcDbEntity
  8
OBRYS
 62
     5
100
AcDbLine
 10
317.3854600584793
 20
289.6581281600247
 30
0.0
 11
317.3854600584793
 21
304.0581281600248
 31
0.0
  0
LINE
  5
F3
330
1F
100
AcDbEntity
  8
OBRYS
 62
     5
100
AcDbLine
 10
317.3854600584793
 20
289.6581281600247
 30
0.0
 11
318.2402054559287
 21
289.1614342215676
 31
0.0
  0
LINE
  5
F6
330
1F
100
AcDbEntity
  8
OBRYS
 62
     5
100
AcDbLine
 10
361.3854600584793
 20
308.4581281600247
 30
0.0
 11
361.3854600584793
 21
344.5581281600247
 31
0.0
  0
LINE
  5
F7
330
1F
100
AcDbEntity
  8
OBRYS
 62
     5
100
AcDbLine
 10
361.3854600584793
 20
344.5581281600247
 30
0.0
 11
367.3854600584793
 21
344.5581281600247
 31
0.0
  0
LINE
  5
F8
330
1F
100
AcDbEntity
  8
OBRYS
 62
     5
100
AcDbLine
 10
367.3854600584793
 20
344.5581281600247
 30
0.0
 11
367.3854600584793
 21
361.2581281600247
 31
0.0
  0
LINE
  5
F9
330
1F
100
AcDbEntity
  8
OBRYS
 62
     5
100
AcDbLine
 10
367.3854600584793
 20
344.5581281600247
 30
0.0
 11
367.3854600584793
 21
342.6581281600247
 31
0.0
  0
LINE
  5
FA
330
1F
100
AcDbEntity
  8
OBRYS
 62
     5
100
AcDbLine
 10
367.3854600584793
 20
342.6581281600247
 30
0.0
 11
364.3854600584793
 21
342.6581281600247
 31
0.0
  0
LINE
  5
FB
330
1F
100
AcDbEntity
  8
OBRYS
 62
     5
100
AcDbLine
 10
364.3854600584793
 20
342.6581281600247
 30
0.0
 11
362.9854600584794
 21
344.5581281600247
 31
0.0
  0
LINE
  5
FD
330
1F
100
AcDbEntity
  8
OBRYS
 62
     5
100
AcDbLine
 10
319.8854600584793
 20
304.3581281600247
 30
0.0
 11
343.3854600584793
 21
304.3581281600247
 31
0.0
  0
LINE
  5
FE
330
1F
100
AcDbEntity
  8
OBRYS
 62
     5
100
AcDbLine
 10
343.3854600584793
 20
304.3581281600247
 30
0.0
 11
343.3854600584793
 21
349.7581281600247
 31
0.0
  0
LINE
  5
FF
330
1F
100
AcDbEntity
  8
OBRYS
 62
     5
100
AcDbLine
 10
343.3854600584793
 20
349.7581281600247
 30
0.0
 11
319.8854600584793
 21
349.7581281600247
 31
0.0
  0
LINE
  5
100
330
1F
100
AcDbEntity
  8
OBRYS
 62
     5
100
AcDbLine
 10
317.3854600584793
 20
350.0581281600247
 30
0.0
 11
317.3854600584793
 21
364.4581281600247
 31
0.0
  0
LINE
  5
112
330
1F
100
AcDbEntity
  8
OBRYS
 62
     5
100
AcDbLine
 10
323.5854600584793
 20
368.0581281600247
 30
0.0
 11
365.6854600584794
 21
368.0581281600247
 31
0.0
  0
LINE
  5
115
330
1F
100
AcDbEntity
  8
OBRYS
 62
     5
100
AcDbLine
 10
343.3854600584793
 20
304.5581281600248
 30
0.0
 11
303.9854600584794
 21
304.5581281600248
 31
0.0
  0
LINE
  5
116
330
1F
100
AcDbEntity
  8
OBRYS
 62
     5
100
AcDbLine
 10
343.3854600584793
 20
349.5581281600247
 30
0.0
 11
303.9854600584794
 21
349.5581281600247
 31
0.0
  0
LINE
  5
117
330
1F
100
AcDbEntity
  8
OBRYS
 62
     5
100
AcDbLine
 10
294.8854600584793
 20
304.5581281600248
 30
0.0
 11
294.8854600584793
 21
349.5581281600247
 31
0.0
  0
LINE
  5
128
330
1F
100
AcDbEntity
  8
OBRYS
 62
     5
100
AcDbLine
 10
294.8854600584793
 20
304.5581281600248
 30
0.0
 11
296.8854600584793
 21
304.5581281600248
 31
0.0
  0
LINE
  5
129
330
1F
100
AcDbEntity
  8
OBRYS
 62
     5
100
AcDbLine
 10
294.8854600584793
 20
349.5581281600247
 30
0.0
 11
296.8854600584793
 21
349.5581281600247
 31
0.0
  0
LINE
  5
14A
330
1F
100
AcDbEntity
  8
OBRYS
 62
     5
100
AcDbLine
 10
297.3854600584793
 20
305.0581281600248
 30
0.0
 11
303.4854600584794
 21
305.0581281600248
 31
0.0
  0
LINE
  5
15B
330
1F
100
AcDbEntity
  8
OBRYS
 62
     5
100
AcDbLine
 10
296.8854600584793
 20
304.5581281600248
 30
0.0
 11
297.3854600584793
 21
305.0581281600248
 31
0.0
  0
LINE
  5
15C
330
1F
100
AcDbEntity
  8
OBRYS
 62
     5
100
AcDbLine
 10
303.4854600584794
 20
305.0581281600248
 30
0.0
 11
303.9854600584794
 21
304.5581281600248
 31
0.0
  0
LINE
  5
15F
330
1F
100
AcDbEntity
  8
OBRYS
 62
     5
100
AcDbLine
 10
297.3854600584793
 20
349.0581281600247
 30
0.0
 11
303.4854600584794
 21
349.0581281600247
 31
0.0
  0
LINE
  5
160
330
1F
100
AcDbEntity
  8
OBRYS
 62
     5
100
AcDbLine
 10
296.8854600584793
 20
349.5581281600247
 30
0.0
 11
297.3854600584793
 21
349.0581281600247
 31
0.0
  0
LINE
  5
161
330
1F
100
AcDbEntity
  8
OBRYS
 62
     5
100
AcDbLine
 10
303.4854600584794
 20
349.0581281600247
 30
0.0
 11
303.9854600584794
 21
349.5581281600247
 31
0.0
  0
ARC
  5
175
330
1F
100
AcDbEntity
  8
OBRYS
 62
     5
100
AcDbCircle
 10
300.3354600584793
 20
305.0581281600248
 30
0.0
 40
0.25
100
AcDbArc
 50
180.0
 51
0.3652309648401871
  0
ARC
  5
17A
330
1F
100
AcDbEntity
  8
OBRYS
 62
     5
100
AcDbCircle
 10
298.4354600584794
 20
305.0581281600248
 30
0.0
 40
0.25
100
AcDbArc
 50
180.0
 51
0.142321183329781
  0
ARC
  5
17B
330
1F
100
AcDbEntity
  8
OBRYS
 62
     5
100
AcDbCircle
 10
302.2354600584794
 20
305.0581281600248
 30
0.0
 40
0.25
100
AcDbArc
 50
180.0
 51
358.9752080979358
  0
ARC
  5
17F
330
1F
100
AcDbEntity
  8
OBRYS
 62
     5
100
AcDbCircle
 10
298.4354600584794
 20
349.0581281600247
 30
0.0
 40
0.25
100
AcDbArc
 50
0.0
 51
179.6960893550858
  0
ARC
  5
180
330
1F
100
AcDbEntity
  8
OBRYS
 62
     5
100
AcDbCircle
 10
300.3354600584793
 20
349.0581281600247
 30
0.0
 40
0.25
100
AcDbArc
 50
0.0
 51
179.6818731304945
  0
ARC
  5
182
330
1F
100
AcDbEntity
  8
OBRYS
 62
     5
100
AcDbCircle
 10
302.2354600584794
 20
349.0581281600247
 30
0.0
 40
0.25
100
AcDbArc
 50
0.0
 51
180.4641496716467
  0
LINE
  5
185
330
1F
100
AcDbEntity
  8
OBRYS
 62
     5
100
AcDbLine
 10
365.6854600584794
 20
368.0581281600247
 30
0.0
 11
367.3854600584793
 21
361.2581281600247
 31
0.0
  0
LINE
  5
198
330
1F
100
AcDbEntity
  8
OBRYS
 62
     5
100
AcDbLine
 10
317.3854600584793
 20
364.4581281600247
 30
0.0
 11
323.5854600584793
 21
368.0581281600247
 31
0.0
  0
LINE
  5
1A0
330
1F
100
AcDbEntity
  8
OBRYS
 62
     5
100
AcDbLine
 10
317.3854600584793
 20
304.0581281600248
 30
0.0
 11
319.8854600584793
 21
304.3581281600247
 31
0.0
  0
LINE
  5
1A1
330
1F
100
AcDbEntity
  8
OBRYS
 62
     5
100
AcDbLine
 10
317.3854600584793
 20
350.0581281600247
 30
0.0
 11
319.8854600584793
 21
349.7581281600247
 31
0.0
  0
LINE
  5
1C5
330
1F
100
AcDbEntity
  8
OBRYS
 62
     5
100
AcDbLine
 10
357.7854600584793
 20
293.5581281600248
 30
0.0
 11
357.7854600584793
 21
296.6581281600247
 31
0.0
  0
LINE
  5
1C6
330
1F
100
AcDbEntity
  8
OBRYS
 62
     5
100
AcDbLine
 10
357.7854600584793
 20
296.6581281600247
 30
0.0
 11
354.6854600584794
 21
296.6581281600247
 31
0.0
  0
LINE
  5
1C7
330
1F
100
AcDbEntity
  8
OBRYS
 62
     5
100
AcDbLine
 10
354.6854600584794
 20
296.6581281600247
 30
0.0
 11
354.6854600584794
 21
293.5581281600248
 31
0.0
  0
LINE
  5
1C8
330
1F
100
AcDbEntity
  8
OBRYS
 62
     5
100
AcDbLine
 10
354.6854600584794
 20
293.5581281600248
 30
0.0
 11
357.7854600584793
 21
293.5581281600248
 31
0.0
  0
LINE
  5
1CD
330
1F
100
AcDbEntity
  8
OBRYS
 62
     5
100
AcDbLine
 10
357.0854600584793
 20
293.5581281600248
 30
0.0
 11
357.0854600584793
 21
296.6581281600247
 31
0.0
  0
LINE
  5
1CE
330
1F
100
AcDbEntity
  8
OBRYS
 62
     5
100
AcDbLine
 10
355.0854600584793
 20
293.5581281600248
 30
0.0
 11
355.0854600584793
 21
296.6581281600247
 31
0.0
  0
LINE
  5
1CF
330
1F
100
AcDbEntity
  8
OBRYS
 62
     5
100
AcDbLine
 10
357.7854600584793
 20
325.4581281600247
 30
0.0
 11
357.7854600584793
 21
328.5581281600247
 31
0.0
  0
LINE
  5
1D0
330
1F
100
AcDbEntity
  8
OBRYS
 62
     5
100
AcDbLine
 10
357.7854600584793
 20
328.5581281600247
 30
0.0
 11
354.6854600584794
 21
328.5581281600247
 31
0.0
  0
LINE
  5
1D1
330
1F
100
AcDbEntity
  8
OBRYS
 62
     5
100
AcDbLine
 10
354.6854600584794
 20
328.5581281600247
 30
0.0
 11
354.6854600584794
 21
325.4581281600247
 31
0.0
  0
LINE
  5
1D2
330
1F
100
AcDbEntity
  8
OBRYS
 62
     5
100
AcDbLine
 10
354.6854600584794
 20
325.4581281600247
 30
0.0
 11
357.7854600584793
 21
325.4581281600247
 31
0.0
  0
LINE
  5
1D3
330
1F
100
AcDbEntity
  8
OBRYS
 62
     5
100
AcDbLine
 10
357.0854600584793
 20
325.4581281600247
 30
0.0
 11
357.0854600584793
 21
328.5581281600247
 31
0.0
  0
LINE
  5
1D4
330
1F
100
AcDbEntity
  8
OBRYS
 62
     5
100
AcDbLine
 10
355.0854600584793
 20
325.4581281600247
 30
0.0
 11
355.0854600584793
 21
328.5581281600247
 31
0.0
  0
LINE
  5
2B6
330
1F
100
AcDbEntity
  8
OBRYS
 62
     5
100
AcDbLine
 10
322.7202592578949
 20
286.5605028184286
 30
0.0
 11
323.5854600584793
 21
286.0581281600248
 31
0.0
  0
LINE
  5
2BB
330
1F
100
AcDbEntity
  8
OBRYS
 62
     5
100
AcDbLine
 10
322.7202592578949
 20
286.5605028184286
 30
0.0
 11
318.2402054559287
 21
289.1614342215676
 31
0.0
  0
LINE
  5
3EF
330
1F
100
AcDbEntity
  8
OBRYS
 62
     5
100
AcDbLine
 10
420.3824320377652
 20
277.9581281600247
 30
0.0
 11
427.3747081164825
 21
277.9581281600247
 31
0.0
  0
LINE
  5
3F0
330
1F
100
AcDbEntity
  8
OBRYS
 62
     5
100
AcDbLine
 10
414.8854600584793
 20
286.0581281600248
 30
0.0
 11
432.8854600584793
 21
286.0581281600248
 31
0.0
  0
LINE
  5
3F4
330
1F
100
AcDbEntity
  8
OBRYS
 62
     5
100
AcDbLine
 10
420.5925668396659
 20
278.9581281600247
 30
0.0
 11
427.1783532772927
 21
278.9581281600247
 31
0.0
  0
LINE
  5
3F5
330
1F
100
AcDbEntity
  8
OBRYS
 62
     5
100
AcDbLine
 10
419.8854600584793
 20
279.6652349412113
 30
0.0
 11
419.8854600584793
 21
284.1612577906446
 31
0.0
  0
LINE
  5
3F6
330
1F
100
AcDbEntity
  8
OBRYS
 62
     5
100
AcDbLine
 10
427.8854600584793
 20
279.6652349412113
 30
0.0
 11
427.8854600584793
 21
284.1612577906446
 31
0.0
  0
ARC
  5
3F7
330
1F
100
AcDbEntity
  8
OBRYS
 62
     5
100
AcDbCircle
 10
420.5925668396659
 20
279.6652349412113
 30
0.0
 40
0.707106781186548
100
AcDbArc
 50
180.0
 51
270.0
  0
ARC
  5
3F8
330
1F
100
AcDbEntity
  8
OBRYS
 62
     5
100
AcDbCircle
 10
427.1783532772927
 20
279.6652349412113
 30
0.0
 40
0.707106781186548
100
AcDbArc
 50
270.0
 51
0.0
  0
LINE
  5
3F9
330
1F
100
AcDbEntity
  8
OBRYS
 62
     5
100
AcDbLine
 10
416.5854600584793
 20
286.0581281600248
 30
0.0
 11
416.5854600584793
 21
283.1652349412113
 31
0.0
  0
LINE
  5
3FA
330
1F
100
AcDbEntity
  8
OBRYS
 62
     5
100
AcDbLine
 10
419.8854600584793
 20
282.4581281600247
 30
0.0
 11
417.2925668396659
 21
282.4581281600247
 31
0.0
  0
ARC
  5
3FB
330
1F
100
AcDbEntity
  8
OBRYS
 62
     5
100
AcDbCircle
 10
417.2925668396659
 20
283.1652349412113
 30
0.0
 40
0.707106781186548
100
AcDbArc
 50
180.0
 51
270.0
  0
LINE
  5
3FC
330
1F
100
AcDbEntity
  8
OBRYS
 62
     5
100
AcDbLine
 10
431.1854600584794
 20
286.0581281600248
 30
0.0
 11
431.1854600584794
 21
283.1652349412113
 31
0.0
  0
LINE
  5
3FD
330
1F
100
AcDbEntity
  8
OBRYS
 62
     5
100
AcDbLine
 10
427.9024614782466
 20
282.4581281600247
 30
0.0
 11
430.4783532772929
 21
282.4581281600247
 31
0.0
  0
ARC
  5
3FE
330
1F
100
AcDbEntity
  8
OBRYS
 62
     5
100
AcDbCircle
 10
430.4783532772929
 20
283.1652349412113
 30
0.0
 40
0.7071067811865475
100
AcDbArc
 50
270.0
 51
0.0
  0
LINE
  5
3FF
330
1F
100
AcDbEntity
  8
OBRYS
 62
     5
100
AcDbLine
 10
418.8854600584793
 20
282.4581281600247
 30
0.0
 11
418.8854590850418
 21
279.4613221670493
 31
0.0
  0
LINE
  5
400
330
1F
100
AcDbEntity
  8
OBRYS
 62
     5
100
AcDbLine
 10
428.8854600584793
 20
282.4581281600247
 30
0.0
 11
428.8854600584793
 21
279.454175145508
 31
0.0
  0
ARC
  5
401
330
1F
100
AcDbEntity
  8
OBRYS
 62
     5
100
AcDbCircle
 10
427.345599250854
 20
279.4983473537712
 30
0.0
 40
1.540494235900705
100
AcDbArc
 50
271.0827138285975
 51
358.3568727553888
  0
ARC
  5
402
330
1F
100
AcDbEntity
  8
OBRYS
 62
     5
100
AcDbCircle
 10
420.3886678643867
 20
279.4613240051392
 30
0.0
 40
1.503208779346059
100
AcDbArc
 50
179.9347947880698
 51
269.7623167341424
  0
LINE
  5
403
330
1F
100
AcDbEntity
  8
OBRYS
 62
     5
100
AcDbLine
 10
414.8854600584793
 20
286.0581281600248
 30
0.0
 11
414.8854600584793
 21
368.0581281600247
 31
0.0
  0
LINE
  5
404
330
1F
100
AcDbEntity
  8
OBRYS
 62
     5
100
AcDbLine
 10
414.8854600584793
 20
368.0581281600247
 30
0.0
 11
432.8854600584793
 21
368.0581281600247
 31
0.0
  0
LINE
  5
409
330
1F
100
AcDbEntity
  8
OBRYS
 62
     5
100
AcDbLine
 10
414.8854600584793
 20
304.0581281600248
 30
0.0
 11
432.8854600584793
 21
304.0581281600248
 31
0.0
  0
LINE
  5
40A
330
1F
100
AcDbEntity
  8
OBRYS
 62
     5
100
AcDbLine
 10
415.1854600584794
 20
304.5581281600248
 30
0.0
 11
432.5854600584793
 21
304.5581281600248
 31
0.0
  0
LINE
  5
40B
330
1F
100
AcDbEntity
  8
OBRYS
 62
     5
100
AcDbLine
 10
415.1854600584794
 20
349.5581281600247
 30
0.0
 11
432.5854600584793
 21
349.5581281600247
 31
0.0
  0
LINE
  5
40C
330
1F
100
AcDbEntity
  8
OBRYS
 62
     5
100
AcDbLine
 10
414.8854600584793
 20
350.0581281600247
 30
0.0
 11
432.8854600584793
 21
350.0581281600247
 31
0.0
  0
LINE
  5
40E
330
1F
100
AcDbEntity
  8
OBRYS
 62
     5
100
AcDbLine
 10
422.1854600584794
 20
304.0581281600248
 30
0.0
 11
422.1854600584794
 21
302.5581281600248
 31
0.0
  0
LINE
  5
40F
330
1F
100
AcDbEntity
  8
OBRYS
 62
     5
100
AcDbLine
 10
422.1854600584794
 20
302.5581281600248
 30
0.0
 11
423.8854600584793
 21
302.5581281600248
 31
0.0
  0
LINE
  5
410
330
1F
100
AcDbEntity
  8
OBRYS
 62
     5
100
AcDbLine
 10
423.8854600584793
 20
302.5581281600248
 30
0.0
 11
423.8854600584793
 21
304.0581281600248
 31
0.0
  0
LINE
  5
411
330
1F
100
AcDbEntity
  8
OBRYS
 62
     5
100
AcDbLine
 10
421.3354600584793
 20
304.0581281600248
 30
0.0
 11
421.3354600584793
 21
301.5581281600248
 31
0.0
  0
LINE
  5
412
330
1F
100
AcDbEntity
  8
OBRYS
 62
     5
100
AcDbLine
 10
421.3354600584793
 20
301.5581281600248
 30
0.0
 11
424.7354600584794
 21
301.5581281600248
 31
0.0
  0
LINE
  5
413
330
1F
100
AcDbEntity
  8
OBRYS
 62
     5
100
AcDbLine
 10
424.7354600584794
 20
301.5581281600248
 30
0.0
 11
424.7354600584794
 21
304.0581281600248
 31
0.0
  0
LINE
  5
414
330
1F
100
AcDbEntity
  8
OBRYS
 62
     5
100
AcDbLine
 10
421.3354600584793
 20
301.5581281600248
 30
0.0
 11
422.1854600584794
 21
302.5581281600248
 31
0.0
  0
LINE
  5
415
330
1F
100
AcDbEntity
  8
OBRYS
 62
     5
100
AcDbLine
 10
423.8854600584793
 20
302.5581281600248
 30
0.0
 11
424.7354600584794
 21
301.5581281600248
 31
0.0
  0
LINE
  5
416
330
1F
100
AcDbEntity
  8
OBRYS
 62
     5
100
AcDbLine
 10
422.1854600584794
 20
350.0581281600247
 30
0.0
 11
422.1854600584794
 21
351.5581281600247
 31
0.0
  0
LINE
  5
417
330
1F
100
AcDbEntity
  8
OBRYS
 62
     5
100
AcDbLine
 10
422.1854600584794
 20
351.5581281600247
 30
0.0
 11
423.8854600584793
 21
351.5581281600247
 31
0.0
  0
LINE
  5
418
330
1F
100
AcDbEntity
  8
OBRYS
 62
     5
100
AcDbLine
 10
423.8854600584793
 20
351.5581281600247
 30
0.0
 11
423.8854600584793
 21
350.0581281600247
 31
0.0
  0
LINE
  5
419
330
1F
100
AcDbEntity
  8
OBRYS
 62
     5
100
AcDbLine
 10
421.3354600584793
 20
350.0581281600247
 30
0.0
 11
421.3354600584793
 21
352.5581281600247
 31
0.0
  0
LINE
  5
41A
330
1F
100
AcDbEntity
  8
OBRYS
 62
     5
100
AcDbLine
 10
421.3354600584793
 20
352.5581281600247
 30
0.0
 11
424.7354600584794
 21
352.5581281600247
 31
0.0
  0
LINE
  5
41B
330
1F
100
AcDbEntity
  8
OBRYS
 62
     5
100
AcDbLine
 10
424.7354600584794
 20
352.5581281600247
 30
0.0
 11
424.7354600584794
 21
350.0581281600247
 31
0.0
  0
LINE
  5
41C
330
1F
100
AcDbEntity
  8
OBRYS
 62
     5
100
AcDbLine
 10
421.3354600584793
 20
352.5581281600247
 30
0.0
 11
422.1854600584794
 21
351.5581281600247
 31
0.0
  0
LINE
  5
41D
330
1F
100
AcDbEntity
  8
OBRYS
 62
     5
100
AcDbLine
 10
423.8854600584793
 20
351.5581281600247
 30
0.0
 11
424.7354600584794
 21
352.5581281600247
 31
0.0
  0
LINE
  5
41F
330
1F
100
AcDbEntity
  8
OBRYS
 62
     5
100
AcDbLine
 10
414.8854600584793
 20
289.6581281600247
 30
0.0
 11
432.8854600584793
 21
289.6581281600247
 31
0.0
  0
LINE
  5
420
330
1F
100
AcDbEntity
  8
OBRYS
 62
     5
100
AcDbLine
 10
414.8854600584793
 20
364.4581281600247
 30
0.0
 11
432.8854600584793
 21
364.4581281600247
 31
0.0
  0
CIRCLE
  5
434
330
1F
100
AcDbEntity
  8
OBRYS
 62
     5
100
AcDbCircle
 10
423.8854600584793
 20
359.3081281600247
 30
0.0
 40
3.2
  0
LINE
  5
435
330
1F
100
AcDbEntity
  8
OBRYS
 62
     5
100
AcDbLine
 10
423.2354600584794
 20
356.1748391532461
 30
0.0
 11
423.2354600584794
 21
357.9510213788382
 31
0.0
  0
LINE
  5
436
330
1F
100
AcDbEntity
  8
OBRYS
 62
     5
100
AcDbLine
 10
423.2354600584794
 20
360.6652349412113
 30
0.0
 11
423.2354600584794
 21
362.4414171668034
 31
0.0
  0
LINE
  5
437
330
1F
100
AcDbEntity
  8
OBRYS
 62
     5
100
AcDbLine
 10
424.5354600584793
 20
356.1748391532461
 30
0.0
 11
424.5354600584793
 21
357.9510213788382
 31
0.0
  0
LINE
  5
438
330
1F
100
AcDbEntity
  8
OBRYS
 62
     5
100
AcDbLine
 10
424.5354600584793
 20
360.6652349412113
 30
0.0
 11
424.5354600584793
 21
362.4414171668034
 31
0.0
  0
ARC
  5
439
330
1F
100
AcDbEntity
  8
OBRYS
 62
     5
100
AcDbCircle
 10
422.5283532772928
 20
360.6652349412113
 30
0.0
 40
0.707106781186548
100
AcDbArc
 50
270.0
 51
0.0
  0
ARC
  5
43A
330
1F
100
AcDbEntity
  8
OBRYS
 62
     5
100
AcDbCircle
 10
425.2425668396659
 20
360.6652349412113
 30
0.0
 40
0.707106781186548
100
AcDbArc
 50
180.0
 51
270.0
  0
ARC
  5
43B
330
1F
100
AcDbEntity
  8
OBRYS
 62
     5
100
AcDbCircle
 10
425.2425668396659
 20
357.9510213788382
 30
0.0
 40
0.707106781186548
100
AcDbArc
 50
90.0
 51
180.0
  0
ARC
  5
43C
330
1F
100
AcDbEntity
  8
OBRYS
 62
     5
100
AcDbCircle
 10
422.5283532772928
 20
357.9510213788382
 30
0.0
 40
0.707106781186548
100
AcDbArc
 50
0.0
 51
90.0
  0
LINE
  5
43D
330
1F
100
AcDbEntity
  8
OBRYS
 62
     5
100
AcDbLine
 10
421.6354600584793
 20
358.6581281600247
 30
0.0
 11
421.6354600584793
 21
359.9581281600247
 31
0.0
  0
LINE
  5
43E
330
1F
100
AcDbEntity
  8
OBRYS
 62
     5
100
AcDbLine
 10
426.1354600584793
 20
358.6581281600247
 30
0.0
 11
426.1354600584793
 21
359.9581281600247
 31
0.0
  0
LINE
  5
43F
330
1F
100
AcDbEntity
  8
OBRYS
 62
     5
100
AcDbLine
 10
425.2425668396659
 20
358.6581281600247
 30
0.0
 11
426.1306579524619
 21
358.6581281600247
 31
0.0
  0
LINE
  5
440
330
1F
100
AcDbEntity
  8
OBRYS
 62
     5
100
AcDbLine
 10
425.2425668396659
 20
359.9581281600247
 30
0.0
 11
426.1306579524619
 21
359.9581281600247
 31
0.0
  0
LINE
  5
441
330
1F
100
AcDbEntity
  8
OBRYS
 62
     5
100
AcDbLine
 10
421.6402621644967
 20
359.9581281600247
 30
0.0
 11
422.5283532772928
 21
359.9581281600247
 31
0.0
  0
LINE
  5
442
330
1F
100
AcDbEntity
  8
OBRYS
 62
     5
100
AcDbLine
 10
424.7425668396659
 20
360.1652349412113
 30
0.0
 11
425.2425668396659
 21
360.6652349412113
 31
0.0
  0
LINE
  5
443
330
1F
100
AcDbEntity
  8
OBRYS
 62
     5
100
AcDbLine
 10
421.6402621644967
 20
358.6581281600247
 30
0.0
 11
422.5283532772928
 21
358.6581281600247
 31
0.0
  0
LINE
  5
444
330
1F
100
AcDbEntity
  8
OBRYS
 62
     5
100
AcDbLine
 10
424.7425668396659
 20
358.4510213788382
 30
0.0
 11
425.2425668396659
 21
357.9510213788382
 31
0.0
  0
LINE
  5
445
330
1F
100
AcDbEntity
  8
OBRYS
 62
     5
100
AcDbLine
 10
423.0283532772928
 20
360.1652349412113
 30
0.0
 11
422.5283532772928
 21
360.6652349412113
 31
0.0
  0
LINE
  5
446
330
1F
100
AcDbEntity
  8
OBRYS
 62
     5
100
AcDbLine
 10
423.0283532772928
 20
358.4510213788382
 30
0.0
 11
422.5283532772928
 21
357.9510213788382
 31
0.0
  0
CIRCLE
  5
447
330
1F
100
AcDbEntity
  8
OBRYS
 62
     5
100
AcDbCircle
 10
423.8854600584793
 20
359.3081281600247
 30
0.0
 40
0.7
  0
LINE
  5
44F
330
1F
100
AcDbEntity
  8
OBRYS
 62
     5
100
AcDbLine
 10
414.8854600584793
 20
367.5581281600247
 30
0.0
 11
432.8854600584793
 21
367.5581281600247
 31
0.0
  0
LINE
  5
4E0
330
1F
100
AcDbEntity
  8
OBRYS
 62
     5
100
AcDbLine
 10
318.0640480785463
 20
289.842089948888
 30
0.0
 11
318.491420777271
 21
289.5937429796594
 31
0.0
  0
LINE
  5
4E1
330
1F
100
AcDbEntity
  8
OBRYS
 62
     5
100
AcDbLine
 10
322.9713270165881
 20
286.9928972917336
 30
0.0
 11
323.4039274168804
 21
286.7417099625317
 31
0.0
  0
LINE
  5
4E2
330
1F
100
AcDbEntity
  8
OBRYS
 62
     5
100
AcDbLine
 10
318.0640480785463
 20
289.842089948888
 30
0.0
 11
318.6164818739232
 21
290.7935037075925
 31
0.0
  0
LINE
  5
4E3
330
1F
100
AcDbEntity
  8
OBRYS
 62
     5
100
AcDbLine
 10
323.4039274168804
 20
286.7417099625317
 30
0.0
 11
323.9562764860055
 21
287.6929778038028
 31
0.0
  0
LINE
  5
4E4
330
1F
100
AcDbEntity
  8
OBRYS
 62
     5
100
AcDbLine
 10
322.7202592578949
 20
286.5605028184286
 30
0.0
 11
322.9713270165881
 21
286.9928972917336
 31
0.0
  0
LINE
  5
4E5
330
1F
100
AcDbEntity
  8
OBRYS
 62
     5
100
AcDbLine
 10
318.2402054559287
 20
289.1614342215676
 30
0.0
 11
318.4912731999988
 21
289.5938286696884
 31
0.0
  0
LINE
  5
4E6
330
1F
100
AcDbEntity
  8
OBRYS
 62
     5
100
AcDbLine
 10
318.6164818739232
 20
290.7935037075925
 30
0.0
 11
323.9562764860055
 21
287.6929778038028
 31
0.0
  0
ELLIPSE
  5
4E7
330
1F
100
AcDbEntity
  8
OBRYS
 62
     5
100
AcDbEllipse
 10
321.2863791799643
 20
289.2432407556977
 30
0.0
 11
-1.039943320270123
 21
0.6038380569310341
 31
0.0
210
0.0
220
0.0
230
1.0
 40
0.6385440653482459
 41
6.283185307179586
 42
9.42477796076938
  0
LINE
  5
4E8
330
1F
100
AcDbEntity
  8
OBRYS
 62
     5
100
AcDbLine
 10
319.4864434630887
 20
290.2883647203352
 30
0.0
 11
318.9842116084037
 21
289.4232801097473
 31
0.0
  0
LINE
  5
4E9
330
1F
100
AcDbEntity
  8
OBRYS
 62
     5
100
AcDbLine
 10
323.0875712238975
 20
288.1973873108333
 30
0.0
 11
322.5854755437882
 21
287.3325372583059
 31
0.0
  0
LINE
  5
4EA
330
1F
100
AcDbEntity
  8
OBRYS
 62
     5
100
AcDbLine
 10
322.5854755437882
 20
287.3325372583059
 30
0.0
 11
318.9842116084037
 21
289.4232801097473
 31
0.0
  0
LINE
  5
4EB
330
1F
100
AcDbEntity
  8
OBRYS
 62
     5
100
AcDbLine
 10
318.0640480785463
 20
364.2741663711615
 30
0.0
 11
318.491420777271
 21
364.52251334039
 31
0.0
  0
LINE
  5
4EC
330
1F
100
AcDbEntity
  8
OBRYS
 62
     5
100
AcDbLine
 10
322.9713270165881
 20
367.1233590283158
 30
0.0
 11
323.4039274168804
 21
367.3745463575177
 31
0.0
  0
LINE
  5
4ED
330
1F
100
AcDbEntity
  8
OBRYS
 62
     5
100
AcDbLine
 10
318.0640480785463
 20
364.2741663711615
 30
0.0
 11
318.6164818739232
 21
363.3227526124569
 31
0.0
  0
LINE
  5
4EE
330
1F
100
AcDbEntity
  8
OBRYS
 62
     5
100
AcDbLine
 10
323.4039274168804
 20
367.3745463575177
 30
0.0
 11
323.9562764860055
 21
366.4232785162466
 31
0.0
  0
LINE
  5
4EF
330
1F
100
AcDbEntity
  8
OBRYS
 62
     5
100
AcDbLine
 10
322.7202592578949
 20
367.5557535016209
 30
0.0
 11
322.9713270165881
 21
367.1233590283158
 31
0.0
  0
LINE
  5
4F0
330
1F
100
AcDbEntity
  8
OBRYS
 62
     5
100
AcDbLine
 10
318.2402054559287
 20
364.9548220984818
 30
0.0
 11
318.4912731999988
 21
364.522427650361
 31
0.0
  0
LINE
  5
4F1
330
1F
100
AcDbEntity
  8
OBRYS
 62
     5
100
AcDbLine
 10
318.6164818739232
 20
363.3227526124569
 30
0.0
 11
323.9562764860055
 21
366.4232785162466
 31
0.0
  0
ELLIPSE
  5
4F2
330
1F
100
AcDbEntity
  8
OBRYS
 62
     5
100
AcDbEllipse
 10
321.2863791799643
 20
364.8730155643518
 30
0.0
 11
-1.039943320270123
 21
-0.603838056931034
 31
0.0
210
0.0
220
0.0
230
-1.0
 40
0.6385440653482459
 41
6.283185307179586
 42
9.42477796076938
  0
LINE
  5
4F3
330
1F
100
AcDbEntity
  8
OBRYS
 62
     5
100
AcDbLine
 10
319.4864434630887
 20
363.8278915997143
 30
0.0
 11
318.9842116084037
 21
364.6929762103022
 31
0.0
  0
LINE
  5
4F4
330
1F
100
AcDbEntity
  8
OBRYS
 62
     5
100
AcDbLine
 10
323.0875712238975
 20
365.9188690092162
 30
0.0
 11
322.5854755437882
 21
366.7837190617435
 31
0.0
  0
LINE
  5
4F5
330
1F
100
AcDbEntity
  8
OBRYS
 62
     5
100
AcDbLine
 10
322.5854755437882
 20
366.7837190617435
 30
0.0
 11
318.9842116084037
 21
364.6929762103022
 31
0.0
  0
LINE
  5
4F6
330
1F
100
AcDbEntity
  8
OBRYS
 62
     5
100
AcDbLine
 10
417.8854600584793
 20
332.1581281600247
 30
0.0
 11
417.8854600584793
 21
337.8581281600247
 31
0.0
  0
LINE
  5
4F7
330
1F
100
AcDbEntity
  8
OBRYS
 62
     5
100
AcDbLine
 10
417.8854600584793
 20
337.8581281600247
 30
0.0
 11
429.8854600584793
 21
337.8581281600247
 31
0.0
  0
LINE
  5
4F8
330
1F
100
AcDbEntity
  8
OBRYS
 62
     5
100
AcDbLine
 10
429.8854600584793
 20
337.8581281600247
 30
0.0
 11
429.8854600584793
 21
332.1581281600247
 31
0.0
  0
LINE
  5
4F9
330
1F
100
AcDbEntity
  8
OBRYS
 62
     5
100
AcDbLine
 10
429.8854600584793
 20
332.1581281600247
 30
0.0
 11
417.8854600584793
 21
332.1581281600247
 31
0.0
  0
LINE
  5
516
330
1F
100
AcDbEntity
  8
OBRYS
 62
     5
100
AcDbLine
 10
361.3854600584793
 20
320.9727194678825
 30
0.0
 11
361.3854600584793
 21
321.4301115354988
 31
0.0
  0
LINE
  5
517
330
1F
100
AcDbEntity
  8
OBRYS
 62
     5
100
AcDbLine
 10
343.3854600584793
 20
320.9727194678825
 30
0.0
 11
343.3854600584793
 21
321.4301115354988
 31
0.0
  0
DIMENSION
  5
55F
330
1F
100
AcDbEntity
  8
KOTY
 62
     1
100
AcDbDimension
  2
*D2
 10
361.3854600584793
 20
316.5773351464614
 30
0.0
 11
352.1963934905782
 21
316.5773351464614
 31
0.0
 70
   160
  3
STANDARD
100
AcDbAlignedDimension
 13
343.3854600584793
 23
316.5773351464614
 33
0.0
 14
361.3854600584793
 24
316.5773351464614
 34
0.0
100
AcDbRotatedDimension
1001
ACAD
1000
DSTYLE
1002
{
1070
     7
1000

1070
     6
1000

1070
     5
1000

1070
   278
1070
    44
1070
   147
1040
1.0
1070
   173
1070
     1
1070
    77
1070
     1
1070
   271
1070
     0
1070
    41
1040
4.0
1070
   140
1040
4.0
1002
}
  0
DIMENSION
  5
57F
330
1F
100
AcDbEntity
  8
KOTY
 62
     1
100
AcDbDimension
  2
*D4
 10
367.3854600584793
 20
249.4994027986499
 30
0.0
 11
330.5834302231116
 21
249.4994027986499
 31
0.0
 70
   160
  3
STANDARD
100
AcDbAlignedDimension
 13
294.8854600584793
 23
304.5581281600248
 33
0.0
 14
367.3854600584793
 24
277.9581281600247
 34
0.0
100
AcDbRotatedDimension
1001
ACAD
1000
DSTYLE
1002
{
1070
     7
1000

1070
     6
1000

1070
     5
1000

1070
   278
1070
    44
1070
   147
1040
1.0
1070
   173
1070
     1
1070
    77
1070
     1
1070
   271
1070
     1
1070
    41
1040
4.0
1070
   140
1040
4.0
1002
}
  0
DIMENSION
  5
5AF
330
1F
100
AcDbEntity
  8
KOTY
 62
     1
100
AcDbDimension
  2
*D5
 10
284.8854600584793
 20
349.5581281600247
 30
0.0
 11
284.8854600584793
 21
323.9581281600247
 31
0.0
 70
   160
  3
STANDARD
100
AcDbAlignedDimension
 13
294.8854600584793
 23
304.5581281600248
 33
0.0
 14
294.8854600584793
 24
349.5581281600247
 34
0.0
 50
90.0
100
AcDbRotatedDimension
1001
ACAD
1000
DSTYLE
1002
{
1070
     7
1000

1070
     6
1000

1070
     5
1000

1070
    73
1070
     0
1070
   278
1070
    44
1070
   147
1040
1.0
1070
   173
1070
     1
1070
    77
1070
     2
1070
   271
1070
     0
1070
    41
1040
4.0
1070
   140
1040
4.0
1002
}
  0
DIMENSION
  5
5BF
330
1F
100
AcDbEntity
  8
KOTY
 62
     1
100
AcDbDimension
  2
*D6
 10
276.0854903178157
 20
368.0581281600247
 30
0.0
 11
276.0854903178157
 21
323.9581281600247
 31
0.0
 70
   160
  3
STANDARD
100
AcDbAlignedDimension
 13
323.5854600584793
 23
286.0581281600248
 33
0.0
 14
323.5854600584793
 24
368.0581281600247
 34
0.0
 50
90.0
100
AcDbRotatedDimension
1001
ACAD
1000
DSTYLE
1002
{
1070
     7
1000

1070
     6
1000

1070
     5
1000

1070
    73
1070
     0
1070
   278
1070
    44
1070
   147
1040
1.0
1070
   173
1070
     1
1070
   280
1070
     0
1070
    77
1070
     2
1070
   271
1070
     0
1070
    41
1040
4.0
1070
   140
1040
4.0
1002
}
  0
DIMENSION
  5
5DA
330
1F
100
AcDbEntity
  8
KOTY
 62
     1
100
AcDbDimension
  2
*D7
 10
317.3854600584793
 20
267.9581281600247
 30
0.0
 11
339.3854600584793
 21
267.9581281600247
 31
0.0
 70
   160
  3
STANDARD
100
AcDbAlignedDimension
 13
361.3854600584793
 23
308.4581281600247
 33
0.0
 14
317.3854600584793
 24
289.6581281600247
 34
0.0
100
AcDbRotatedDimension
1001
ACAD
1000
DSTYLE
1002
{
1070
     7
1000

1070
     6
1000

1070
     5
1000

1070
   278
1070
    44
1070
   147
1040
1.0
1070
    77
1070
     1
1070
   173
1070
     1
1070
   271
1070
     0
1070
   140
1040
4.0
1070
    41
1040
4.0
1002
}
  0
DIMENSION
  5
5EA
330
1F
100
AcDbEntity
  8
KOTY
 62
     1
100
AcDbDimension
  2
*D8
 10
361.3854600584793
 20
257.6728019241259
 30
0.0
 11
328.1354600584793
 21
257.6728019241259
 31
0.0
 70
   160
  3
STANDARD
100
AcDbAlignedDimension
 13
294.8854600584793
 23
304.5581281600248
 33
0.0
 14
361.3854600584793
 24
308.3956281600247
 34
0.0
100
AcDbRotatedDimension
1001
ACAD
1000
DSTYLE
1002
{
1070
     7
1000

1070
     6
1000

1070
     5
1000

1070
   278
1070
    44
1070
   147
1040
1.0
1070
    77
1070
     1
1070
   173
1070
     1
1070
   271
1070
     1
1070
   140
1040
4.0
1070
    41
1040
4.0
1002
}
  0
LINE
  5
63F
330
1F
100
AcDbEntity
  8
OBRYS
 62
     5
100
AcDbLine
 10
423.2354600584794
 20
357.0629281600247
 30
0.0
 11
424.5354600584793
 21
357.0629281600247
 31
0.0
  0
LINE
  5
640
330
1F
100
AcDbEntity
  8
OBRYS
 62
     5
100
AcDbLine
 10
423.2354600584794
 20
361.5533281600248
 30
0.0
 11
424.5354600584793
 21
361.5533281600248
 31
0.0
  0
LINE
  5
642
330
1F
100
AcDbEntity
  8
OBRYS
 62
     5
100
AcDbLine
 10
414.8854600584793
 20
364.9581281600247
 30
0.0
 11
432.8854600584793
 21
364.9581281600247
 31
0.0
  0
LINE
  5
868
330
1F
100
AcDbEntity
  8
OBRYS
 62
     5
100
AcDbLine
 10
432.8854600584793
 20
286.0581281600248
 30
0.0
 11
450.8854600584793
 21
286.0581281600248
 31
0.0
  0
LINE
  5
869
330
1F
100
AcDbEntity
  8
OBRYS
 62
     5
100
AcDbLine
 10
436.0354600584793
 20
284.1581281600247
 30
0.0
 11
447.7354600584794
 21
284.1581281600247
 31
0.0
  0
LINE
  5
86A
330
1F
100
AcDbEntity
  8
OBRYS
 62
     5
100
AcDbLine
 10
436.0354600584793
 20
284.1581281600247
 30
0.0
 11
434.8354600584793
 21
286.0581281600248
 31
0.0
  0
LINE
  5
86B
330
1F
100
AcDbEntity
  8
OBRYS
 62
     5
100
AcDbLine
 10
447.7354600584794
 20
284.1581281600247
 30
0.0
 11
448.9354600584794
 21
286.0581281600248
 31
0.0
  0
LINE
  5
87B
330
1F
100
AcDbEntity
  8
OBRYS
 62
     5
100
AcDbLine
 10
432.8854600584793
 20
368.0581281600247
 30
0.0
 11
450.8854600584793
 21
368.0581281600247
 31
0.0
  0
LINE
  5
880
330
1F
100
AcDbEntity
  8
OBRYS
 62
     5
100
AcDbLine
 10
432.8854600584793
 20
304.0581281600248
 30
0.0
 11
450.8854600584793
 21
304.0581281600248
 31
0.0
  0
LINE
  5
881
330
1F
100
AcDbEntity
  8
OBRYS
 62
     5
100
AcDbLine
 10
433.1854600584794
 20
304.5581281600248
 30
0.0
 11
450.5854600584793
 21
304.5581281600248
 31
0.0
  0
LINE
  5
882
330
1F
100
AcDbEntity
  8
OBRYS
 62
     5
100
AcDbLine
 10
433.1854600584794
 20
349.5581281600247
 30
0.0
 11
450.5854600584793
 21
349.5581281600247
 31
0.0
  0
LINE
  5
883
330
1F
100
AcDbEntity
  8
OBRYS
 62
     5
100
AcDbLine
 10
432.8854600584793
 20
350.0581281600247
 30
0.0
 11
450.8854600584793
 21
350.0581281600247
 31
0.0
  0
LINE
  5
884
330
1F
100
AcDbEntity
  8
OBRYS
 62
     5
100
AcDbLine
 10
440.1854600584794
 20
304.0581281600248
 30
0.0
 11
440.1854600584794
 21
302.5581281600248
 31
0.0
  0
LINE
  5
885
330
1F
100
AcDbEntity
  8
OBRYS
 62
     5
100
AcDbLine
 10
440.1854600584794
 20
302.5581281600248
 30
0.0
 11
441.8854600584793
 21
302.5581281600248
 31
0.0
  0
LINE
  5
886
330
1F
100
AcDbEntity
  8
OBRYS
 62
     5
100
AcDbLine
 10
441.8854600584793
 20
302.5581281600248
 30
0.0
 11
441.8854600584793
 21
304.0581281600248
 31
0.0
  0
LINE
  5
887
330
1F
100
AcDbEntity
  8
OBRYS
 62
     5
100
AcDbLine
 10
439.3354600584793
 20
304.0581281600248
 30
0.0
 11
439.3354600584793
 21
301.5581281600248
 31
0.0
  0
LINE
  5
888
330
1F
100
AcDbEntity
  8
OBRYS
 62
     5
100
AcDbLine
 10
439.3354600584793
 20
301.5581281600248
 30
0.0
 11
442.7354600584794
 21
301.5581281600248
 31
0.0
  0
LINE
  5
889
330
1F
100
AcDbEntity
  8
OBRYS
 62
     5
100
AcDbLine
 10
442.7354600584794
 20
301.5581281600248
 30
0.0
 11
442.7354600584794
 21
304.0581281600248
 31
0.0
  0
LINE
  5
88A
330
1F
100
AcDbEntity
  8
OBRYS
 62
     5
100
AcDbLine
 10
439.3354600584793
 20
301.5581281600248
 30
0.0
 11
440.1854600584794
 21
302.5581281600248
 31
0.0
  0
LINE
  5
88B
330
1F
100
AcDbEntity
  8
OBRYS
 62
     5
100
AcDbLine
 10
441.8854600584793
 20
302.5581281600248
 30
0.0
 11
442.7354600584794
 21
301.5581281600248
 31
0.0
  0
LINE
  5
88C
330
1F
100
AcDbEntity
  8
OBRYS
 62
     5
100
AcDbLine
 10
440.1854600584794
 20
350.0581281600247
 30
0.0
 11
440.1854600584794
 21
351.5581281600247
 31
0.0
  0
LINE
  5
88D
330
1F
100
AcDbEntity
  8
OBRYS
 62
     5
100
AcDbLine
 10
440.1854600584794
 20
351.5581281600247
 30
0.0
 11
441.8854600584793
 21
351.5581281600247
 31
0.0
  0
LINE
  5
88E
330
1F
100
AcDbEntity
  8
OBRYS
 62
     5
100
AcDbLine
 10
441.8854600584793
 20
351.5581281600247
 30
0.0
 11
441.8854600584793
 21
350.0581281600247
 31
0.0
  0
LINE
  5
88F
330
1F
100
AcDbEntity
  8
OBRYS
 62
     5
100
AcDbLine
 10
439.3354600584793
 20
350.0581281600247
 30
0.0
 11
439.3354600584793
 21
352.5581281600247
 31
0.0
  0
LINE
  5
890
330
1F
100
AcDbEntity
  8
OBRYS
 62
     5
100
AcDbLine
 10
439.3354600584793
 20
352.5581281600247
 30
0.0
 11
442.7354600584794
 21
352.5581281600247
 31
0.0
  0
LINE
  5
891
330
1F
100
AcDbEntity
  8
OBRYS
 62
     5
100
AcDbLine
 10
442.7354600584794
 20
352.5581281600247
 30
0.0
 11
442.7354600584794
 21
350.0581281600247
 31
0.0
  0
LINE
  5
892
330
1F
100
AcDbEntity
  8
OBRYS
 62
     5
100
AcDbLine
 10
439.3354600584793
 20
352.5581281600247
 30
0.0
 11
440.1854600584794
 21
351.5581281600247
 31
0.0
  0
LINE
  5
893
330
1F
100
AcDbEntity
  8
OBRYS
 62
     5
100
AcDbLine
 10
441.8854600584793
 20
351.5581281600247
 30
0.0
 11
442.7354600584794
 21
352.5581281600247
 31
0.0
  0
CIRCLE
  5
894
330
1F
100
AcDbEntity
  8
OBRYS
 62
     5
100
AcDbCircle
 10
441.8854600584793
 20
294.8081281600248
 30
0.0
 40
3.2
  0
LINE
  5
895
330
1F
100
AcDbEntity
  8
OBRYS
 62
     5
100
AcDbLine
 10
432.8854600584793
 20
289.6581281600247
 30
0.0
 11
450.8854600584793
 21
289.6581281600247
 31
0.0
  0
LINE
  5
896
330
1F
100
AcDbEntity
  8
OBRYS
 62
     5
100
AcDbLine
 10
432.8854600584793
 20
364.4581281600247
 30
0.0
 11
450.8854600584793
 21
364.4581281600247
 31
0.0
  0
LINE
  5
897
330
1F
100
AcDbEntity
  8
OBRYS
 62
     5
100
AcDbLine
 10
441.2354600584794
 20
296.1652349412113
 30
0.0
 11
441.2354600584794
 21
297.9414171668034
 31
0.0
  0
LINE
  5
898
330
1F
100
AcDbEntity
  8
OBRYS
 62
     5
100
AcDbLine
 10
441.2354600584794
 20
291.6748391532461
 30
0.0
 11
441.2354600584794
 21
293.4510213788382
 31
0.0
  0
LINE
  5
899
330
1F
100
AcDbEntity
  8
OBRYS
 62
     5
100
AcDbLine
 10
442.5354600584793
 20
296.1652349412113
 30
0.0
 11
442.5354600584793
 21
297.9414171668034
 31
0.0
  0
LINE
  5
89A
330
1F
100
AcDbEntity
  8
OBRYS
 62
     5
100
AcDbLine
 10
442.5354600584793
 20
291.6748391532461
 30
0.0
 11
442.5354600584793
 21
293.4510213788382
 31
0.0
  0
ARC
  5
89B
330
1F
100
AcDbEntity
  8
OBRYS
 62
     5
100
AcDbCircle
 10
440.5283532772928
 20
296.1652349412113
 30
0.0
 40
0.707106781186548
100
AcDbArc
 50
270.0
 51
0.0
  0
ARC
  5
89C
330
1F
100
AcDbEntity
  8
OBRYS
 62
     5
100
AcDbCircle
 10
443.2425668396659
 20
296.1652349412113
 30
0.0
 40
0.707106781186548
100
AcDbArc
 50
180.0
 51
270.0
  0
ARC
  5
89D
330
1F
100
AcDbEntity
  8
OBRYS
 62
     5
100
AcDbCircle
 10
443.2425668396659
 20
293.4510213788382
 30
0.0
 40
0.707106781186548
100
AcDbArc
 50
90.0
 51
180.0
  0
ARC
  5
89E
330
1F
100
AcDbEntity
  8
OBRYS
 62
     5
100
AcDbCircle
 10
440.5283532772928
 20
293.4510213788382
 30
0.0
 40
0.707106781186548
100
AcDbArc
 50
0.0
 51
90.0
  0
LINE
  5
89F
330
1F
100
AcDbEntity
  8
OBRYS
 62
     5
100
AcDbLine
 10
439.6354600584793
 20
294.1581281600247
 30
0.0
 11
439.6354600584793
 21
295.4581281600247
 31
0.0
  0
LINE
  5
8A0
330
1F
100
AcDbEntity
  8
OBRYS
 62
     5
100
AcDbLine
 10
444.1354600584793
 20
294.1581281600247
 30
0.0
 11
444.1354600584793
 21
295.4581281600247
 31
0.0
  0
LINE
  5
8A1
330
1F
100
AcDbEntity
  8
OBRYS
 62
     5
100
AcDbLine
 10
443.2425668396659
 20
294.1581281600247
 30
0.0
 11
444.1306579524619
 21
294.1581281600247
 31
0.0
  0
LINE
  5
8A2
330
1F
100
AcDbEntity
  8
OBRYS
 62
     5
100
AcDbLine
 10
443.2425668396659
 20
295.4581281600247
 30
0.0
 11
444.1306579524619
 21
295.4581281600247
 31
0.0
  0
LINE
  5
8A3
330
1F
100
AcDbEntity
  8
OBRYS
 62
     5
100
AcDbLine
 10
439.6402621644967
 20
295.4581281600247
 30
0.0
 11
440.5283532772928
 21
295.4581281600247
 31
0.0
  0
LINE
  5
8A4
330
1F
100
AcDbEntity
  8
OBRYS
 62
     5
100
AcDbLine
 10
442.7425668396659
 20
295.6652349412113
 30
0.0
 11
443.2425668396659
 21
296.1652349412113
 31
0.0
  0
LINE
  5
8A5
330
1F
100
AcDbEntity
  8
OBRYS
 62
     5
100
AcDbLine
 10
439.6402621644967
 20
294.1581281600247
 30
0.0
 11
440.5283532772928
 21
294.1581281600247
 31
0.0
  0
LINE
  5
8A6
330
1F
100
AcDbEntity
  8
OBRYS
 62
     5
100
AcDbLine
 10
442.7425668396659
 20
293.9510213788382
 30
0.0
 11
443.2425668396659
 21
293.4510213788382
 31
0.0
  0
LINE
  5
8A7
330
1F
100
AcDbEntity
  8
OBRYS
 62
     5
100
AcDbLine
 10
441.0283532772928
 20
295.6652349412113
 30
0.0
 11
440.5283532772928
 21
296.1652349412113
 31
0.0
  0
LINE
  5
8A8
330
1F
100
AcDbEntity
  8
OBRYS
 62
     5
100
AcDbLine
 10
441.0283532772928
 20
293.9510213788382
 30
0.0
 11
440.5283532772928
 21
293.4510213788382
 31
0.0
  0
CIRCLE
  5
8A9
330
1F
100
AcDbEntity
  8
OBRYS
 62
     5
100
AcDbCircle
 10
441.8854600584793
 20
294.8081281600248
 30
0.0
 40
0.7
  0
CIRCLE
  5
8AA
330
1F
100
AcDbEntity
  8
OBRYS
 62
     5
100
AcDbCircle
 10
441.8854600584793
 20
359.3081281600247
 30
0.0
 40
3.2
  0
LINE
  5
8AB
330
1F
100
AcDbEntity
  8
OBRYS
 62
     5
100
AcDbLine
 10
441.2354600584794
 20
356.1748391532461
 30
0.0
 11
441.2354600584794
 21
357.9510213788382
 31
0.0
  0
LINE
  5
8AC
330
1F
100
AcDbEntity
  8
OBRYS
 62
     5
100
AcDbLine
 10
441.2354600584794
 20
360.6652349412113
 30
0.0
 11
441.2354600584794
 21
362.4414171668034
 31
0.0
  0
LINE
  5
8AD
330
1F
100
AcDbEntity
  8
OBRYS
 62
     5
100
AcDbLine
 10
442.5354600584793
 20
356.1748391532461
 30
0.0
 11
442.5354600584793
 21
357.9510213788382
 31
0.0
  0
LINE
  5
8AE
330
1F
100
AcDbEntity
  8
OBRYS
 62
     5
100
AcDbLine
 10
442.5354600584793
 20
360.6652349412113
 30
0.0
 11
442.5354600584793
 21
362.4414171668034
 31
0.0
  0
ARC
  5
8AF
330
1F
100
AcDbEntity
  8
OBRYS
 62
     5
100
AcDbCircle
 10
440.5283532772928
 20
360.6652349412113
 30
0.0
 40
0.707106781186548
100
AcDbArc
 50
270.0
 51
0.0
  0
ARC
  5
8B0
330
1F
100
AcDbEntity
  8
OBRYS
 62
     5
100
AcDbCircle
 10
443.2425668396659
 20
360.6652349412113
 30
0.0
 40
0.707106781186548
100
AcDbArc
 50
180.0
 51
270.0
  0
ARC
  5
8B1
330
1F
100
AcDbEntity
  8
OBRYS
 62
     5
100
AcDbCircle
 10
443.2425668396659
 20
357.9510213788382
 30
0.0
 40
0.707106781186548
100
AcDbArc
 50
90.0
 51
180.0
  0
ARC
  5
8B2
330
1F
100
AcDbEntity
  8
OBRYS
 62
     5
100
AcDbCircle
 10
440.5283532772928
 20
357.9510213788382
 30
0.0
 40
0.707106781186548
100
AcDbArc
 50
0.0
 51
90.0
  0
LINE
  5
8B3
330
1F
100
AcDbEntity
  8
OBRYS
 62
     5
100
AcDbLine
 10
439.6354600584793
 20
358.6581281600247
 30
0.0
 11
439.6354600584793
 21
359.9581281600247
 31
0.0
  0
LINE
  5
8B4
330
1F
100
AcDbEntity
  8
OBRYS
 62
     5
100
AcDbLine
 10
444.1354600584793
 20
358.6581281600247
 30
0.0
 11
444.1354600584793
 21
359.9581281600247
 31
0.0
  0
LINE
  5
8B5
330
1F
100
AcDbEntity
  8
OBRYS
 62
     5
100
AcDbLine
 10
443.2425668396659
 20
358.6581281600247
 30
0.0
 11
444.1306579524619
 21
358.6581281600247
 31
0.0
  0
LINE
  5
8B6
330
1F
100
AcDbEntity
  8
OBRYS
 62
     5
100
AcDbLine
 10
443.2425668396659
 20
359.9581281600247
 30
0.0
 11
444.1306579524619
 21
359.9581281600247
 31
0.0
  0
LINE
  5
8B7
330
1F
100
AcDbEntity
  8
OBRYS
 62
     5
100
AcDbLine
 10
439.6402621644967
 20
359.9581281600247
 30
0.0
 11
440.5283532772928
 21
359.9581281600247
 31
0.0
  0
LINE
  5
8B8
330
1F
100
AcDbEntity
  8
OBRYS
 62
     5
100
AcDbLine
 10
442.7425668396659
 20
360.1652349412113
 30
0.0
 11
443.2425668396659
 21
360.6652349412113
 31
0.0
  0
LINE
  5
8B9
330
1F
100
AcDbEntity
  8
OBRYS
 62
     5
100
AcDbLine
 10
439.6402621644967
 20
358.6581281600247
 30
0.0
 11
440.5283532772928
 21
358.6581281600247
 31
0.0
  0
LINE
  5
8BA
330
1F
100
AcDbEntity
  8
OBRYS
 62
     5
100
AcDbLine
 10
442.7425668396659
 20
358.4510213788382
 30
0.0
 11
443.2425668396659
 21
357.9510213788382
 31
0.0
  0
LINE
  5
8BB
330
1F
100
AcDbEntity
  8
OBRYS
 62
     5
100
AcDbLine
 10
441.0283532772928
 20
360.1652349412113
 30
0.0
 11
440.5283532772928
 21
360.6652349412113
 31
0.0
  0
LINE
  5
8BC
330
1F
100
AcDbEntity
  8
OBRYS
 62
     5
100
AcDbLine
 10
441.0283532772928
 20
358.4510213788382
 30
0.0
 11
440.5283532772928
 21
357.9510213788382
 31
0.0
  0
CIRCLE
  5
8BD
330
1F
100
AcDbEntity
  8
OBRYS
 62
     5
100
AcDbCircle
 10
441.8854600584793
 20
359.3081281600247
 30
0.0
 40
0.7
  0
LINE
  5
8BE
330
1F
100
AcDbEntity
  8
OBRYS
 62
     5
100
AcDbLine
 10
432.8854600584793
 20
286.5581281600248
 30
0.0
 11
450.8854600584793
 21
286.5581281600247
 31
0.0
  0
LINE
  5
8BF
330
1F
100
AcDbEntity
  8
OBRYS
 62
     5
100
AcDbLine
 10
432.8854600584793
 20
367.5581281600247
 30
0.0
 11
450.8854600584793
 21
367.5581281600247
 31
0.0
  0
LINE
  5
8C0
330
1F
100
AcDbEntity
  8
OBRYS
 62
     5
100
AcDbLine
 10
435.8854600584793
 20
332.1581281600247
 30
0.0
 11
435.8854600584793
 21
337.8581281600247
 31
0.0
  0
LINE
  5
8C1
330
1F
100
AcDbEntity
  8
OBRYS
 62
     5
100
AcDbLine
 10
435.8854600584793
 20
337.8581281600247
 30
0.0
 11
447.8854600584793
 21
337.8581281600247
 31
0.0
  0
LINE
  5
8C2
330
1F
100
AcDbEntity
  8
OBRYS
 62
     5
100
AcDbLine
 10
447.8854600584793
 20
337.8581281600247
 30
0.0
 11
447.8854600584793
 21
332.1581281600247
 31
0.0
  0
LINE
  5
8C3
330
1F
100
AcDbEntity
  8
OBRYS
 62
     5
100
AcDbLine
 10
447.8854600584793
 20
332.1581281600247
 30
0.0
 11
435.8854600584793
 21
332.1581281600247
 31
0.0
  0
LINE
  5
8C4
330
1F
100
AcDbEntity
  8
OBRYS
 62
     5
100
AcDbLine
 10
441.2354600584794
 20
297.0533281600247
 30
0.0
 11
442.5354600584793
 21
297.0533260540074
 31
0.0
  0
LINE
  5
8C5
330
1F
100
AcDbEntity
  8
OBRYS
 62
     5
100
AcDbLine
 10
441.2354600584794
 20
292.5629302660421
 30
0.0
 11
442.5354600584793
 21
292.5629302660421
 31
0.0
  0
LINE
  5
8C6
330
1F
100
AcDbEntity
  8
OBRYS
 62
     5
100
AcDbLine
 10
441.2354600584794
 20
357.0629281600247
 30
0.0
 11
442.5354600584793
 21
357.0629281600247
 31
0.0
  0
LINE
  5
8C7
330
1F
100
AcDbEntity
  8
OBRYS
 62
     5
100
AcDbLine
 10
441.2354600584794
 20
361.5533281600248
 30
0.0
 11
442.5354600584793
 21
361.5533281600248
 31
0.0
  0
LINE
  5
8C8
330
1F
100
AcDbEntity
  8
OBRYS
 62
     5
100
AcDbLine
 10
432.8854600584793
 20
289.1581281600247
 30
0.0
 11
450.8854600584793
 21
289.1581281600247
 31
0.0
  0
LINE
  5
8C9
330
1F
100
AcDbEntity
  8
OBRYS
 62
     5
100
AcDbLine
 10
432.8854600584793
 20
364.9581281600247
 30
0.0
 11
450.8854600584793
 21
364.9581281600247
 31
0.0
  0
LINE
  5
8CA
330
1F
100
AcDbEntity
  8
OBRYS
 62
     5
100
AcDbLine
 10
456.3824320377652
 20
277.9581281600247
 30
0.0
 11
463.3747081164825
 21
277.9581281600247
 31
0.0
  0
LINE
  5
8CB
330
1F
100
AcDbEntity
  8
OBRYS
 62
     5
100
AcDbLine
 10
450.8854600584793
 20
286.0581281600248
 30
0.0
 11
468.8854600584793
 21
286.0581281600248
 31
0.0
  0
LINE
  5
8CC
330
1F
100
AcDbEntity
  8
OBRYS
 62
     5
100
AcDbLine
 10
454.0354600584793
 20
284.1581281600247
 30
0.0
 11
465.7354600584794
 21
284.1581281600247
 31
0.0
  0
LINE
  5
8CD
330
1F
100
AcDbEntity
  8
OBRYS
 62
     5
100
AcDbLine
 10
454.0354600584793
 20
284.1581281600247
 30
0.0
 11
452.8354600584793
 21
286.0581281600248
 31
0.0
  0
LINE
  5
8CE
330
1F
100
AcDbEntity
  8
OBRYS
 62
     5
100
AcDbLine
 10
465.7354600584794
 20
284.1581281600247
 30
0.0
 11
466.9354600584794
 21
286.0581281600248
 31
0.0
  0
LINE
  5
8CF
330
1F
100
AcDbEntity
  8
OBRYS
 62
     5
100
AcDbLine
 10
456.5925668396659
 20
278.9581281600247
 30
0.0
 11
463.1783532772927
 21
278.9581281600247
 31
0.0
  0
LINE
  5
8D0
330
1F
100
AcDbEntity
  8
OBRYS
 62
     5
100
AcDbLine
 10
455.8854600584793
 20
279.6652349412113
 30
0.0
 11
455.8854600584793
 21
284.1581281600247
 31
0.0
  0
LINE
  5
8D1
330
1F
100
AcDbEntity
  8
OBRYS
 62
     5
100
AcDbLine
 10
463.8854600584793
 20
279.6652349412113
 30
0.0
 11
463.8854600584793
 21
284.1581281600247
 31
0.0
  0
ARC
  5
8D2
330
1F
100
AcDbEntity
  8
OBRYS
 62
     5
100
AcDbCircle
 10
456.5925668396659
 20
279.6652349412113
 30
0.0
 40
0.707106781186548
100
AcDbArc
 50
180.0
 51
270.0
  0
ARC
  5
8D3
330
1F
100
AcDbEntity
  8
OBRYS
 62
     5
100
AcDbCircle
 10
463.1783532772927
 20
279.6652349412113
 30
0.0
 40
0.707106781186548
100
AcDbArc
 50
270.0
 51
0.0
  0
LINE
  5
8D4
330
1F
100
AcDbEntity
  8
OBRYS
 62
     5
100
AcDbLine
 10
452.5854600584793
 20
286.0581281600248
 30
0.0
 11
452.5854600584793
 21
283.1652349412113
 31
0.0
  0
LINE
  5
8D5
330
1F
100
AcDbEntity
  8
OBRYS
 62
     5
100
AcDbLine
 10
455.8854600584793
 20
282.4581281600247
 30
0.0
 11
453.2925668396658
 21
282.4581281600247
 31
0.0
  0
ARC
  5
8D6
330
1F
100
AcDbEntity
  8
OBRYS
 62
     5
100
AcDbCircle
 10
453.2925668396658
 20
283.1652349412113
 30
0.0
 40
0.707106781186548
100
AcDbArc
 50
180.0
 51
270.0
  0
LINE
  5
8D7
330
1F
100
AcDbEntity
  8
OBRYS
 62
     5
100
AcDbLine
 10
467.1854600584794
 20
286.0581281600248
 30
0.0
 11
467.1854600584794
 21
283.1652349412113
 31
0.0
  0
LINE
  5
8D8
330
1F
100
AcDbEntity
  8
OBRYS
 62
     5
100
AcDbLine
 10
463.9024614782466
 20
282.4581281600247
 30
0.0
 11
466.4783532772929
 21
282.4581281600247
 31
0.0
  0
ARC
  5
8D9
330
1F
100
AcDbEntity
  8
OBRYS
 62
     5
100
AcDbCircle
 10
466.4783532772929
 20
283.1652349412113
 30
0.0
 40
0.7071067811865475
100
AcDbArc
 50
270.0
 51
0.0
  0
LINE
  5
8DA
330
1F
100
AcDbEntity
  8
OBRYS
 62
     5
100
AcDbLine
 10
454.8854600584793
 20
282.4581281600247
 30
0.0
 11
454.8854590850417
 21
279.4613221670493
 31
0.0
  0
LINE
  5
8DB
330
1F
100
AcDbEntity
  8
OBRYS
 62
     5
100
AcDbLine
 10
464.8854600584793
 20
282.4581281600247
 30
0.0
 11
464.8854600584793
 21
279.454175145508
 31
0.0
  0
ARC
  5
8DC
330
1F
100
AcDbEntity
  8
OBRYS
 62
     5
100
AcDbCircle
 10
463.345599250854
 20
279.4983473537712
 30
0.0
 40
1.540494235900705
100
AcDbArc
 50
271.0827138285975
 51
358.3568727553888
  0
ARC
  5
8DD
330
1F
100
AcDbEntity
  8
OBRYS
 62
     5
100
AcDbCircle
 10
456.3886678643867
 20
279.4613240051392
 30
0.0
 40
1.503208779346059
100
AcDbArc
 50
179.9347947880698
 51
269.7623167341424
  0
LINE
  5
8DE
330
1F
100
AcDbEntity
  8
OBRYS
 62
     5
100
AcDbLine
 10
450.8854600584793
 20
368.0581281600247
 30
0.0
 11
468.8854600584793
 21
368.0581281600247
 31
0.0
  0
LINE
  5
8DF
330
1F
100
AcDbEntity
  8
OBRYS
 62
     5
100
AcDbLine
 10
468.8854600584793
 20
368.0581281600247
 30
0.0
 11
468.8854600584793
 21
286.0581281600248
 31
0.0
  0
LINE
  5
8E3
330
1F
100
AcDbEntity
  8
OBRYS
 62
     5
100
AcDbLine
 10
450.8854600584793
 20
304.0581281600248
 30
0.0
 11
468.8854600584793
 21
304.0581281600248
 31
0.0
  0
LINE
  5
8E4
330
1F
100
AcDbEntity
  8
OBRYS
 62
     5
100
AcDbLine
 10
451.1854600584794
 20
304.5581281600248
 30
0.0
 11
468.5854600584793
 21
304.5581281600248
 31
0.0
  0
LINE
  5
8E5
330
1F
100
AcDbEntity
  8
OBRYS
 62
     5
100
AcDbLine
 10
451.1854600584794
 20
349.5581281600247
 30
0.0
 11
468.5854600584793
 21
349.5581281600247
 31
0.0
  0
LINE
  5
8E6
330
1F
100
AcDbEntity
  8
OBRYS
 62
     5
100
AcDbLine
 10
450.8854600584793
 20
350.0581281600247
 30
0.0
 11
468.8854600584793
 21
350.0581281600247
 31
0.0
  0
LINE
  5
8E7
330
1F
100
AcDbEntity
  8
OBRYS
 62
     5
100
AcDbLine
 10
458.1854600584794
 20
304.0581281600248
 30
0.0
 11
458.1854600584794
 21
302.5581281600248
 31
0.0
  0
LINE
  5
8E8
330
1F
100
AcDbEntity
  8
OBRYS
 62
     5
100
AcDbLine
 10
458.1854600584794
 20
302.5581281600248
 30
0.0
 11
459.8854600584793
 21
302.5581281600248
 31
0.0
  0
LINE
  5
8E9
330
1F
100
AcDbEntity
  8
OBRYS
 62
     5
100
AcDbLine
 10
459.8854600584793
 20
302.5581281600248
 30
0.0
 11
459.8854600584793
 21
304.0581281600248
 31
0.0
  0
LINE
  5
8EA
330
1F
100
AcDbEntity
  8
OBRYS
 62
     5
100
AcDbLine
 10
457.3354600584793
 20
304.0581281600248
 30
0.0
 11
457.3354600584793
 21
301.5581281600248
 31
0.0
  0
LINE
  5
8EB
330
1F
100
AcDbEntity
  8
OBRYS
 62
     5
100
AcDbLine
 10
457.3354600584793
 20
301.5581281600248
 30
0.0
 11
460.7354600584794
 21
301.5581281600248
 31
0.0
  0
LINE
  5
8EC
330
1F
100
AcDbEntity
  8
OBRYS
 62
     5
100
AcDbLine
 10
460.7354600584794
 20
301.5581281600248
 30
0.0
 11
460.7354600584794
 21
304.0581281600248
 31
0.0
  0
LINE
  5
8ED
330
1F
100
AcDbEntity
  8
OBRYS
 62
     5
100
AcDbLine
 10
457.3354600584793
 20
301.5581281600248
 30
0.0
 11
458.1854600584794
 21
302.5581281600248
 31
0.0
  0
LINE
  5
8EE
330
1F
100
AcDbEntity
  8
OBRYS
 62
     5
100
AcDbLine
 10
459.8854600584793
 20
302.5581281600248
 30
0.0
 11
460.7354600584794
 21
301.5581281600248
 31
0.0
  0
LINE
  5
8EF
330
1F
100
AcDbEntity
  8
OBRYS
 62
     5
100
AcDbLine
 10
458.1854600584794
 20
350.0581281600247
 30
0.0
 11
458.1854600584794
 21
351.5581281600247
 31
0.0
  0
LINE
  5
8F0
330
1F
100
AcDbEntity
  8
OBRYS
 62
     5
100
AcDbLine
 10
458.1854600584794
 20
351.5581281600247
 30
0.0
 11
459.8854600584793
 21
351.5581281600247
 31
0.0
  0
LINE
  5
8F1
330
1F
100
AcDbEntity
  8
OBRYS
 62
     5
100
AcDbLine
 10
459.8854600584793
 20
351.5581281600247
 30
0.0
 11
459.8854600584793
 21
350.0581281600247
 31
0.0
  0
LINE
  5
8F2
330
1F
100
AcDbEntity
  8
OBRYS
 62
     5
100
AcDbLine
 10
457.3354600584793
 20
350.0581281600247
 30
0.0
 11
457.3354600584793
 21
352.5581281600247
 31
0.0
  0
LINE
  5
8F3
330
1F
100
AcDbEntity
  8
OBRYS
 62
     5
100
AcDbLine
 10
457.3354600584793
 20
352.5581281600247
 30
0.0
 11
460.7354600584794
 21
352.5581281600247
 31
0.0
  0
LINE
  5
8F4
330
1F
100
AcDbEntity
  8
OBRYS
 62
     5
100
AcDbLine
 10
460.7354600584794
 20
352.5581281600247
 30
0.0
 11
460.7354600584794
 21
350.0581281600247
 31
0.0
  0
LINE
  5
8F5
330
1F
100
AcDbEntity
  8
OBRYS
 62
     5
100
AcDbLine
 10
457.3354600584793
 20
352.5581281600247
 30
0.0
 11
458.1854600584794
 21
351.5581281600247
 31
0.0
  0
LINE
  5
8F6
330
1F
100
AcDbEntity
  8
OBRYS
 62
     5
100
AcDbLine
 10
459.8854600584793
 20
351.5581281600247
 30
0.0
 11
460.7354600584794
 21
352.5581281600247
 31
0.0
  0
CIRCLE
  5
8F7
330
1F
100
AcDbEntity
  8
OBRYS
 62
     5
100
AcDbCircle
 10
459.8854600584793
 20
294.8081281600248
 30
0.0
 40
3.2
  0
LINE
  5
8F8
330
1F
100
AcDbEntity
  8
OBRYS
 62
     5
100
AcDbLine
 10
450.8854600584793
 20
289.6581281600247
 30
0.0
 11
468.8854600584793
 21
289.6581281600247
 31
0.0
  0
LINE
  5
8F9
330
1F
100
AcDbEntity
  8
OBRYS
 62
     5
100
AcDbLine
 10
450.8854600584793
 20
364.4581281600247
 30
0.0
 11
468.8854600584793
 21
364.4581281600247
 31
0.0
  0
LINE
  5
8FA
330
1F
100
AcDbEntity
  8
OBRYS
 62
     5
100
AcDbLine
 10
459.2354600584794
 20
296.1652349412113
 30
0.0
 11
459.2354600584794
 21
297.9414171668034
 31
0.0
  0
LINE
  5
8FB
330
1F
100
AcDbEntity
  8
OBRYS
 62
     5
100
AcDbLine
 10
459.2354600584794
 20
291.6748391532461
 30
0.0
 11
459.2354600584794
 21
293.4510213788382
 31
0.0
  0
LINE
  5
8FC
330
1F
100
AcDbEntity
  8
OBRYS
 62
     5
100
AcDbLine
 10
460.5354600584793
 20
296.1652349412113
 30
0.0
 11
460.5354600584793
 21
297.9414171668034
 31
0.0
  0
LINE
  5
8FD
330
1F
100
AcDbEntity
  8
OBRYS
 62
     5
100
AcDbLine
 10
460.5354600584793
 20
291.6748391532461
 30
0.0
 11
460.5354600584793
 21
293.4510213788382
 31
0.0
  0
ARC
  5
8FE
330
1F
100
AcDbEntity
  8
OBRYS
 62
     5
100
AcDbCircle
 10
458.5283532772928
 20
296.1652349412113
 30
0.0
 40
0.707106781186548
100
AcDbArc
 50
270.0
 51
0.0
  0
ARC
  5
8FF
330
1F
100
AcDbEntity
  8
OBRYS
 62
     5
100
AcDbCircle
 10
461.2425668396659
 20
296.1652349412113
 30
0.0
 40
0.707106781186548
100
AcDbArc
 50
180.0
 51
270.0
  0
ARC
  5
900
330
1F
100
AcDbEntity
  8
OBRYS
 62
     5
100
AcDbCircle
 10
461.2425668396659
 20
293.4510213788382
 30
0.0
 40
0.707106781186548
100
AcDbArc
 50
90.0
 51
180.0
  0
ARC
  5
901
330
1F
100
AcDbEntity
  8
OBRYS
 62
     5
100
AcDbCircle
 10
458.5283532772928
 20
293.4510213788382
 30
0.0
 40
0.707106781186548
100
AcDbArc
 50
0.0
 51
90.0
  0
LINE
  5
902
330
1F
100
AcDbEntity
  8
OBRYS
 62
     5
100
AcDbLine
 10
457.6354600584793
 20
294.1581281600247
 30
0.0
 11
457.6354600584793
 21
295.4581281600247
 31
0.0
  0
LINE
  5
903
330
1F
100
AcDbEntity
  8
OBRYS
 62
     5
100
AcDbLine
 10
462.1354600584793
 20
294.1581281600247
 30
0.0
 11
462.1354600584793
 21
295.4581281600247
 31
0.0
  0
LINE
  5
904
330
1F
100
AcDbEntity
  8
OBRYS
 62
     5
100
AcDbLine
 10
461.2425668396659
 20
294.1581281600247
 30
0.0
 11
462.1306579524619
 21
294.1581281600247
 31
0.0
  0
LINE
  5
905
330
1F
100
AcDbEntity
  8
OBRYS
 62
     5
100
AcDbLine
 10
461.2425668396659
 20
295.4581281600247
 30
0.0
 11
462.1306579524619
 21
295.4581281600247
 31
0.0
  0
LINE
  5
906
330
1F
100
AcDbEntity
  8
OBRYS
 62
     5
100
AcDbLine
 10
457.6402621644967
 20
295.4581281600247
 30
0.0
 11
458.5283532772928
 21
295.4581281600247
 31
0.0
  0
LINE
  5
907
330
1F
100
AcDbEntity
  8
OBRYS
 62
     5
100
AcDbLine
 10
460.7425668396659
 20
295.6652349412113
 30
0.0
 11
461.2425668396659
 21
296.1652349412113
 31
0.0
  0
LINE
  5
908
330
1F
100
AcDbEntity
  8
OBRYS
 62
     5
100
AcDbLine
 10
457.6402621644967
 20
294.1581281600247
 30
0.0
 11
458.5283532772928
 21
294.1581281600247
 31
0.0
  0
LINE
  5
909
330
1F
100
AcDbEntity
  8
OBRYS
 62
     5
100
AcDbLine
 10
460.7425668396659
 20
293.9510213788382
 30
0.0
 11
461.2425668396659
 21
293.4510213788382
 31
0.0
  0
LINE
  5
90A
330
1F
100
AcDbEntity
  8
OBRYS
 62
     5
100
AcDbLine
 10
459.0283532772928
 20
295.6652349412113
 30
0.0
 11
458.5283532772928
 21
296.1652349412113
 31
0.0
  0
LINE
  5
90B
330
1F
100
AcDbEntity
  8
OBRYS
 62
     5
100
AcDbLine
 10
459.0283532772928
 20
293.9510213788382
 30
0.0
 11
458.5283532772928
 21
293.4510213788382
 31
0.0
  0
CIRCLE
  5
90C
330
1F
100
AcDbEntity
  8
OBRYS
 62
     5
100
AcDbCircle
 10
459.8854600584793
 20
294.8081281600248
 30
0.0
 40
0.7
  0
CIRCLE
  5
90D
330
1F
100
AcDbEntity
  8
OBRYS
 62
     5
100
AcDbCircle
 10
459.8854600584793
 20
359.3081281600247
 30
0.0
 40
3.2
  0
LINE
  5
90E
330
1F
100
AcDbEntity
  8
OBRYS
 62
     5
100
AcDbLine
 10
459.2354600584794
 20
356.1748391532461
 30
0.0
 11
459.2354600584794
 21
357.9510213788382
 31
0.0
  0
LINE
  5
90F
330
1F
100
AcDbEntity
  8
OBRYS
 62
     5
100
AcDbLine
 10
459.2354600584794
 20
360.6652349412113
 30
0.0
 11
459.2354600584794
 21
362.4414171668034
 31
0.0
  0
LINE
  5
910
330
1F
100
AcDbEntity
  8
OBRYS
 62
     5
100
AcDbLine
 10
460.5354600584793
 20
356.1748391532461
 30
0.0
 11
460.5354600584793
 21
357.9510213788382
 31
0.0
  0
LINE
  5
911
330
1F
100
AcDbEntity
  8
OBRYS
 62
     5
100
AcDbLine
 10
460.5354600584793
 20
360.6652349412113
 30
0.0
 11
460.5354600584793
 21
362.4414171668034
 31
0.0
  0
ARC
  5
912
330
1F
100
AcDbEntity
  8
OBRYS
 62
     5
100
AcDbCircle
 10
458.5283532772928
 20
360.6652349412113
 30
0.0
 40
0.707106781186548
100
AcDbArc
 50
270.0
 51
0.0
  0
ARC
  5
913
330
1F
100
AcDbEntity
  8
OBRYS
 62
     5
100
AcDbCircle
 10
461.2425668396659
 20
360.6652349412113
 30
0.0
 40
0.707106781186548
100
AcDbArc
 50
180.0
 51
270.0
  0
ARC
  5
914
330
1F
100
AcDbEntity
  8
OBRYS
 62
     5
100
AcDbCircle
 10
461.2425668396659
 20
357.9510213788382
 30
0.0
 40
0.707106781186548
100
AcDbArc
 50
90.0
 51
180.0
  0
ARC
  5
915
330
1F
100
AcDbEntity
  8
OBRYS
 62
     5
100
AcDbCircle
 10
458.5283532772928
 20
357.9510213788382
 30
0.0
 40
0.707106781186548
100
AcDbArc
 50
0.0
 51
90.0
  0
LINE
  5
916
330
1F
100
AcDbEntity
  8
OBRYS
 62
     5
100
AcDbLine
 10
457.6354600584793
 20
358.6581281600247
 30
0.0
 11
457.6354600584793
 21
359.9581281600247
 31
0.0
  0
LINE
  5
917
330
1F
100
AcDbEntity
  8
OBRYS
 62
     5
100
AcDbLine
 10
462.1354600584793
 20
358.6581281600247
 30
0.0
 11
462.1354600584793
 21
359.9581281600247
 31
0.0
  0
LINE
  5
918
330
1F
100
AcDbEntity
  8
OBRYS
 62
     5
100
AcDbLine
 10
461.2425668396659
 20
358.6581281600247
 30
0.0
 11
462.1306579524619
 21
358.6581281600247
 31
0.0
  0
LINE
  5
919
330
1F
100
AcDbEntity
  8
OBRYS
 62
     5
100
AcDbLine
 10
461.2425668396659
 20
359.9581281600247
 30
0.0
 11
462.1306579524619
 21
359.9581281600247
 31
0.0
  0
LINE
  5
91A
330
1F
100
AcDbEntity
  8
OBRYS
 62
     5
100
AcDbLine
 10
457.6402621644967
 20
359.9581281600247
 30
0.0
 11
458.5283532772928
 21
359.9581281600247
 31
0.0
  0
LINE
  5
91B
330
1F
100
AcDbEntity
  8
OBRYS
 62
     5
100
AcDbLine
 10
460.7425668396659
 20
360.1652349412113
 30
0.0
 11
461.2425668396659
 21
360.6652349412113
 31
0.0
  0
LINE
  5
91C
330
1F
100
AcDbEntity
  8
OBRYS
 62
     5
100
AcDbLine
 10
457.6402621644967
 20
358.6581281600247
 30
0.0
 11
458.5283532772928
 21
358.6581281600247
 31
0.0
  0
LINE
  5
91D
330
1F
100
AcDbEntity
  8
OBRYS
 62
     5
100
AcDbLine
 10
460.7425668396659
 20
358.4510213788382
 30
0.0
 11
461.2425668396659
 21
357.9510213788382
 31
0.0
  0
LINE
  5
91E
330
1F
100
AcDbEntity
  8
OBRYS
 62
     5
100
AcDbLine
 10
459.0283532772928
 20
360.1652349412113
 30
0.0
 11
458.5283532772928
 21
360.6652349412113
 31
0.0
  0
LINE
  5
91F
330
1F
100
AcDbEntity
  8
OBRYS
 62
     5
100
AcDbLine
 10
459.0283532772928
 20
358.4510213788382
 30
0.0
 11
458.5283532772928
 21
357.9510213788382
 31
0.0
  0
CIRCLE
  5
920
330
1F
100
AcDbEntity
  8
OBRYS
 62
     5
100
AcDbCircle
 10
459.8854600584793
 20
359.3081281600247
 30
0.0
 40
0.7
  0
LINE
  5
921
330
1F
100
AcDbEntity
  8
OBRYS
 62
     5
100
AcDbLine
 10
450.8854600584793
 20
286.5581281600248
 30
0.0
 11
468.8854600584793
 21
286.5581281600247
 31
0.0
  0
LINE
  5
922
330
1F
100
AcDbEntity
  8
OBRYS
 62
     5
100
AcDbLine
 10
450.8854600584793
 20
367.5581281600247
 30
0.0
 11
468.8854600584793
 21
367.5581281600247
 31
0.0
  0
LINE
  5
923
330
1F
100
AcDbEntity
  8
OBRYS
 62
     5
100
AcDbLine
 10
453.8854600584793
 20
332.1581281600247
 30
0.0
 11
453.8854600584793
 21
337.8581281600247
 31
0.0
  0
LINE
  5
924
330
1F
100
AcDbEntity
  8
OBRYS
 62
     5
100
AcDbLine
 10
453.8854600584793
 20
337.8581281600247
 30
0.0
 11
465.8854600584793
 21
337.8581281600247
 31
0.0
  0
LINE
  5
925
330
1F
100
AcDbEntity
  8
OBRYS
 62
     5
100
AcDbLine
 10
465.8854600584793
 20
337.8581281600247
 30
0.0
 11
465.8854600584793
 21
332.1581281600247
 31
0.0
  0
LINE
  5
926
330
1F
100
AcDbEntity
  8
OBRYS
 62
     5
100
AcDbLine
 10
465.8854600584793
 20
332.1581281600247
 30
0.0
 11
453.8854600584793
 21
332.1581281600247
 31
0.0
  0
LINE
  5
927
330
1F
100
AcDbEntity
  8
OBRYS
 62
     5
100
AcDbLine
 10
459.2354600584794
 20
297.0533281600247
 30
0.0
 11
460.5354600584793
 21
297.0533260540074
 31
0.0
  0
LINE
  5
928
330
1F
100
AcDbEntity
  8
OBRYS
 62
     5
100
AcDbLine
 10
459.2354600584794
 20
292.5629302660421
 30
0.0
 11
460.5354600584793
 21
292.5629302660421
 31
0.0
  0
LINE
  5
929
330
1F
100
AcDbEntity
  8
OBRYS
 62
     5
100
AcDbLine
 10
459.2354600584794
 20
357.0629281600247
 30
0.0
 11
460.5354600584793
 21
357.0629281600247
 31
0.0
  0
LINE
  5
92A
330
1F
100
AcDbEntity
  8
OBRYS
 62
     5
100
AcDbLine
 10
459.2354600584794
 20
361.5533281600248
 30
0.0
 11
460.5354600584793
 21
361.5533281600248
 31
0.0
  0
LINE
  5
92B
330
1F
100
AcDbEntity
  8
OBRYS
 62
     5
100
AcDbLine
 10
450.8854600584793
 20
289.1581281600247
 30
0.0
 11
468.8854600584793
 21
289.1581281600247
 31
0.0
  0
LINE
  5
92C
330
1F
100
AcDbEntity
  8
OBRYS
 62
     5
100
AcDbLine
 10
450.8854600584793
 20
364.9581281600247
 30
0.0
 11
468.8854600584793
 21
364.9581281600247
 31
0.0
  0
LINE
  5
943
330
1F
100
AcDbEntity
  8
OBRYS
 62
     5
100
AcDbLine
 10
420.5823304278595
 20
284.8581281600247
 30
0.0
 11
427.1885896890992
 21
284.8581281600247
 31
0.0
  0
ARC
  5
944
330
1F
100
AcDbEntity
  8
OBRYS
 62
     5
100
AcDbCircle
 10
420.5823304278595
 20
284.1612577906446
 30
0.0
 40
0.6968703693801268
100
AcDbArc
 50
90.0
 51
180.0
  0
ARC
  5
945
330
1F
100
AcDbEntity
  8
OBRYS
 62
     5
100
AcDbCircle
 10
427.1885896890992
 20
284.1612577906446
 30
0.0
 40
0.6968703693801266
100
AcDbArc
 50
0.0
 51
90.0
  0
DIMENSION
  5
95C
330
1F
100
AcDbEntity
  8
KOTY
 62
     1
100
AcDbDimension
  2
*D13
 10
468.8854600584793
 20
267.9581281600247
 30
0.0
 11
441.8854600584793
 21
267.9581281600247
 31
0.0
 70
   160
  3
STANDARD
100
AcDbAlignedDimension
 13
414.8854600584793
 23
286.0581281600248
 33
0.0
 14
468.8854600584793
 24
286.0581281600248
 34
0.0
100
AcDbRotatedDimension
1001
ACAD
1000
DSTYLE
1002
{
1070
   278
1070
    44
1070
   147
1040
1.0
1070
    77
1070
     1
1070
    41
1040
4.0
1070
   271
1070
     0
1070
   140
1040
4.0
1002
}
  0
DIMENSION
  5
96C
330
1F
100
AcDbEntity
  8
KOTY
 62
     1
100
AcDbDimension
  2
*D14
 10
478.8854600584793
 20
294.8081281600248
 30
0.0
 11
478.8854600584793
 21
327.0581281600247
 31
0.0
 70
   160
  3
STANDARD
100
AcDbAlignedDimension
 13
459.8854600584793
 23
359.3081281600247
 33
0.0
 14
459.8854600584793
 24
294.8081281600248
 34
0.0
 50
90.0
100
AcDbRotatedDimension
1001
ACAD
1000
DSTYLE
1002
{
1070
   278
1070
    44
1070
    77
1070
     3
1070
    73
1070
     0
1070
   271
1070
     1
1070
    41
1040
4.0
1070
   140
1040
4.0
1070
   147
1040
1.0
1002
}
  0
LINE
  5
9D2
330
1F
100
AcDbEntity
  8
OBRYS
 62
     5
100
AcDbLine
 10
363.6854811201941
 20
347.7581363971235
 30
0.0
 11
363.6854811201941
 21
350.8581363971235
 31
0.0
  0
LINE
  5
9D3
330
1F
100
AcDbEntity
  8
OBRYS
 62
     5
100
AcDbLine
 10
363.6854811201941
 20
350.8581363971235
 30
0.0
 11
360.5854811201941
 21
350.8581363971235
 31
0.0
  0
LINE
  5
9D4
330
1F
100
AcDbEntity
  8
OBRYS
 62
     5
100
AcDbLine
 10
360.5854811201941
 20
350.8581363971235
 30
0.0
 11
360.5854811201941
 21
347.7581363971235
 31
0.0
  0
LINE
  5
9D5
330
1F
100
AcDbEntity
  8
OBRYS
 62
     5
100
AcDbLine
 10
360.5854811201941
 20
347.7581363971235
 30
0.0
 11
363.6854811201941
 21
347.7581363971235
 31
0.0
  0
LINE
  5
9D6
330
1F
100
AcDbEntity
  8
OBRYS
 62
     5
100
AcDbLine
 10
362.9854811201941
 20
347.7581363971235
 30
0.0
 11
362.9854811201941
 21
350.8581363971235
 31
0.0
  0
LINE
  5
9D7
330
1F
100
AcDbEntity
  8
OBRYS
 62
     5
100
AcDbLine
 10
360.9854811201941
 20
347.7581363971235
 30
0.0
 11
360.9854811201941
 21
350.8581363971235
 31
0.0
  0
LINE
  5
9D8
330
1F
100
AcDbEntity
  8
OBRYS
 62
     5
100
AcDbLine
 10
363.6854811201941
 20
362.0581363971235
 30
0.0
 11
363.6854811201941
 21
365.1581363971235
 31
0.0
  0
LINE
  5
9D9
330
1F
100
AcDbEntity
  8
OBRYS
 62
     5
100
AcDbLine
 10
363.6854811201941
 20
365.1581363971235
 30
0.0
 11
360.5854811201941
 21
365.1581363971235
 31
0.0
  0
LINE
  5
9DA
330
1F
100
AcDbEntity
  8
OBRYS
 62
     5
100
AcDbLine
 10
360.5854811201941
 20
365.1581363971235
 30
0.0
 11
360.5854811201941
 21
362.0581363971235
 31
0.0
  0
LINE
  5
9DB
330
1F
100
AcDbEntity
  8
OBRYS
 62
     5
100
AcDbLine
 10
360.5854811201941
 20
362.0581363971235
 30
0.0
 11
363.6854811201941
 21
362.0581363971235
 31
0.0
  0
LINE
  5
9DC
330
1F
100
AcDbEntity
  8
OBRYS
 62
     5
100
AcDbLine
 10
362.9854811201941
 20
362.0581363971235
 30
0.0
 11
362.9854811201941
 21
365.1581363971235
 31
0.0
  0
LINE
  5
9DD
330
1F
100
AcDbEntity
  8
OBRYS
 62
     5
100
AcDbLine
 10
360.9854811201941
 20
362.0581363971235
 30
0.0
 11
360.9854811201941
 21
365.1581363971235
 31
0.0
  0
LINE
  5
9DE
330
1F
100
AcDbEntity
  8
OBRYS
  6
HIDDEN
 62
     5
 48
8.0
100
AcDbLine
 10
327.3854600584793
 20
368.0581281600247
 30
0.0
 11
327.3854600584793
 21
365.0581281600247
 31
0.0
  0
LINE
  5
9DF
330
1F
100
AcDbEntity
  8
OBRYS
  6
HIDDEN
 62
     5
 48
8.0
100
AcDbLine
 10
327.3854600584793
 20
365.0581281600247
 30
0.0
 11
330.8854600584793
 21
365.0581281600247
 31
0.0
  0
LINE
  5
9E0
330
1F
100
AcDbEntity
  8
OBRYS
  6
HIDDEN
 62
     5
 48
8.0
100
AcDbLine
 10
330.8854600584793
 20
365.0581281600247
 30
0.0
 11
330.8854600584793
 21
368.0581281600247
 31
0.0
  0
DIMENSION
  5
9E1
330
1F
100
AcDbEntity
  8
KOTY
 62
     1
100
AcDbDimension
  2
*D15
 10
361.3854600584793
 20
379.9581281600247
 30
0.0
 11
346.1354600584793
 21
379.9581281600247
 31
0.0
 70
   160
  3
STANDARD
100
AcDbAlignedDimension
 13
330.8854600584793
 23
368.0581281600247
 33
0.0
 14
361.3854600584793
 24
344.5581281600247
 34
0.0
100
AcDbRotatedDimension
1001
ACAD
1000
DSTYLE
1002
{
1070
   278
1070
    44
1070
   147
1040
1.0
1070
    77
1070
     1
1070
   271
1070
     1
1070
   140
1040
4.0
1070
    41
1040
4.0
1002
}
  0
LINE
  5
9F9
330
1F
100
AcDbEntity
  8
OBRYS
 62
     5
100
AcDbLine
 10
415.1854600584794
 20
349.5581281600247
 30
0.0
 11
415.1854600584794
 21
304.5581281600248
 31
0.0
  0
LINE
  5
9FA
330
1F
100
AcDbEntity
  8
OBRYS
 62
     5
100
AcDbLine
 10
432.5854600584793
 20
304.5581281600248
 30
0.0
 11
432.5854600584793
 21
349.5581281600247
 31
0.0
  0
LINE
  5
9FD
330
1F
100
AcDbEntity
  8
OBRYS
 62
     5
100
AcDbLine
 10
433.1854600584794
 20
349.5581281600247
 30
0.0
 11
433.1854600584794
 21
304.5581281600248
 31
0.0
  0
LINE
  5
9FE
330
1F
100
AcDbEntity
  8
OBRYS
 62
     5
100
AcDbLine
 10
450.5854600584793
 20
304.5581281600248
 30
0.0
 11
450.5854600584793
 21
349.5581281600247
 31
0.0
  0
LINE
  5
9FF
330
1F
100
AcDbEntity
  8
OBRYS
 62
     5
100
AcDbLine
 10
451.1854600584794
 20
349.5581281600247
 30
0.0
 11
451.1854600584794
 21
304.5581281600248
 31
0.0
  0
LINE
  5
A00
330
1F
100
AcDbEntity
  8
OBRYS
 62
     5
100
AcDbLine
 10
468.5854600584793
 20
304.5581281600248
 30
0.0
 11
468.5854600584793
 21
349.5581281600247
 31
0.0
  0
LINE
  5
A01
330
1F
100
AcDbEntity
  8
OBRYS
 62
     5
100
AcDbLine
 10
432.8854600584793
 20
289.1581281600247
 30
0.0
 11
432.8854600584793
 21
286.5581281600248
 31
0.0
  0
LINE
  5
C1B
330
1F
100
AcDbEntity
  8
OBRYS
 62
     5
100
AcDbLine
 10
418.0854600584793
 20
375.3581281600247
 30
0.0
 11
416.8354600584793
 21
368.0581281600247
 31
0.0
  0
LINE
  5
C1C
330
1F
100
AcDbEntity
  8
OBRYS
 62
     5
100
AcDbLine
 10
429.6854600584794
 20
375.3581281600247
 30
0.0
 11
430.9354600584794
 21
368.0581281600247
 31
0.0
  0
LINE
  5
C1D
330
1F
100
AcDbEntity
  8
OBRYS
100
AcDbLine
 10
418.0854600584793
 20
375.3581281600247
 30
0.0
 11
429.6854600584794
 21
375.3581281600247
 31
0.0
  0
LINE
  5
C1E
330
1F
100
AcDbEntity
  8
OBRYS
 62
     5
100
AcDbLine
 10
436.0854600584793
 20
375.3581281600247
 30
0.0
 11
434.8354600584793
 21
368.0581281600247
 31
0.0
  0
LINE
  5
C1F
330
1F
100
AcDbEntity
  8
OBRYS
 62
     5
100
AcDbLine
 10
447.6854600584794
 20
375.3581281600247
 30
0.0
 11
448.9354600584794
 21
368.0581281600247
 31
0.0
  0
LINE
  5
C20
330
1F
100
AcDbEntity
  8
OBRYS
100
AcDbLine
 10
436.0854600584793
 20
375.3581281600247
 30
0.0
 11
447.6854600584794
 21
375.3581281600247
 31
0.0
  0
LINE
  5
C21
330
1F
100
AcDbEntity
  8
OBRYS
 62
     5
100
AcDbLine
 10
454.0854600584793
 20
375.3581281600247
 30
0.0
 11
452.8354600584793
 21
368.0581281600247
 31
0.0
  0
LINE
  5
C22
330
1F
100
AcDbEntity
  8
OBRYS
 62
     5
100
AcDbLine
 10
465.6854600584794
 20
375.3581281600247
 30
0.0
 11
466.9354600584794
 21
368.0581281600247
 31
0.0
  0
LINE
  5
C23
330
1F
100
AcDbEntity
  8
OBRYS
100
AcDbLine
 10
454.0854600584793
 20
375.3581281600247
 30
0.0
 11
465.6854600584794
 21
375.3581281600247
 31
0.0
  0
LINE
  5
C4D
330
1F
100
AcDbEntity
  8
OBRYS
 62
     5
100
AcDbLine
 10
344.3854600584793
 20
375.3581281600247
 30
0.0
 11
343.0854600584793
 21
368.0581281600247
 31
0.0
  0
LINE
  5
C4E
330
1F
100
AcDbEntity
  8
OBRYS
 62
     5
100
AcDbLine
 10
356.3854600584793
 20
375.3581281600247
 30
0.0
 11
357.6854600584794
 21
368.0581281600247
 31
0.0
  0
LINE
  5
C4F
330
1F
100
AcDbEntity
  8
OBRYS
100
AcDbLine
 10
344.3854600584793
 20
375.3581281600247
 30
0.0
 11
356.3854600584793
 21
375.3581281600247
 31
0.0
  0
VIEWPORT
  5
CF2
330
CEE
100
AcDbEntity
 67
     1
  8
0
100
AcDbViewport
 10
5.25
 20
4.0
 30
0.0
 40
12.6
 41
9.6
 68
     1
 69
     1
1001
ACAD
1000
MVIEW
1002
{
1070
    16
1010
0.0
1020
0.0
1030
0.0
1010
0.0
1020
0.0
1030
1.0
1040
0.0
1040
9.6
1040
5.25
1040
4.0
1040
50.0
1040
0.0
1040
0.0
1070
     0
1070
   100
1070
     0
1070
     3
1070
     0
1070
     0
1070
     0
1070
     0
1040
0.0
1040
0.0
1040
0.0
1040
0.5
1040
0.5
1040
0.0
1040
0.0
1070
     0
1002
{
1002
}
1002
}
  0
VIEWPORT
  5
CF3
330
CEE
100
AcDbEntity
 67
     1
  8
0
100
AcDbViewport
 10
5.25
 20
4.0
 30
0.0
 40
8.4
 41
6.4
 68
     2
 69
     2
1001
ACAD
1000
MVIEW
1002
{
1070
    16
1010
0.0
1020
0.0
1030
0.0
1010
0.0
1020
0.0
1030
1.0
1040
0.0
1040
162.0798545794109
1040
375.2728085214809
1040
317.3014321460039
1040
50.0
1040
0.0
1040
0.0
1070
     0
1070
   100
1070
     0
1070
     3
1070
     0
1070
     0
1070
     0
1070
     0
1040
0.0
1040
0.0
1040
0.0
1040
0.5
1040
0.5
1040
0.0
1040
0.0
1070
     0
1002
{
1002
}
1002
}
  0
ENDSEC
  0
SECTION
  2
OBJECTS
  0
DICTIONARY
  5
C
330
0
100
AcDbDictionary
  3
ACAD_DETAILVIEWSTYLE
350
B4F
  3
ACAD_GROUP
350
D
  3
ACAD_IMAGE_VARS
350
DC
  3
ACAD_MLINESTYLE
350
17
  3
ACAD_SCALELIST
350
CA8
  3
ACAD_SECTIONVIEWSTYLE
350
B50
  3
ACDBVARIABLEDICTIONARY
350
66
  3
APPDATA
350
E1
  3
DWGPROPS
350
CF5
  0
DICTIONARY
  5
B41
330
2
100
AcDbDictionary
280
     1
  3
ACAD_LAYERSTATES
360
B42
  3
ACLYDICTIONARY
360
B47
  0
DICTIONARY
  5
B4F
102
{ACAD_REACTORS
330
C
102
}
330
C
100
AcDbDictionary
  0
DICTIONARY
  5
D
102
{ACAD_REACTORS
330
C
102
}
330
C
100
AcDbDictionary
  0
RASTERVARIABLES
  5
DC
102
{ACAD_REACTORS
330
C
102
}
330
C
100
AcDbRasterVariables
 90
        0
 70
     1
 71
     1
 72
     5
  0
DICTIONARY
  5
17
102
{ACAD_REACTORS
330
C
102
}
330
C
100
AcDbDictionary
  3
STANDARD
350
18
  0
DICTIONARY
  5
CA8
102
{ACAD_REACTORS
330
C
102
}
330
C
100
AcDbDictionary
  0
DICTIONARY
  5
B50
102
{ACAD_REACTORS
330
C
102
}
330
C
100
AcDbDictionary
  0
DICTIONARY
  5
66
102
{ACAD_REACTORS
330
C
102
}
330
C
100
AcDbDictionary
  3
DIMASSOC
350
67
  3
HIDETEXT
350
6B
  0
DICTIONARY
  5
E1
102
{ACAD_REACTORS
330
C
102
}
330
C
100
AcDbDictionary
  0
XRECORD
  5
CF5
102
{ACAD_REACTORS
330
C
102
}
330
C
100
AcDbXrecord
  1
DWGPROPS COOKIE
  2

  3

  4

  6

  7

  8
jaromir.podrabsky
  9

300
=
301
=
302
=
303
=
304
=
305
=
306
=
307
=
308
=
309
=
 40
0.0
 41
2452643.021717593
 42
2456765.456890046
  1

 90
        0
  0
DICTIONARY
  5
B42
102
{ACAD_REACTORS
330
B41
102
}
330
B41
100
AcDbDictionary
  0
DICTIONARY
  5
B47
102
{ACAD_REACTORS
330
B41
102
}
330
B41
100
AcDbDictionary
1001
ACAD
1000
<All
  0
MLINESTYLE
  5
18
102
{ACAD_REACTORS
330
17
102
}
330
17
100
AcDbMlineStyle
  2
STANDARD
 70
     0
  3

 62
   256
 51
90.0
 52
90.0
 71
     2
 49
0.5
 62
   256
  6
BYLAYER
 49
-0.5
 62
   256
  6
BYLAYER
  0
DICTIONARYVAR
  5
67
102
{ACAD_REACTORS
330
66
102
}
330
66
100
DictionaryVariables
280
     0
  1
2
  0
DICTIONARYVAR
  5
6B
102
{ACAD_REACTORS
330
66
102
}
330
66
100
DictionaryVariables
280
     0
  1
1
  0
ENDSEC
  0
EOF
