  0
SECTION
  2
HEADER
  9
$ACADVER
  1
AC1014
  9
$ACADMAINTVER
 70
     9
  9
$DWGCODEPAGE
  3
ANSI_1250
  9
$INSBASE
 10
0.0
 20
0.0
 30
0.0
  9
$EXTMIN
 10
1.000000000000000E+20
 20
1.000000000000000E+20
 30
1.000000000000000E+20
  9
$EXTMAX
 10
-1.000000000000000E+20
 20
-1.000000000000000E+20
 30
-1.000000000000000E+20
  9
$LIMMIN
 10
0.0
 20
0.0
  9
$LIMMAX
 10
12.0
 20
9.0
  9
$ORTHOMODE
 70
     0
  9
$REGENMODE
 70
     1
  9
$FILLMODE
 70
     1
  9
$QTEXTMODE
 70
     0
  9
$MIRRTEXT
 70
     0
  9
$DRAGMODE
 70
     2
  9
$LTSCALE
 40
1.0
  9
$OSMODE
 70
 14847
  9
$ATTMODE
 70
     1
  9
$TEXTSIZE
 40
0.2
  9
$TRACEWID
 40
0.05
  9
$TEXTSTYLE
  7
STANDARD
  9
$CLAYER
  8
KOTY
  9
$CELTYPE
  6
BYLAYER
  9
$CECOLOR
 62
   256
  9
$CELTSCALE
 40
1.0
  9
$DELOBJ
 70
     1
  9
$DISPSILH
 70
     0
  9
$DIMSCALE
 40
1.0
  9
$DIMASZ
 40
0.18
  9
$DIMEXO
 40
0.0625
  9
$DIMDLI
 40
0.38
  9
$DIMRND
 40
0.0
  9
$DIMDLE
 40
0.0
  9
$DIMEXE
 40
0.18
  9
$DIMTP
 40
0.0
  9
$DIMTM
 40
0.0
  9
$DIMTXT
 40
0.18
  9
$DIMCEN
 40
0.09
  9
$DIMTSZ
 40
0.0
  9
$DIMTOL
 70
     0
  9
$DIMLIM
 70
     0
  9
$DIMTIH
 70
     1
  9
$DIMTOH
 70
     1
  9
$DIMSE1
 70
     0
  9
$DIMSE2
 70
     0
  9
$DIMTAD
 70
     0
  9
$DIMZIN
 70
     0
  9
$DIMBLK
  1

  9
$DIMASO
 70
     1
  9
$DIMSHO
 70
     1
  9
$DIMPOST
  1

  9
$DIMAPOST
  1

  9
$DIMALT
 70
     0
  9
$DIMALTD
 70
     2
  9
$DIMALTF
 40
25.4
  9
$DIMLFAC
 40
1.0
  9
$DIMTOFL
 70
     0
  9
$DIMTVP
 40
0.0
  9
$DIMTIX
 70
     0
  9
$DIMSOXD
 70
     0
  9
$DIMSAH
 70
     0
  9
$DIMBLK1
  1

  9
$DIMBLK2
  1

  9
$DIMSTYLE
  2
STANDARD
  9
$DIMCLRD
 70
     0
  9
$DIMCLRE
 70
     0
  9
$DIMCLRT
 70
     0
  9
$DIMTFAC
 40
1.0
  9
$DIMGAP
 40
0.09
  9
$DIMJUST
 70
     0
  9
$DIMSD1
 70
     0
  9
$DIMSD2
 70
     0
  9
$DIMTOLJ
 70
     1
  9
$DIMTZIN
 70
     0
  9
$DIMALTZ
 70
     0
  9
$DIMALTTZ
 70
     0
  9
$DIMFIT
 70
     3
  9
$DIMUPT
 70
     0
  9
$DIMUNIT
 70
     2
  9
$DIMDEC
 70
     4
  9
$DIMTDEC
 70
     4
  9
$DIMALTU
 70
     2
  9
$DIMALTTD
 70
     2
  9
$DIMTXSTY
  7
STANDARD
  9
$DIMAUNIT
 70
     0
  9
$LUNITS
 70
     2
  9
$LUPREC
 70
     4
  9
$SKETCHINC
 40
0.1
  9
$FILLETRAD
 40
0.0
  9
$AUNITS
 70
     0
  9
$AUPREC
 70
     0
  9
$MENU
  1
.
  9
$ELEVATION
 40
0.0
  9
$PELEVATION
 40
0.0
  9
$THICKNESS
 40
0.0
  9
$LIMCHECK
 70
     0
  9
$CHAMFERA
 40
0.0
  9
$CHAMFERB
 40
0.0
  9
$CHAMFERC
 40
0.0
  9
$CHAMFERD
 40
0.0
  9
$SKPOLY
 70
     0
  9
$TDCREATE
 40
2452643.105050937
  9
$TDUPDATE
 40
2457470.448048021
  9
$TDINDWG
 40
0.003379919
  9
$TDUSRTIMER
 40
2457470.397313391
  9
$USRTIMER
 70
     1
  9
$ANGBASE
 50
0.0
  9
$ANGDIR
 70
     0
  9
$PDMODE
 70
     0
  9
$PDSIZE
 40
0.0
  9
$PLINEWID
 40
0.0
  9
$COORDS
 70
     1
  9
$SPLFRAME
 70
     0
  9
$SPLINETYPE
 70
     6
  9
$SPLINESEGS
 70
     8
  9
$ATTDIA
 70
     0
  9
$ATTREQ
 70
     1
  9
$HANDLING
 70
     1
  9
$HANDSEED
  5
25F
  9
$SURFTAB1
 70
     6
  9
$SURFTAB2
 70
     6
  9
$SURFTYPE
 70
     6
  9
$SURFU
 70
     6
  9
$SURFV
 70
     6
  9
$UCSNAME
  2

  9
$UCSORG
 10
0.0
 20
0.0
 30
0.0
  9
$UCSXDIR
 10
1.0
 20
0.0
 30
0.0
  9
$UCSYDIR
 10
0.0
 20
1.0
 30
0.0
  9
$PUCSNAME
  2

  9
$PUCSORG
 10
0.0
 20
0.0
 30
0.0
  9
$PUCSXDIR
 10
1.0
 20
0.0
 30
0.0
  9
$PUCSYDIR
 10
0.0
 20
1.0
 30
0.0
  9
$USERI1
 70
     0
  9
$USERI2
 70
     0
  9
$USERI3
 70
     0
  9
$USERI4
 70
     0
  9
$USERI5
 70
     0
  9
$USERR1
 40
0.0
  9
$USERR2
 40
0.0
  9
$USERR3
 40
0.0
  9
$USERR4
 40
0.0
  9
$USERR5
 40
0.0
  9
$WORLDVIEW
 70
     1
  9
$SHADEDGE
 70
     3
  9
$SHADEDIF
 70
    70
  9
$TILEMODE
 70
     0
  9
$MAXACTVP
 70
    64
  9
$PINSBASE
 10
0.0
 20
0.0
 30
0.0
  9
$PLIMCHECK
 70
     0
  9
$PEXTMIN
 10
1.05
 20
0.6999999999999997
 30
0.0
  9
$PEXTMAX
 10
9.45
 20
6.300000000000001
 30
0.0
  9
$PLIMMIN
 10
-0.25
 20
-0.7499999999999999
  9
$PLIMMAX
 10
10.75
 20
7.75
  9
$UNITMODE
 70
     0
  9
$VISRETAIN
 70
     1
  9
$PLINEGEN
 70
     0
  9
$PSLTSCALE
 70
     1
  9
$TREEDEPTH
 70
  3020
  9
$PICKSTYLE
 70
     1
  9
$CMLSTYLE
  2
STANDARD
  9
$CMLJUST
 70
     0
  9
$CMLSCALE
 40
1.0
  9
$PROXYGRAPHICS
 70
     1
  9
$MEASUREMENT
 70
     0
  0
ENDSEC
  0
SECTION
  2
CLASSES
  0
CLASS
  1
ACDBDICTIONARYWDFLT
  2
AcDbDictionaryWithDefault
  3
ObjectDBX Classes
 90
        0
280
     0
281
     0
  0
CLASS
  1
ACDBPLACEHOLDER
  2
AcDbPlaceHolder
  3
ObjectDBX Classes
 90
        0
280
     0
281
     0
  0
CLASS
  1
LAYOUT
  2
AcDbLayout
  3
ObjectDBX Classes
 90
        0
280
     0
281
     0
  0
CLASS
  1
DICTIONARYVAR
  2
AcDbDictionaryVar
  3
ObjectDBX Classes
 90
        0
280
     0
281
     0
  0
CLASS
  1
TABLESTYLE
  2
AcDbTableStyle
  3
ObjectDBX Classes
 90
     4095
280
     0
281
     0
  0
CLASS
  1
MATERIAL
  2
AcDbMaterial
  3
ObjectDBX Classes
 90
     1153
280
     0
281
     0
  0
CLASS
  1
VISUALSTYLE
  2
AcDbVisualStyle
  3
ObjectDBX Classes
 90
     4095
280
     0
281
     0
  0
CLASS
  1
SCALE
  2
AcDbScale
  3
ObjectDBX Classes
 90
     1153
280
     0
281
     0
  0
CLASS
  1
CELLSTYLEMAP
  2
AcDbCellStyleMap
  3
ObjectDBX Classes
 90
     1152
280
     0
281
     0
  0
CLASS
  1
RASTERVARIABLES
  2
AcDbRasterVariables
  3
ISM
 90
        0
280
     0
281
     0
  0
CLASS
  1
SUN
  2
AcDbSun
  3
SCENEOE
 90
     1153
280
     0
281
     0
  0
CLASS
  1
MLEADERSTYLE
  2
AcDbMLeaderStyle
  3
ACDB_MLEADERSTYLE_CLASS
 90
     4095
280
     0
281
     0
  0
CLASS
  1
DIMASSOC
  2
AcDbDimAssoc
  3
"AcDbDimAssoc|Product Desc:     AcDim ARX App For Dimension|Company:          Autodesk, Inc.|WEB Address:      www.autodesk.com"
 90
        0
280
     0
281
     0
  0
CLASS
  1
XRECORD
  2
AcDbXrecord
  3
ObjectDBX Classes
 90
        0
280
     0
281
     0
  0
CLASS
  1
LWPOLYLINE
  2
AcDbPolyline
  3
ObjectDBX Classes
 90
        0
280
     0
281
     1
  0
CLASS
  1
HATCH
  2
AcDbHatch
  3
ObjectDBX Classes
 90
        0
280
     0
281
     1
  0
ENDSEC
  0
SECTION
  2
TABLES
  0
TABLE
  2
VPORT
  5
8
330
0
100
AcDbSymbolTable
 70
     1
  0
VPORT
  5
94
330
8
100
AcDbSymbolTableRecord
100
AcDbViewportTableRecord
  2
*ACTIVE
 70
     0
 10
0.0
 20
0.0
 11
1.0
 21
1.0
 12
181.913986641559
 22
100.5621641139063
 13
0.0
 23
0.0
 14
0.5
 24
0.5
 15
0.5
 25
0.5
 16
0.0
 26
0.0
 36
1.0
 17
-27.66959356597982
 27
-19.53870295786196
 37
0.0
 40
102.4987016405374
 41
1.944153577661431
 42
50.0
 43
0.0
 44
0.0
 50
0.0
 51
0.0
 71
    16
 72
  1000
 73
     1
 74
     3
 75
     0
 76
     0
 77
     0
 78
     0
  0
ENDTAB
  0
TABLE
  2
LTYPE
  5
5
330
0
100
AcDbSymbolTable
 70
     1
  0
LTYPE
  5
14
330
5
100
AcDbSymbolTableRecord
100
AcDbLinetypeTableRecord
  2
BYBLOCK
 70
     0
  3

 72
    65
 73
     0
 40
0.0
  0
LTYPE
  5
15
330
5
100
AcDbSymbolTableRecord
100
AcDbLinetypeTableRecord
  2
BYLAYER
 70
     0
  3

 72
    65
 73
     0
 40
0.0
  0
LTYPE
  5
16
330
5
100
AcDbSymbolTableRecord
100
AcDbLinetypeTableRecord
  2
CONTINUOUS
 70
     0
  3
Solid line
 72
    65
 73
     0
 40
0.0
  0
ENDTAB
  0
TABLE
  2
LAYER
  5
2
102
{ACAD_XDICTIONARY
360
1AD
102
}
330
0
100
AcDbSymbolTable
 70
     4
  0
LAYER
  5
10
330
2
100
AcDbSymbolTableRecord
100
AcDbLayerTableRecord
  2
0
 70
     0
 62
     7
  6
CONTINUOUS
  0
LAYER
  5
126
330
2
100
AcDbSymbolTableRecord
100
AcDbLayerTableRecord
  2
OBRYS
 70
     0
 62
     5
  6
CONTINUOUS
  0
LAYER
  5
21D
330
2
100
AcDbSymbolTableRecord
100
AcDbLayerTableRecord
  2
DEFPOINTS
 70
     0
 62
     7
  6
CONTINUOUS
  0
LAYER
  5
230
330
2
100
AcDbSymbolTableRecord
100
AcDbLayerTableRecord
  2
KOTY
 70
     0
 62
     1
  6
CONTINUOUS
1001
ACAECLAYERSTANDARD
1000

1000

  0
ENDTAB
  0
TABLE
  2
STYLE
  5
3
330
0
100
AcDbSymbolTable
 70
     1
  0
STYLE
  5
11
330
3
100
AcDbSymbolTableRecord
100
AcDbTextStyleTableRecord
  2
STANDARD
 70
     0
 40
0.0
 41
1.0
 50
0.0
 71
     0
 42
0.2
  3
arial.ttf
  4

1001
ACAD
1000
Arial
1071
        0
  0
ENDTAB
  0
TABLE
  2
VIEW
  5
6
330
0
100
AcDbSymbolTable
 70
     0
  0
ENDTAB
  0
TABLE
  2
UCS
  5
7
330
0
100
AcDbSymbolTable
 70
     0
  0
ENDTAB
  0
TABLE
  2
APPID
  5
9
330
0
100
AcDbSymbolTable
 70
     2
  0
APPID
  5
12
330
9
100
AcDbSymbolTableRecord
100
AcDbRegAppTableRecord
  2
ACAD
 70
     0
  0
APPID
  5
231
330
9
100
AcDbSymbolTableRecord
100
AcDbRegAppTableRecord
  2
ACAECLAYERSTANDARD
 70
     0
  0
ENDTAB
  0
TABLE
  2
DIMSTYLE
  5
A
330
0
100
AcDbSymbolTable
 70
     1
  0
DIMSTYLE
105
27
102
{ACAD_REACTORS
330
21E
330
23A
330
24A
102
}
330
A
100
AcDbSymbolTableRecord
100
AcDbDimStyleTableRecord
  2
STANDARD
 70
     0
  3

  4

  5

  6

  7

 40
1.0
 41
0.18
 42
0.0625
 43
0.38
 44
0.18
 45
0.0
 46
0.0
 47
0.0
 48
0.0
140
0.18
141
0.09
142
0.0
143
25.4
144
1.0
145
0.0
146
1.0
147
0.09
 71
     0
 72
     0
 73
     1
 74
     1
 75
     0
 76
     0
 77
     0
 78
     0
170
     0
171
     2
172
     0
173
     0
174
     0
175
     0
176
     0
177
     0
178
     0
270
     2
271
     4
272
     4
273
     2
274
     2
340
11
275
     0
280
     0
281
     0
282
     0
283
     1
284
     0
285
     0
286
     0
287
     3
288
     0
  0
ENDTAB
  0
TABLE
  2
BLOCK_RECORD
  5
1
330
0
100
AcDbSymbolTable
 70
     5
  0
BLOCK_RECORD
  5
1F
330
1
100
AcDbSymbolTableRecord
100
AcDbBlockTableRecord
  2
*MODEL_SPACE
  0
BLOCK_RECORD
  5
58
330
1
100
AcDbSymbolTableRecord
100
AcDbBlockTableRecord
  2
*PAPER_SPACE
  0
BLOCK_RECORD
  5
5D
330
1
100
AcDbSymbolTableRecord
100
AcDbBlockTableRecord
  2
*PAPER_SPACE0
  0
BLOCK_RECORD
  5
221
330
1
100
AcDbSymbolTableRecord
100
AcDbBlockTableRecord
  2
*D2
  0
BLOCK_RECORD
  5
23D
330
1
100
AcDbSymbolTableRecord
100
AcDbBlockTableRecord
  2
*D3
  0
BLOCK_RECORD
  5
24D
330
1
100
AcDbSymbolTableRecord
100
AcDbBlockTableRecord
  2
*D4
  0
ENDTAB
  0
ENDSEC
  0
SECTION
  2
BLOCKS
  0
BLOCK
  5
20
330
1F
100
AcDbEntity
  8
0
100
AcDbBlockBegin
  2
*MODEL_SPACE
 70
     0
 10
0.0
 20
0.0
 30
0.0
  3
*MODEL_SPACE
  1

  0
ENDBLK
  5
21
330
1F
100
AcDbEntity
  8
0
100
AcDbBlockEnd
  0
BLOCK
  5
5A
330
58
100
AcDbEntity
 67
     1
  8
0
100
AcDbBlockBegin
  2
*PAPER_SPACE
 70
     0
 10
0.0
 20
0.0
 30
0.0
  3
*PAPER_SPACE
  1

  0
ENDBLK
  5
5B
330
58
100
AcDbEntity
 67
     1
  8
0
100
AcDbBlockEnd
  0
BLOCK
  5
5F
330
5D
100
AcDbEntity
  8
0
100
AcDbBlockBegin
  2
*PAPER_SPACE0
 70
     0
 10
0.0
 20
0.0
 30
0.0
  3
*PAPER_SPACE0
  1
*PAPER_SPACE0
  0
ENDBLK
  5
60
330
5D
100
AcDbEntity
  8
0
100
AcDbBlockEnd
  0
BLOCK
  5
222
330
221
100
AcDbEntity
  8
0
100
AcDbBlockBegin
  2
*D2
 70
     1
 10
0.0
 20
0.0
 30
0.0
  3
*D2
  1
*D2
  0
LINE
  5
224
330
221
100
AcDbEntity
  8
KOTY
 62
     0
100
AcDbLine
 10
85.07749367548055
 20
93.08176059662775
 30
0.0
 11
85.07749367548055
 21
120.9679212816854
 31
0.0
  0
LINE
  5
225
330
221
100
AcDbEntity
  8
KOTY
 62
     0
100
AcDbLine
 10
106.3774995836303
 20
93.20096097905325
 30
0.0
 11
106.3774995836303
 21
120.9679212816854
 31
0.0
  0
LINE
  5
226
330
221
100
AcDbEntity
  8
KOTY
 62
     0
100
AcDbLine
 10
88.07749367548055
 20
120.7879212816854
 30
0.0
 11
103.3774995836303
 21
120.7879212816854
 31
0.0
  0
SOLID
  5
227
330
221
100
AcDbEntity
  8
KOTY
 62
     0
100
AcDbTrace
 10
88.07749367548055
 20
121.2879212816854
 30
0.0
 11
88.07749367548055
 21
120.2879212816854
 31
0.0
 12
85.07749367548055
 22
120.7879212816854
 32
0.0
 13
85.07749367548055
 23
120.7879212816854
 33
0.0
  0
SOLID
  5
228
330
221
100
AcDbEntity
  8
KOTY
 62
     0
100
AcDbTrace
 10
103.3774995836303
 20
120.2879212816854
 30
0.0
 11
103.3774995836303
 21
121.2879212816854
 31
0.0
 12
106.3774995836303
 22
120.7879212816854
 32
0.0
 13
106.3774995836303
 23
120.7879212816854
 33
0.0
  0
MTEXT
  5
229
330
221
100
AcDbEntity
  8
KOTY
 62
     0
100
AcDbMText
 10
95.72749662955542
 20
123.2939212816854
 30
0.0
 40
3.0
 41
0.0
 71
     5
 72
     1
  1
\A1;21
  0
POINT
  5
22A
330
221
100
AcDbEntity
  8
DEFPOINTS
 62
     0
100
AcDbPoint
 10
85.07749367548055
 20
93.01926059662775
 30
0.0
  0
POINT
  5
22B
330
221
100
AcDbEntity
  8
DEFPOINTS
 62
     0
100
AcDbPoint
 10
106.3774995836303
 20
93.13846097905325
 30
0.0
  0
POINT
  5
22C
330
221
100
AcDbEntity
  8
DEFPOINTS
 62
     0
100
AcDbPoint
 10
106.3774995836303
 20
120.7879212816854
 30
0.0
  0
ENDBLK
  5
223
330
221
100
AcDbEntity
  8
0
100
AcDbBlockEnd
  0
BLOCK
  5
23E
330
23D
100
AcDbEntity
  8
0
100
AcDbBlockBegin
  2
*D3
 70
     1
 10
0.0
 20
0.0
 30
0.0
  3
*D3
  1
*D3
  0
LINE
  5
240
330
23D
100
AcDbEntity
  8
KOTY
 62
     0
100
AcDbLine
 10
144.7507209606866
 20
91.30098956553734
 30
0.0
 11
144.7507209606866
 21
120.9679212816854
 31
0.0
  0
LINE
  5
241
330
23D
100
AcDbEntity
  8
KOTY
 62
     0
100
AcDbLine
 10
197.2505656942647
 20
91.30098956553734
 30
0.0
 11
197.2505656942647
 21
120.9679212816854
 31
0.0
  0
LINE
  5
242
330
23D
100
AcDbEntity
  8
KOTY
 62
     0
100
AcDbLine
 10
147.7507209606866
 20
120.7879212816854
 30
0.0
 11
194.2505656942647
 21
120.7879212816854
 31
0.0
  0
SOLID
  5
243
330
23D
100
AcDbEntity
  8
KOTY
 62
     0
100
AcDbTrace
 10
147.7507209606866
 20
121.2879212816854
 30
0.0
 11
147.7507209606866
 21
120.2879212816854
 31
0.0
 12
144.7507209606866
 22
120.7879212816854
 32
0.0
 13
144.7507209606866
 23
120.7879212816854
 33
0.0
  0
SOLID
  5
244
330
23D
100
AcDbEntity
  8
KOTY
 62
     0
100
AcDbTrace
 10
194.2505656942647
 20
120.2879212816854
 30
0.0
 11
194.2505656942647
 21
121.2879212816854
 31
0.0
 12
197.2505656942647
 22
120.7879212816854
 32
0.0
 13
197.2505656942647
 23
120.7879212816854
 33
0.0
  0
MTEXT
  5
245
330
23D
100
AcDbEntity
  8
KOTY
 62
     0
100
AcDbMText
 10
171.0006433274756
 20
123.3194212816854
 30
0.0
 40
3.0
 41
0.0
 71
     5
 72
     1
  1
\A1;53
  0
POINT
  5
246
330
23D
100
AcDbEntity
  8
DEFPOINTS
 62
     0
100
AcDbPoint
 10
144.7507209606866
 20
91.23848956553734
 30
0.0
  0
POINT
  5
247
330
23D
100
AcDbEntity
  8
DEFPOINTS
 62
     0
100
AcDbPoint
 10
197.2505656942647
 20
91.23848956553734
 30
0.0
  0
POINT
  5
248
330
23D
100
AcDbEntity
  8
DEFPOINTS
 62
     0
100
AcDbPoint
 10
197.2505656942647
 20
120.7879212816854
 30
0.0
  0
ENDBLK
  5
23F
330
23D
100
AcDbEntity
  8
0
100
AcDbBlockEnd
  0
BLOCK
  5
24E
330
24D
100
AcDbEntity
  8
0
100
AcDbBlockBegin
  2
*D4
 70
     1
 10
0.0
 20
0.0
 30
0.0
  3
*D4
  1
*D4
  0
LINE
  5
250
330
24D
100
AcDbEntity
  8
KOTY
 62
     0
100
AcDbLine
 10
195.2132786107871
 20
93.33862115879084
 30
0.0
 11
216.8475364158203
 21
93.33862115879084
 31
0.0
  0
LINE
  5
251
330
24D
100
AcDbEntity
  8
KOTY
 62
     0
100
AcDbLine
 10
190.8131997543184
 20
39.44351183323813
 30
0.0
 11
216.8475364158203
 21
39.44351183323813
 31
0.0
  0
LINE
  5
252
330
24D
100
AcDbEntity
  8
KOTY
 62
     0
100
AcDbLine
 10
216.6675364158203
 20
90.33862115879084
 30
0.0
 11
216.6675364158203
 21
42.44351183323813
 31
0.0
  0
SOLID
  5
253
330
24D
100
AcDbEntity
  8
KOTY
 62
     0
100
AcDbTrace
 10
217.1675364158203
 20
90.33862115879084
 30
0.0
 11
216.1675364158203
 21
90.33862115879084
 31
0.0
 12
216.6675364158203
 22
93.33862115879084
 32
0.0
 13
216.6675364158203
 23
93.33862115879084
 33
0.0
  0
SOLID
  5
254
330
24D
100
AcDbEntity
  8
KOTY
 62
     0
100
AcDbTrace
 10
216.1675364158203
 20
42.44351183323813
 30
0.0
 11
217.1675364158203
 21
42.44351183323813
 31
0.0
 12
216.6675364158203
 22
39.44351183323813
 32
0.0
 13
216.6675364158203
 23
39.44351183323813
 33
0.0
  0
MTEXT
  5
255
330
24D
100
AcDbEntity
  8
KOTY
 62
     0
100
AcDbMText
 10
214.1420364158203
 20
66.39106649601449
 30
0.0
 40
3.0
 41
0.0
 71
     5
 72
     1
  1
\A1;54
 11
0.0
 21
1.0
 31
0.0
  0
POINT
  5
256
330
24D
100
AcDbEntity
  8
DEFPOINTS
 62
     0
100
AcDbPoint
 10
195.1507786107871
 20
93.33862115879084
 30
0.0
  0
POINT
  5
257
330
24D
100
AcDbEntity
  8
DEFPOINTS
 62
     0
100
AcDbPoint
 10
190.7506997543184
 20
39.44351183323813
 30
0.0
  0
POINT
  5
258
330
24D
100
AcDbEntity
  8
DEFPOINTS
 62
     0
100
AcDbPoint
 10
216.6675364158203
 20
39.44351183323813
 30
0.0
  0
ENDBLK
  5
24F
330
24D
100
AcDbEntity
  8
0
100
AcDbBlockEnd
  0
ENDSEC
  0
SECTION
  2
ENTITIES
  0
LINE
  5
1B2
102
{ACAD_REACTORS
102
}
330
1F
100
AcDbEntity
  8
OBRYS
 62
     5
100
AcDbLine
 10
85.07749367548055
 20
39.65228475737065
 30
0.0
 11
85.07749367548055
 21
93.01926059662775
 31
0.0
  0
LINE
  5
1B3
330
1F
100
AcDbEntity
  8
OBRYS
 62
     5
100
AcDbLine
 10
86.3776735693353
 20
39.33843635162036
 30
0.0
 11
86.3776735693353
 21
93.33862115879084
 31
0.0
  0
LINE
  5
1B4
330
1F
100
AcDbEntity
  8
OBRYS
 62
     5
100
AcDbLine
 10
106.3774995836303
 20
93.13846097905325
 30
0.0
 11
106.3774995836303
 21
39.53859653135784
 31
0.0
  0
LINE
  5
1B5
330
1F
100
AcDbEntity
  8
OBRYS
 62
     5
100
AcDbLine
 10
86.3776735693353
 20
39.43834418660124
 30
0.0
 11
85.27420875746014
 21
39.45246908740886
 31
0.0
  0
LINE
  5
1B6
330
1F
100
AcDbEntity
  8
OBRYS
 62
     5
100
AcDbLine
 10
106.1776839136685
 20
39.33843635162036
 30
0.0
 11
86.3776735693353
 21
39.33843635162036
 31
0.0
  0
LINE
  5
1B7
330
1F
100
AcDbEntity
  8
OBRYS
 62
     5
100
AcDbLine
 10
85.27420875746016
 20
93.21942077636534
 30
0.0
 11
86.3776735693353
 21
93.23871332380996
 31
0.0
  0
LINE
  5
1B8
330
1F
100
AcDbEntity
  8
OBRYS
 62
     5
100
AcDbLine
 10
86.3776735693353
 20
93.33862115879084
 30
0.0
 11
106.1776839136685
 21
93.33862115879084
 31
0.0
  0
LINE
  5
1B9
330
1F
100
AcDbEntity
  8
OBRYS
 62
     5
100
AcDbLine
 10
104.3776203351335
 20
51.08863127470023
 30
0.0
 11
86.3776735693353
 21
51.08863127470023
 31
0.0
  0
LINE
  5
1BA
330
1F
100
AcDbEntity
  8
OBRYS
 62
     5
100
AcDbLine
 10
104.8775040198138
 20
104.0887042027344
 30
0.0
 11
104.8775040198138
 21
93.33862115879084
 31
0.0
  0
LINE
  5
1BB
330
1F
100
AcDbEntity
  8
OBRYS
 62
     5
100
AcDbLine
 10
106.2775917486494
 20
104.0887042027344
 30
0.0
 11
106.2775917486494
 21
93.31185245388794
 31
0.0
  0
LINE
  5
1BC
330
1F
100
AcDbEntity
  8
OBRYS
 62
     5
100
AcDbLine
 10
106.2775917486494
 20
104.0887042027344
 30
0.0
 11
104.8775040198138
 21
104.0887042027344
 31
0.0
  0
LINE
  5
1BD
330
1F
100
AcDbEntity
  8
OBRYS
 62
     5
100
AcDbLine
 10
104.3776203351335
 20
55.28476034389756
 30
0.0
 11
106.3774995836303
 21
55.31714426282245
 31
0.0
  0
LINE
  5
1BE
330
1F
100
AcDbEntity
  8
OBRYS
 62
     5
100
AcDbLine
 10
104.3776203351335
 20
39.33843635162036
 30
0.0
 11
104.3776203351335
 21
55.28476034389756
 31
0.0
  0
LINE
  5
1BF
330
1F
100
AcDbEntity
  8
OBRYS
 62
     5
100
AcDbLine
 10
98.35214435645852
 20
111.4157381143674
 30
0.0
 11
94.35204134968922
 21
111.4157381143674
 31
0.0
  0
LINE
  5
1C0
330
1F
100
AcDbEntity
  8
OBRYS
 62
     5
100
AcDbLine
 10
94.35204134968922
 20
111.4157381143674
 30
0.0
 11
94.35204134968922
 21
103.9965645014781
 31
0.0
  0
LINE
  5
1C1
330
1F
100
AcDbEntity
  8
OBRYS
 62
     5
100
AcDbLine
 10
98.35214435645852
 20
103.2659011035808
 30
0.0
 11
98.35214435645852
 21
111.4157381143674
 31
0.0
  0
LINE
  5
1C2
330
1F
100
AcDbEntity
  8
OBRYS
 62
     5
100
AcDbLine
 10
94.34790723237965
 20
101.2374683921565
 30
0.0
 11
94.34790723237965
 21
93.33862115879084
 31
0.0
  0
LINE
  5
1C3
330
1F
100
AcDbEntity
  8
OBRYS
 62
     5
100
AcDbLine
 10
98.34801023914898
 20
93.33862115879084
 30
0.0
 11
98.34801023914898
 21
100.5125937023081
 31
0.0
  0
LINE
  5
1C4
330
1F
100
AcDbEntity
  8
OBRYS
 62
     5
100
AcDbLine
 10
191.0679932578267
 20
70.66023163768064
 30
0.0
 11
191.0679932578267
 21
51.08863127470023
 31
0.0
  0
LINE
  5
1C5
330
1F
100
AcDbEntity
  8
OBRYS
 62
     5
100
AcDbLine
 10
181.9119569464919
 20
111.4157381143674
 30
0.0
 11
177.9118539397226
 21
111.4157381143674
 31
0.0
  0
LINE
  5
1C6
330
1F
100
AcDbEntity
  8
OBRYS
 62
     5
100
AcDbLine
 10
156.8829772251244
 20
41.36518736262916
 30
0.0
 11
156.7172680229665
 21
46.11804422951316
 31
0.0
  0
LINE
  5
1C7
330
1F
100
AcDbEntity
  8
OBRYS
 62
     5
100
AcDbLine
 10
183.0195558756766
 20
39.33843635162036
 30
0.0
 11
158.9817307792747
 21
39.33843635162036
 31
0.0
  0
LINE
  5
1C8
330
1F
100
AcDbEntity
  8
OBRYS
 62
     5
100
AcDbLine
 10
185.2843631417606
 20
46.11804422951316
 30
0.0
 11
185.1183094298269
 21
41.36518736262916
 31
0.0
  0
LINE
  5
1C9
330
1F
100
AcDbEntity
  8
OBRYS
 62
     5
100
AcDbLine
 10
195.1507786107871
 20
51.08863127470023
 30
0.0
 11
190.4309946823796
 21
51.08863127470023
 31
0.0
  0
LINE
  5
1CA
102
{ACAD_REACTORS
102
}
330
1F
100
AcDbEntity
  8
OBRYS
 62
     5
100
AcDbLine
 10
197.2505656942647
 20
91.23848956553734
 30
0.0
 11
197.2505656942647
 21
53.18841835817794
 31
0.0
  0
LINE
  5
1CB
102
{ACAD_REACTORS
102
}
330
1F
100
AcDbEntity
  8
OBRYS
 62
     5
100
AcDbLine
 10
146.8505080441642
 20
93.33862115879084
 30
0.0
 11
195.1507786107871
 21
93.33862115879084
 31
0.0
  0
LINE
  5
1CC
330
1F
100
AcDbEntity
  8
OBRYS
 62
     5
100
AcDbLine
 10
144.7507209606866
 20
53.18841835817794
 30
0.0
 11
144.7507209606866
 21
91.23848956553734
 31
0.0
  0
LINE
  5
1CD
330
1F
100
AcDbEntity
  8
OBRYS
 62
     5
100
AcDbLine
 10
151.5702919725717
 20
51.08863127470023
 30
0.0
 11
146.8505080441642
 21
51.08863127470023
 31
0.0
  0
LINE
  5
1CE
330
1F
100
AcDbEntity
  8
OBRYS
 62
     5
100
AcDbLine
 10
152.5008128769972
 20
56.58838533551024
 30
0.0
 11
152.5008128769972
 21
76.08832766512505
 31
0.0
  0
LINE
  5
1CF
330
1F
100
AcDbEntity
  8
OBRYS
 62
     5
100
AcDbLine
 10
186.5008271600969
 20
53.58839420787724
 30
0.0
 11
155.5008040046302
 21
53.58839420787724
 31
0.0
  0
LINE
  5
1D0
330
1F
100
AcDbEntity
  8
OBRYS
 62
     5
100
AcDbLine
 10
189.5008182877299
 20
76.08832766512505
 30
0.0
 11
189.5008182877299
 21
56.58838533551024
 31
0.0
  0
LINE
  5
1D1
330
1F
100
AcDbEntity
  8
OBRYS
 62
     5
100
AcDbLine
 10
155.5008040046302
 20
79.08831879275805
 30
0.0
 11
186.5008271600969
 21
79.08831879275805
 31
0.0
  0
LINE
  5
1D2
330
1F
100
AcDbEntity
  8
OBRYS
 62
     5
100
AcDbLine
 10
166.5006566360261
 20
99.58871751128494
 30
0.0
 11
166.5006566360261
 21
93.33862115879084
 31
0.0
  0
LINE
  5
1D3
330
1F
100
AcDbEntity
  8
OBRYS
 62
     5
100
AcDbLine
 10
175.5006300189252
 20
99.58871751128494
 30
0.0
 11
175.5006300189252
 21
93.33862115879084
 31
0.0
  0
LINE
  5
1D4
330
1F
100
AcDbEntity
  8
OBRYS
 62
     5
100
AcDbLine
 10
197.1454902126469
 20
45.83830229156665
 30
0.0
 11
197.1454902126469
 21
52.53178272551044
 31
0.0
  0
LINE
  5
1D5
330
1F
100
AcDbEntity
  8
OBRYS
 62
     5
100
AcDbLine
 10
151.2505869006329
 20
39.44351183323813
 30
0.0
 11
158.3259496092742
 21
39.44351183323813
 31
0.0
  0
LINE
  5
1D6
330
1F
100
AcDbEntity
  8
OBRYS
 62
     5
100
AcDbLine
 10
183.6771193352349
 20
39.44351183323813
 30
0.0
 11
190.7506997543184
 21
39.44351183323813
 31
0.0
  0
LINE
  5
1D7
330
1F
100
AcDbEntity
  8
OBRYS
 62
     5
100
AcDbLine
 10
144.8561409520802
 20
52.53133115786933
 30
0.0
 11
144.8561409520802
 21
45.83830229156665
 31
0.0
  0
LINE
  5
1D8
330
1F
100
AcDbEntity
  8
OBRYS
 62
     5
100
AcDbLine
 10
177.9118539397226
 20
111.4157381143674
 30
0.0
 11
177.9118539397226
 21
103.9965645014781
 31
0.0
  0
LINE
  5
1D9
330
1F
100
AcDbEntity
  8
OBRYS
 62
     5
100
AcDbLine
 10
181.9119569464919
 20
103.2659011035808
 30
0.0
 11
181.9119569464919
 21
111.4157381143674
 31
0.0
  0
LINE
  5
1DA
330
1F
100
AcDbEntity
  8
OBRYS
 62
     5
100
AcDbLine
 10
177.907719822413
 20
101.2374683921565
 30
0.0
 11
177.907719822413
 21
93.51638820310164
 31
0.0
  0
LINE
  5
1DB
330
1F
100
AcDbEntity
  8
OBRYS
 62
     5
100
AcDbLine
 10
181.9078228291824
 20
93.38512997852324
 30
0.0
 11
181.9078228291824
 21
100.5125937023081
 31
0.0
  0
LINE
  5
1DC
330
1F
100
AcDbEntity
  8
OBRYS
 62
     5
100
AcDbLine
 10
194.0679843854597
 20
75.31662576734165
 30
0.0
 11
194.0679843854597
 21
93.33862115879084
 31
0.0
  0
LINE
  5
1DD
330
1F
100
AcDbEntity
  8
OBRYS
 62
     5
100
AcDbLine
 10
191.6777755609859
 20
72.13266641943345
 30
0.0
 11
193.506433450912
 21
73.96132430935954
 31
0.0
  0
LINE
  5
1DE
330
1F
100
AcDbEntity
  8
OBRYS
 62
     5
100
AcDbLine
 10
163.755947252258
 20
111.4157381143674
 30
0.0
 11
159.7558442454887
 21
111.4157381143674
 31
0.0
  0
LINE
  5
1DF
330
1F
100
AcDbEntity
  8
OBRYS
 62
     5
100
AcDbLine
 10
159.7558442454887
 20
111.4157381143674
 30
0.0
 11
159.7558442454887
 21
103.9965645014781
 31
0.0
  0
LINE
  5
1E0
330
1F
100
AcDbEntity
  8
OBRYS
 62
     5
100
AcDbLine
 10
163.755947252258
 20
103.2659011035808
 30
0.0
 11
163.755947252258
 21
111.4157381143674
 31
0.0
  0
LINE
  5
1E1
330
1F
100
AcDbEntity
  8
OBRYS
 62
     5
100
AcDbLine
 10
159.7517101281791
 20
101.2374683921565
 30
0.0
 11
159.7517101281791
 21
93.33862115879084
 31
0.0
  0
LINE
  5
1E2
330
1F
100
AcDbEntity
  8
OBRYS
 62
     5
100
AcDbLine
 10
163.7518131349485
 20
93.33862115879084
 30
0.0
 11
163.7518131349485
 21
100.5125937023081
 31
0.0
  0
LINE
  5
1E3
330
1F
100
AcDbEntity
  8
OBRYS
 62
     5
100
AcDbLine
 10
169.0579527017611
 20
46.21760755471824
 30
0.0
 11
166.3528619422095
 21
43.51217228539095
 31
0.0
  0
LINE
  5
1E4
330
1F
100
AcDbEntity
  8
OBRYS
 62
     5
100
AcDbLine
 10
165.8223168874834
 20
44.04271734011705
 30
0.0
 11
168.5387764696362
 21
46.75883241249404
 31
0.0
  0
ARC
  5
1E5
330
1F
100
AcDbEntity
  8
OBRYS
 62
     5
100
AcDbCircle
 10
85.27770711396136
 20
39.65265229733346
 30
0.0
 40
0.2002137758345496
100
AcDbArc
 50
180.1051800777006
 51
268.9988138291586
  0
ARC
  5
1E6
330
1F
100
AcDbEntity
  8
OBRYS
 62
     5
100
AcDbCircle
 10
106.177687396419
 20
39.53824884130601
 30
0.0
 40
0.1998124897160076
100
AcDbArc
 50
269.9990013291586
 51
0.0996993863084261
  0
ARC
  5
1E7
102
{ACAD_REACTORS
102
}
330
1F
100
AcDbEntity
  8
OBRYS
 62
     5
100
AcDbCircle
 10
106.177687396419
 20
93.13880866910516
 30
0.0
 40
0.199812489716036
100
AcDbArc
 50
359.9003006136671
 51
90.0009986708373
  0
ARC
  5
1E8
330
1F
100
AcDbEntity
  8
OBRYS
 62
     5
100
AcDbCircle
 10
85.2805630258832
 20
93.01643114574831
 30
0.0
 40
0.2030890614120577
100
AcDbArc
 50
91.79296800799068
 51
179.2017254027841
  0
ARC
  5
1E9
330
1F
100
AcDbEntity
  8
OBRYS
 62
     5
100
AcDbCircle
 10
94.85226954414601
 20
101.333483848457
 30
0.0
 40
2.70965437113748
100
AcDbArc
 50
56.3786664283875
 51
123.6213335707984
  0
ARC
  5
1EA
330
1F
100
AcDbEntity
  8
OBRYS
 62
     5
100
AcDbCircle
 10
97.80553289937598
 20
106.2248917900544
 30
0.0
 40
3.009054663453582
100
AcDbArc
 50
241.1282670575332
 51
306.8785116106326
  0
ARC
  5
1EB
330
1F
100
AcDbEntity
  8
OBRYS
 62
     5
100
AcDbCircle
 10
97.67186310636707
 20
103.4446978993793
 30
0.0
 40
3.009054663453582
100
AcDbArc
 50
241.1282670575332
 51
306.8785116106326
  0
ARC
  5
1EC
330
1F
100
AcDbEntity
  8
OBRYS
 62
     5
100
AcDbCircle
 10
94.7185997511371
 20
98.55328995778193
 30
0.0
 40
2.70965437113748
100
AcDbArc
 50
56.3786664283875
 51
123.6213335707984
  0
LINE
  5
1ED
330
1F
100
AcDbEntity
  8
OBRYS
 62
     5
100
AcDbLine
 10
86.3776735693353
 20
51.18856686232509
 30
0.0
 11
85.27420875746014
 21
51.20269176313271
 31
0.0
  0
ARC
  5
1EE
330
1F
100
AcDbEntity
  8
OBRYS
 62
     5
100
AcDbCircle
 10
85.27770711396136
 20
51.40287497305731
 30
0.0
 40
0.2002137758345496
100
AcDbArc
 50
180.1051800777006
 51
268.9988138291586
  0
ARC
  5
1EF
330
1F
100
AcDbEntity
  8
OBRYS
 62
     5
100
AcDbCircle
 10
151.250862105557
 20
45.8382329811687
 30
0.0
 40
6.394721153852464
100
AcDbArc
 50
179.9993789888279
 51
269.9975342035594
  0
ARC
  5
1F0
330
1F
100
AcDbEntity
  8
OBRYS
 62
     5
100
AcDbCircle
 10
158.9819447397047
 20
41.43869045186925
 30
0.0
 40
2.100254111147348
100
AcDbArc
 50
182.0056034846413
 51
269.9941630731346
  0
ARC
  5
1F1
330
1F
100
AcDbEntity
  8
OBRYS
 62
     5
100
AcDbCircle
 10
151.5700506468476
 20
45.93827561579072
 30
0.0
 40
5.150355664563318
100
AcDbArc
 50
2.000264851700686
 51
89.99731534162287
  0
CIRCLE
  5
1F2
330
1F
100
AcDbEntity
  8
OBRYS
 62
     5
100
AcDbCircle
 10
151.2505869006329
 20
45.83830229156665
 30
0.0
 40
2.122180218904418
  0
ARC
  5
1F3
330
1F
100
AcDbEntity
  8
OBRYS
 62
     5
100
AcDbCircle
 10
146.8503649408087
 20
53.18827525482239
 30
0.0
 40
2.09964398499883
100
AcDbArc
 50
179.9960949482996
 51
270.0039050516988
  0
ARC
  5
1F4
102
{ACAD_REACTORS
102
}
330
1F
100
AcDbEntity
  8
OBRYS
 62
     5
100
AcDbCircle
 10
146.8508795821309
 20
91.23846257003736
 30
0.0
 40
2.10015862161778
100
AcDbArc
 50
90.0101361665306
 51
179.9992635183844
  0
ARC
  5
1F5
330
1F
100
AcDbEntity
  8
OBRYS
 62
     5
100
AcDbCircle
 10
195.1504070728205
 20
91.23846257003741
 30
0.0
 40
2.100158621617724
100
AcDbArc
 50
0.00073648161407
 51
89.98986383347018
  0
ARC
  5
1F6
330
1F
100
AcDbEntity
  8
OBRYS
 62
     5
100
AcDbCircle
 10
195.1509217141425
 20
53.18827525482241
 30
0.0
 40
2.099643984998858
100
AcDbArc
 50
269.9960949483035
 51
0.0039050516995971
  0
ARC
  5
1F7
330
1F
100
AcDbEntity
  8
OBRYS
 62
     5
100
AcDbCircle
 10
190.4312843536091
 20
45.9385822980485
 30
0.0
 40
5.150048984798199
100
AcDbArc
 50
90.0032226759307
 51
178.0030299917956
  0
ARC
  5
1F8
102
{ACAD_REACTORS
102
}
330
1F
100
AcDbEntity
  8
OBRYS
 62
     5
100
AcDbCircle
 10
190.750474999722
 20
45.83852704616298
 30
0.0
 40
6.395015216874378
100
AcDbArc
 50
270.002013676178
 51
359.9979863238221
  0
CIRCLE
  5
1F9
330
1F
100
AcDbEntity
  8
OBRYS
 62
     5
100
AcDbCircle
 10
190.7506997543184
 20
45.83830229156665
 30
0.0
 40
2.122180218904418
  0
ARC
  5
1FA
330
1F
100
AcDbEntity
  8
OBRYS
 62
     5
100
AcDbCircle
 10
193.1519070306906
 20
70.65969890228818
 30
0.0
 40
2.083913840958573
100
AcDbArc
 50
135.0226288855714
 51
179.9853528061874
  0
ARC
  5
1FB
330
1F
100
AcDbEntity
  8
OBRYS
 62
     5
100
AcDbCircle
 10
192.1499086288139
 20
75.31736839668211
 30
0.0
 40
1.918075900409256
100
AcDbArc
 50
315.0101542391489
 51
359.9778165566831
  0
ARC
  5
1FC
330
1F
100
AcDbEntity
  8
OBRYS
 62
     5
100
AcDbCircle
 10
155.5004933429995
 20
76.08863832675569
 30
0.0
 40
2.999680482089182
100
AcDbArc
 50
89.99406616790296
 51
180.0059338320965
  0
ARC
  5
1FD
330
1F
100
AcDbEntity
  8
OBRYS
 62
     5
100
AcDbCircle
 10
186.5009173175364
 20
76.08841782256458
 30
0.0
 40
2.999900971548238
100
AcDbArc
 50
359.9982780629005
 51
90.00172193709945
  0
ARC
  5
1FE
330
1F
100
AcDbEntity
  8
OBRYS
 62
     5
100
AcDbCircle
 10
186.5009173175363
 20
56.58829517807079
 30
0.0
 40
2.999900971548322
100
AcDbArc
 50
269.9982780629022
 51
0.0017219370978107
  0
ARC
  5
1FF
330
1F
100
AcDbEntity
  8
OBRYS
 62
     5
100
AcDbCircle
 10
155.5004566500332
 20
56.58803798091331
 30
0.0
 40
2.99964379314766
100
AcDbArc
 50
179.9933652280687
 51
270.0066347719319
  0
CIRCLE
  5
200
330
1F
100
AcDbEntity
  8
OBRYS
 62
     5
100
AcDbCircle
 10
171.0006433274757
 20
99.58837300150908
 30
0.0
 40
2.15008551074385
  0
ARC
  5
201
330
1F
100
AcDbEntity
  8
OBRYS
 62
     5
100
AcDbCircle
 10
171.0006433274756
 20
99.58871751128491
 30
0.0
 40
4.49998669144955
100
AcDbArc
 50
0.0000000000003619
 51
179.9999999999996
  0
ARC
  5
202
330
1F
100
AcDbEntity
  8
OBRYS
 62
     5
100
AcDbCircle
 10
160.2560724399455
 20
101.333483848457
 30
0.0
 40
2.70965437113748
100
AcDbArc
 50
56.37866642838775
 51
123.6213335707987
  0
ARC
  5
203
330
1F
100
AcDbEntity
  8
OBRYS
 62
     5
100
AcDbCircle
 10
163.2093357951754
 20
106.2248917900544
 30
0.0
 40
3.009054663453582
100
AcDbArc
 50
241.1282670575332
 51
306.8785116106326
  0
ARC
  5
204
330
1F
100
AcDbEntity
  8
OBRYS
 62
     5
100
AcDbCircle
 10
160.1224026469365
 20
98.55328995778193
 30
0.0
 40
2.70965437113748
100
AcDbArc
 50
56.37866642838708
 51
123.621333570798
  0
ARC
  5
205
330
1F
100
AcDbEntity
  8
OBRYS
 62
     5
100
AcDbCircle
 10
163.0756660021665
 20
103.4446978993793
 30
0.0
 40
3.009054663453582
100
AcDbArc
 50
241.1282670575332
 51
306.8785116106326
  0
ARC
  5
206
330
1F
100
AcDbEntity
  8
OBRYS
 62
     5
100
AcDbCircle
 10
178.4120821341794
 20
101.333483848457
 30
0.0
 40
2.70965437113748
100
AcDbArc
 50
56.37866642838775
 51
123.6213335707987
  0
ARC
  5
207
330
1F
100
AcDbEntity
  8
OBRYS
 62
     5
100
AcDbCircle
 10
181.3653454894093
 20
106.2248917900544
 30
0.0
 40
3.009054663453582
100
AcDbArc
 50
241.1282670575332
 51
306.8785116106326
  0
ARC
  5
208
330
1F
100
AcDbEntity
  8
OBRYS
 62
     5
100
AcDbCircle
 10
178.2784123411705
 20
98.55328995778193
 30
0.0
 40
2.70965437113748
100
AcDbArc
 50
56.37866642838792
 51
123.6213335707989
  0
ARC
  5
209
330
1F
100
AcDbEntity
  8
OBRYS
 62
     5
100
AcDbCircle
 10
181.2316756964004
 20
103.4446978993793
 30
0.0
 40
3.009054663453582
100
AcDbArc
 50
241.1282670575332
 51
306.8785116106326
  0
ARC
  5
20A
330
1F
100
AcDbEntity
  8
OBRYS
 62
     5
100
AcDbCircle
 10
167.4502866683408
 20
45.14014206624826
 30
0.0
 40
1.963320309299772
100
AcDbArc
 50
213.9841589003989
 51
236.0158410995981
  0
ARC
  5
20B
330
1F
100
AcDbEntity
  8
OBRYS
 62
     5
100
AcDbCircle
 10
167.6552722841521
 20
45.39169541426769
 30
0.0
 40
1.62777247110499
100
AcDbArc
 50
30.48999863266697
 51
57.12767415767235
  0
CIRCLE
  5
20C
330
1F
100
AcDbEntity
  8
OBRYS
 62
     5
100
AcDbCircle
 10
167.4429770002725
 20
45.13283239818007
 30
0.0
 40
2.249938066418709
  0
ARC
  5
20D
330
1F
100
AcDbEntity
  8
OBRYS
 62
     5
100
AcDbCircle
 10
167.4458192059228
 20
45.13567460383037
 30
0.0
 40
1.903114550224881
100
AcDbArc
 50
56.36890388435283
 51
213.6310961156503
  0
ARC
  5
20E
330
1F
100
AcDbEntity
  8
OBRYS
 62
     5
100
AcDbCircle
 10
167.4456815639443
 20
45.13567460383037
 30
0.0
 40
1.902942311248141
100
AcDbArc
 50
236.3579728871311
 51
33.63454578108914
  0
LINE
  5
20F
330
1F
100
AcDbEntity
  8
OBRYS
 62
     5
100
AcDbLine
 10
176.5581542902662
 20
46.21769368216216
 30
0.0
 11
173.8530635307146
 21
43.51225841283487
 31
0.0
  0
LINE
  5
210
330
1F
100
AcDbEntity
  8
OBRYS
 62
     5
100
AcDbLine
 10
173.3225184759885
 20
44.04280346756097
 30
0.0
 11
176.0389780581413
 21
46.75891853993797
 31
0.0
  0
ARC
  5
211
330
1F
100
AcDbEntity
  8
OBRYS
 62
     5
100
AcDbCircle
 10
174.9504882568459
 20
45.14022819369218
 30
0.0
 40
1.963320309299772
100
AcDbArc
 50
213.9841589003989
 51
236.0158410995981
  0
ARC
  5
212
330
1F
100
AcDbEntity
  8
OBRYS
 62
     5
100
AcDbCircle
 10
175.1554738726572
 20
45.39178154171161
 30
0.0
 40
1.62777247110499
100
AcDbArc
 50
30.48999863266697
 51
57.12767415767235
  0
CIRCLE
  5
213
330
1F
100
AcDbEntity
  8
OBRYS
 62
     5
100
AcDbCircle
 10
174.9431785887777
 20
45.13291852562399
 30
0.0
 40
2.249938066418709
  0
ARC
  5
214
330
1F
100
AcDbEntity
  8
OBRYS
 62
     5
100
AcDbCircle
 10
174.946020794428
 20
45.13576073127429
 30
0.0
 40
1.903114550224881
100
AcDbArc
 50
56.36890388435283
 51
213.6310961156503
  0
ARC
  5
215
330
1F
100
AcDbEntity
  8
OBRYS
 62
     5
100
AcDbCircle
 10
174.9458831524494
 20
45.13576073127429
 30
0.0
 40
1.902942311248141
100
AcDbArc
 50
236.3579728871311
 51
33.63454578108961
  0
ARC
  5
216
330
1F
100
AcDbEntity
  8
OBRYS
 62
     5
100
AcDbCircle
 10
183.019564056317
 20
41.43846041899467
 30
0.0
 40
2.100024067390236
100
AcDbArc
 50
269.9997768043814
 51
358.0004566378419
  0
DIMENSION
  5
21E
102
{ACAD_REACTORS
102
}
102
{ACAD_XDICTIONARY
360
21F
102
}
330
1F
100
AcDbEntity
  8
KOTY
100
AcDbDimension
  2
*D2
 10
106.3774995836303
 20
120.7879212816854
 30
0.0
 11
95.72749662955542
 21
123.2939212816854
 31
0.0
 70
    32
  3
STANDARD
100
AcDbAlignedDimension
 13
85.07749367548055
 23
93.01926059662775
 33
0.0
 14
106.3774995836303
 24
93.13846097905325
 34
0.0
100
AcDbRotatedDimension
1001
ACAD
1000
DSTYLE
1002
{
1070
   271
1070
     0
1070
   278
1070
    44
1070
    77
1070
     1
1070
   140
1040
3.0
1070
    73
1070
     0
1070
   147
1040
1.0
1070
    41
1040
3.0
1002
}
  0
DIMENSION
  5
23A
102
{ACAD_REACTORS
102
}
102
{ACAD_XDICTIONARY
360
23B
102
}
330
1F
100
AcDbEntity
  8
KOTY
100
AcDbDimension
  2
*D3
 10
197.2505656942647
 20
120.7879212816854
 30
0.0
 11
171.0006433274756
 21
123.3194212816854
 31
0.0
 70
    32
  1
53
  3
STANDARD
100
AcDbAlignedDimension
 13
144.7507209606866
 23
91.23848956553734
 33
0.0
 14
197.2505656942647
 24
91.23848956553734
 34
0.0
100
AcDbRotatedDimension
1001
ACAD
1000
DSTYLE
1002
{
1070
   271
1070
     0
1070
   278
1070
    44
1070
    77
1070
     1
1070
   140
1040
3.0
1070
    73
1070
     0
1070
   147
1040
1.0
1070
    41
1040
3.0
1002
}
  0
DIMENSION
  5
24A
102
{ACAD_REACTORS
102
}
102
{ACAD_XDICTIONARY
360
24B
102
}
330
1F
100
AcDbEntity
  8
KOTY
100
AcDbDimension
  2
*D4
 10
216.6675364158203
 20
39.44351183323813
 30
0.0
 11
214.1420364158203
 21
66.39106649601449
 31
0.0
 70
    32
  3
STANDARD
100
AcDbAlignedDimension
 13
195.1507786107871
 23
93.33862115879084
 33
0.0
 14
190.7506997543184
 24
39.44351183323813
 34
0.0
 50
90.0
100
AcDbRotatedDimension
1001
ACAD
1000
DSTYLE
1002
{
1070
   271
1070
     0
1070
   278
1070
    44
1070
    77
1070
     1
1070
   140
1040
3.0
1070
    73
1070
     0
1070
   147
1040
1.0
1070
    41
1040
3.0
1002
}
  0
VIEWPORT
  5
25B
330
58
100
AcDbEntity
 67
     1
  8
0
100
AcDbViewport
 10
5.25
 20
3.5
 30
0.0
 40
12.6
 41
8.4
 68
     1
 69
     1
1001
ACAD
1000
MVIEW
1002
{
1070
    16
1010
0.0
1020
0.0
1030
0.0
1010
0.0
1020
0.0
1030
1.0
1040
0.0
1040
8.4
1040
5.25
1040
3.5
1040
50.0
1040
0.0
1040
0.0
1070
     0
1070
   100
1070
     0
1070
     3
1070
     0
1070
     0
1070
     0
1070
     0
1040
0.0
1040
0.0
1040
0.0
1040
0.5
1040
0.5
1040
0.0
1040
0.0
1070
     0
1002
{
1002
}
1002
}
  0
VIEWPORT
  5
25C
330
58
100
AcDbEntity
 67
     1
  8
0
100
AcDbViewport
 10
5.25
 20
3.5
 30
0.0
 40
8.4
 41
5.600000000000001
 68
     2
 69
     2
1001
ACAD
1000
MVIEW
1002
{
1070
    16
1010
0.0
1020
0.0
1030
0.0
1010
0.0
1020
0.0
1030
1.0
1040
0.0
1040
89.82122906343103
1040
151.1225150456504
1040
82.09767881663768
1040
50.0
1040
0.0
1040
0.0
1070
     0
1070
   100
1070
     0
1070
     3
1070
     0
1070
     0
1070
     0
1070
     0
1040
0.0
1040
0.0
1040
0.0
1040
0.5
1040
0.5
1040
0.0
1040
0.0
1070
     0
1002
{
1002
}
1002
}
  0
ENDSEC
  0
SECTION
  2
OBJECTS
  0
DICTIONARY
  5
C
330
0
100
AcDbDictionary
  3
ACAD_DETAILVIEWSTYLE
350
122
  3
ACAD_GROUP
350
D
  3
ACAD_IMAGE_VARS
350
DC
  3
ACAD_MLINESTYLE
350
17
  3
ACAD_SCALELIST
350
B6
  3
ACAD_SECTIONVIEWSTYLE
350
123
  3
ACDBVARIABLEDICTIONARY
350
66
  3
APPDATA
350
E1
  3
DWGPROPS
350
25E
  0
DICTIONARY
  5
1AD
330
2
100
AcDbDictionary
280
     1
  3
ACAD_LAYERSTATES
360
1AE
  3
ACLYDICTIONARY
360
239
  0
DICTIONARY
  5
21F
330
21E
100
AcDbDictionary
280
     1
  0
DICTIONARY
  5
23B
330
23A
100
AcDbDictionary
280
     1
  0
DICTIONARY
  5
24B
330
24A
100
AcDbDictionary
280
     1
  0
DICTIONARY
  5
122
102
{ACAD_REACTORS
330
C
102
}
330
C
100
AcDbDictionary
  0
DICTIONARY
  5
D
102
{ACAD_REACTORS
330
C
102
}
330
C
100
AcDbDictionary
  0
RASTERVARIABLES
  5
DC
102
{ACAD_REACTORS
330
C
102
}
330
C
100
AcDbRasterVariables
 90
        0
 70
     1
 71
     1
 72
     5
  0
DICTIONARY
  5
17
102
{ACAD_REACTORS
330
C
102
}
330
C
100
AcDbDictionary
  3
STANDARD
350
18
  0
DICTIONARY
  5
B6
102
{ACAD_REACTORS
330
C
102
}
330
C
100
AcDbDictionary
  0
DICTIONARY
  5
123
102
{ACAD_REACTORS
330
C
102
}
330
C
100
AcDbDictionary
  0
DICTIONARY
  5
66
102
{ACAD_REACTORS
330
C
102
}
330
C
100
AcDbDictionary
  3
DIMASSOC
350
67
  3
HIDETEXT
350
6B
  0
DICTIONARY
  5
E1
102
{ACAD_REACTORS
330
C
102
}
330
C
100
AcDbDictionary
  0
XRECORD
  5
25E
102
{ACAD_REACTORS
330
C
102
}
330
C
100
AcDbXrecord
  1
DWGPROPS COOKIE
  2

  3

  4

  6

  7

  8
jaromir.podrabsky
  9

300
=
301
=
302
=
303
=
304
=
305
=
306
=
307
=
308
=
309
=
 40
0.0
 41
2452643.063384271
 42
2457470.406381354
  1

 90
        0
  0
DICTIONARY
  5
1AE
102
{ACAD_REACTORS
330
1AD
102
}
330
1AD
100
AcDbDictionary
  0
DICTIONARY
  5
239
102
{ACAD_REACTORS
330
1AD
102
}
330
1AD
100
AcDbDictionary
1001
ACAD
1000
<All
  0
MLINESTYLE
  5
18
102
{ACAD_REACTORS
330
17
102
}
330
17
100
AcDbMlineStyle
  2
STANDARD
 70
     0
  3

 62
   256
 51
90.0
 52
90.0
 71
     2
 49
0.5
 62
   256
  6
BYLAYER
 49
-0.5
 62
   256
  6
BYLAYER
  0
DICTIONARYVAR
  5
67
102
{ACAD_REACTORS
330
66
102
}
330
66
100
DictionaryVariables
280
     0
  1
2
  0
DICTIONARYVAR
  5
6B
102
{ACAD_REACTORS
330
66
102
}
330
66
100
DictionaryVariables
280
     0
  1
1
  0
ENDSEC
  0
EOF
