  0
SECTION
  2
HEADER
  9
$ACADVER
  1
AC1027
  9
$ACADMAINTVER
 70
     8
  9
$DWGCODEPAGE
  3
ANSI_1250
  9
$REQUIREDVERSIONS
160
                 0
  9
$LASTSAVEDBY
  1
jaromir.podrabsky
  9
$INSBASE
 10
0.0
 20
0.0
 30
0.0
  9
$EXTMIN
 10
226.1558870104615
 20
30.74706307715794
 30
0.0
  9
$EXTMAX
 10
294.6047975743834
 20
141.3764225190318
 30
0.0
  9
$LIMMIN
 10
0.0
 20
0.0
  9
$LIMMAX
 10
12.0
 20
9.0
  9
$ORTHOMODE
 70
     0
  9
$REGENMODE
 70
     1
  9
$FILLMODE
 70
     1
  9
$QTEXTMODE
 70
     0
  9
$MIRRTEXT
 70
     0
  9
$LTSCALE
 40
1.0
  9
$ATTMODE
 70
     1
  9
$TEXTSIZE
 40
0.2
  9
$TRACEWID
 40
0.05
  9
$TEXTSTYLE
  7
Standard
  9
$CLAYER
  8
Koty
  9
$CELTYPE
  6
ByLayer
  9
$CECOLOR
 62
   256
  9
$CELTSCALE
 40
1.0
  9
$DISPSILH
 70
     0
  9
$DIMSCALE
 40
1.0
  9
$DIMASZ
 40
0.18
  9
$DIMEXO
 40
0.0625
  9
$DIMDLI
 40
0.38
  9
$DIMRND
 40
0.0
  9
$DIMDLE
 40
0.0
  9
$DIMEXE
 40
0.18
  9
$DIMTP
 40
0.0
  9
$DIMTM
 40
0.0
  9
$DIMTXT
 40
0.18
  9
$DIMCEN
 40
0.09
  9
$DIMTSZ
 40
0.0
  9
$DIMTOL
 70
     0
  9
$DIMLIM
 70
     0
  9
$DIMTIH
 70
     1
  9
$DIMTOH
 70
     1
  9
$DIMSE1
 70
     0
  9
$DIMSE2
 70
     0
  9
$DIMTAD
 70
     0
  9
$DIMZIN
 70
     0
  9
$DIMBLK
  1

  9
$DIMASO
 70
     1
  9
$DIMSHO
 70
     1
  9
$DIMPOST
  1

  9
$DIMAPOST
  1

  9
$DIMALT
 70
     0
  9
$DIMALTD
 70
     2
  9
$DIMALTF
 40
25.4
  9
$DIMLFAC
 40
1.0
  9
$DIMTOFL
 70
     0
  9
$DIMTVP
 40
0.0
  9
$DIMTIX
 70
     0
  9
$DIMSOXD
 70
     0
  9
$DIMSAH
 70
     0
  9
$DIMBLK1
  1

  9
$DIMBLK2
  1

  9
$DIMSTYLE
  2
Standard
  9
$DIMCLRD
 70
     0
  9
$DIMCLRE
 70
     0
  9
$DIMCLRT
 70
     0
  9
$DIMTFAC
 40
1.0
  9
$DIMGAP
 40
0.09
  9
$DIMJUST
 70
     0
  9
$DIMSD1
 70
     0
  9
$DIMSD2
 70
     0
  9
$DIMTOLJ
 70
     1
  9
$DIMTZIN
 70
     0
  9
$DIMALTZ
 70
     0
  9
$DIMALTTZ
 70
     0
  9
$DIMUPT
 70
     0
  9
$DIMDEC
 70
     4
  9
$DIMTDEC
 70
     4
  9
$DIMALTU
 70
     2
  9
$DIMALTTD
 70
     2
  9
$DIMTXSTY
  7
Standard
  9
$DIMAUNIT
 70
     0
  9
$DIMADEC
 70
     0
  9
$DIMALTRND
 40
0.0
  9
$DIMAZIN
 70
     0
  9
$DIMDSEP
 70
    46
  9
$DIMATFIT
 70
     3
  9
$DIMFRAC
 70
     0
  9
$DIMLDRBLK
  1

  9
$DIMLUNIT
 70
     2
  9
$DIMLWD
 70
    -2
  9
$DIMLWE
 70
    -2
  9
$DIMTMOVE
 70
     0
  9
$DIMFXL
 40
1.0
  9
$DIMFXLON
 70
     0
  9
$DIMJOGANG
 40
0.7853981633974483
  9
$DIMTFILL
 70
     0
  9
$DIMTFILLCLR
 70
     0
  9
$DIMARCSYM
 70
     0
  9
$DIMLTYPE
  6

  9
$DIMLTEX1
  6

  9
$DIMLTEX2
  6

  9
$DIMTXTDIRECTION
 70
     0
  9
$LUNITS
 70
     2
  9
$LUPREC
 70
     4
  9
$SKETCHINC
 40
0.1
  9
$FILLETRAD
 40
0.0
  9
$AUNITS
 70
     0
  9
$AUPREC
 70
     0
  9
$MENU
  1
.
  9
$ELEVATION
 40
0.0
  9
$PELEVATION
 40
0.0
  9
$THICKNESS
 40
0.0
  9
$LIMCHECK
 70
     0
  9
$CHAMFERA
 40
0.0
  9
$CHAMFERB
 40
0.0
  9
$CHAMFERC
 40
0.0
  9
$CHAMFERD
 40
0.0
  9
$SKPOLY
 70
     0
  9
$TDCREATE
 40
2452643.146717604
  9
$TDUCREATE
 40
2452643.063384271
  9
$TDUPDATE
 40
2457609.560575579
  9
$TDUUPDATE
 40
2457609.477242245
  9
$TDINDWG
 40
0.0039104977
  9
$TDUSRTIMER
 40
2457609.476662708
  9
$USRTIMER
 70
     1
  9
$ANGBASE
 50
0.0
  9
$ANGDIR
 70
     0
  9
$PDMODE
 70
     0
  9
$PDSIZE
 40
0.0
  9
$PLINEWID
 40
0.0
  9
$SPLFRAME
 70
     0
  9
$SPLINETYPE
 70
     6
  9
$SPLINESEGS
 70
     8
  9
$HANDSEED
  5
2D9
  9
$SURFTAB1
 70
     6
  9
$SURFTAB2
 70
     6
  9
$SURFTYPE
 70
     6
  9
$SURFU
 70
     6
  9
$SURFV
 70
     6
  9
$UCSBASE
  2

  9
$UCSNAME
  2

  9
$UCSORG
 10
0.0
 20
0.0
 30
0.0
  9
$UCSXDIR
 10
1.0
 20
0.0
 30
0.0
  9
$UCSYDIR
 10
0.0
 20
1.0
 30
0.0
  9
$UCSORTHOREF
  2

  9
$UCSORTHOVIEW
 70
     0
  9
$UCSORGTOP
 10
0.0
 20
0.0
 30
0.0
  9
$UCSORGBOTTOM
 10
0.0
 20
0.0
 30
0.0
  9
$UCSORGLEFT
 10
0.0
 20
0.0
 30
0.0
  9
$UCSORGRIGHT
 10
0.0
 20
0.0
 30
0.0
  9
$UCSORGFRONT
 10
0.0
 20
0.0
 30
0.0
  9
$UCSORGBACK
 10
0.0
 20
0.0
 30
0.0
  9
$PUCSBASE
  2

  9
$PUCSNAME
  2

  9
$PUCSORG
 10
0.0
 20
0.0
 30
0.0
  9
$PUCSXDIR
 10
1.0
 20
0.0
 30
0.0
  9
$PUCSYDIR
 10
0.0
 20
1.0
 30
0.0
  9
$PUCSORTHOREF
  2

  9
$PUCSORTHOVIEW
 70
     0
  9
$PUCSORGTOP
 10
0.0
 20
0.0
 30
0.0
  9
$PUCSORGBOTTOM
 10
0.0
 20
0.0
 30
0.0
  9
$PUCSORGLEFT
 10
0.0
 20
0.0
 30
0.0
  9
$PUCSORGRIGHT
 10
0.0
 20
0.0
 30
0.0
  9
$PUCSORGFRONT
 10
0.0
 20
0.0
 30
0.0
  9
$PUCSORGBACK
 10
0.0
 20
0.0
 30
0.0
  9
$USERI1
 70
     0
  9
$USERI2
 70
     0
  9
$USERI3
 70
     0
  9
$USERI4
 70
     0
  9
$USERI5
 70
     0
  9
$USERR1
 40
0.0
  9
$USERR2
 40
0.0
  9
$USERR3
 40
0.0
  9
$USERR4
 40
0.0
  9
$USERR5
 40
0.0
  9
$WORLDVIEW
 70
     1
  9
$SHADEDGE
 70
     3
  9
$SHADEDIF
 70
    70
  9
$TILEMODE
 70
     0
  9
$MAXACTVP
 70
    64
  9
$PINSBASE
 10
0.0
 20
0.0
 30
0.0
  9
$PLIMCHECK
 70
     0
  9
$PEXTMIN
 10
1.05
 20
0.6999999999999997
 30
0.0
  9
$PEXTMAX
 10
9.45
 20
6.300000000000001
 30
0.0
  9
$PLIMMIN
 10
-0.25
 20
-0.7500000000000001
  9
$PLIMMAX
 10
10.75
 20
7.75
  9
$UNITMODE
 70
     0
  9
$VISRETAIN
 70
     1
  9
$PLINEGEN
 70
     0
  9
$PSLTSCALE
 70
     1
  9
$TREEDEPTH
 70
  3020
  9
$CMLSTYLE
  2
Standard
  9
$CMLJUST
 70
     0
  9
$CMLSCALE
 40
1.0
  9
$PROXYGRAPHICS
 70
     1
  9
$MEASUREMENT
 70
     0
  9
$CELWEIGHT
370
    -1
  9
$ENDCAPS
280
     0
  9
$JOINSTYLE
280
     0
  9
$LWDISPLAY
290
     0
  9
$INSUNITS
 70
     1
  9
$HYPERLINKBASE
  1

  9
$STYLESHEET
  1

  9
$XEDIT
290
     1
  9
$CEPSNTYPE
380
     0
  9
$PSTYLEMODE
290
     1
  9
$FINGERPRINTGUID
  2
{FDEAD576-A652-11D2-9A35-0060089B3A3F}
  9
$VERSIONGUID
  2
{FBC2AE19-5C5C-49EC-81BC-71B1A3362A02}
  9
$EXTNAMES
290
     1
  9
$PSVPSCALE
 40
0.0
  9
$OLESTARTUP
290
     0
  9
$SORTENTS
280
   127
  9
$INDEXCTL
280
     0
  9
$HIDETEXT
280
     1
  9
$XCLIPFRAME
280
     0
  9
$HALOGAP
280
     0
  9
$OBSCOLOR
 70
   257
  9
$OBSLTYPE
280
     0
  9
$INTERSECTIONDISPLAY
280
     0
  9
$INTERSECTIONCOLOR
 70
   257
  9
$DIMASSOC
280
     2
  9
$PROJECTNAME
  1

  9
$CAMERADISPLAY
290
     0
  9
$LENSLENGTH
 40
50.0
  9
$CAMERAHEIGHT
 40
0.0
  9
$STEPSPERSEC
 40
2.0
  9
$STEPSIZE
 40
6.0
  9
$3DDWFPREC
 40
2.0
  9
$PSOLWIDTH
 40
0.25
  9
$PSOLHEIGHT
 40
4.0
  9
$LOFTANG1
 40
1.570796326794897
  9
$LOFTANG2
 40
1.570796326794897
  9
$LOFTMAG1
 40
0.0
  9
$LOFTMAG2
 40
0.0
  9
$LOFTPARAM
 70
     7
  9
$LOFTNORMALS
280
     1
  9
$LATITUDE
 40
37.795
  9
$LONGITUDE
 40
-122.394
  9
$NORTHDIRECTION
 40
0.0
  9
$TIMEZONE
 70
 -8000
  9
$LIGHTGLYPHDISPLAY
280
     1
  9
$TILEMODELIGHTSYNCH
280
     1
  9
$CMATERIAL
347
96
  9
$SOLIDHIST
280
     1
  9
$SHOWHIST
280
     1
  9
$DWFFRAME
280
     2
  9
$DGNFRAME
280
     0
  9
$REALWORLDSCALE
290
     1
  9
$INTERFERECOLOR
 62
     1
  9
$CSHADOW
280
     0
  9
$SHADOWPLANELOCATION
 40
0.0
  0
ENDSEC
  0
SECTION
  2
CLASSES
  0
CLASS
  1
ACDBDICTIONARYWDFLT
  2
AcDbDictionaryWithDefault
  3
ObjectDBX Classes
 90
        0
 91
        4
280
     0
281
     0
  0
CLASS
  1
ACDBPLACEHOLDER
  2
AcDbPlaceHolder
  3
ObjectDBX Classes
 90
        0
 91
        1
280
     0
281
     0
  0
CLASS
  1
LAYOUT
  2
AcDbLayout
  3
ObjectDBX Classes
 90
        0
 91
        1
280
     0
281
     0
  0
CLASS
  1
DICTIONARYVAR
  2
AcDbDictionaryVar
  3
ObjectDBX Classes
 90
        0
 91
        4
280
     0
281
     0
  0
CLASS
  1
TABLESTYLE
  2
AcDbTableStyle
  3
ObjectDBX Classes
 90
     4095
 91
        4
280
     0
281
     0
  0
CLASS
  1
MATERIAL
  2
AcDbMaterial
  3
ObjectDBX Classes
 90
     1153
 91
        4
280
     0
281
     0
  0
CLASS
  1
VISUALSTYLE
  2
AcDbVisualStyle
  3
ObjectDBX Classes
 90
     4095
 91
        4
280
     0
281
     0
  0
CLASS
  1
SCALE
  2
AcDbScale
  3
ObjectDBX Classes
 90
     1153
 91
        4
280
     0
281
     0
  0
CLASS
  1
CELLSTYLEMAP
  2
AcDbCellStyleMap
  3
ObjectDBX Classes
 90
     1152
 91
        4
280
     0
281
     0
  0
CLASS
  1
RASTERVARIABLES
  2
AcDbRasterVariables
  3
ISM
 90
        0
 91
        4
280
     0
281
     0
  0
CLASS
  1
SUN
  2
AcDbSun
  3
SCENEOE
 90
     1153
 91
        4
280
     0
281
     0
  0
CLASS
  1
MLEADERSTYLE
  2
AcDbMLeaderStyle
  3
ACDB_MLEADERSTYLE_CLASS
 90
     4095
 91
        4
280
     0
281
     0
  0
CLASS
  1
DIMASSOC
  2
AcDbDimAssoc
  3
"AcDbDimAssoc|Product Desc:     AcDim ARX App For Dimension|Company:          Autodesk, Inc.|WEB Address:      www.autodesk.com"
 90
        0
 91
        4
280
     0
281
     0
  0
ENDSEC
  0
SECTION
  2
TABLES
  0
TABLE
  2
VPORT
  5
8
330
0
100
AcDbSymbolTable
 70
     1
  0
VPORT
  5
94
330
8
100
AcDbSymbolTableRecord
100
AcDbViewportTableRecord
  2
*Active
 70
     0
 10
0.0
 20
0.0
 11
1.0
 21
1.0
 12
292.8881703676246
 22
107.101510374705
 13
0.0
 23
0.0
 14
0.5
 24
0.5
 15
0.5
 25
0.5
 16
0.0
 26
0.0
 36
1.0
 17
-27.66959356597977
 27
-19.53870295786214
 37
0.0
 40
128.1233770506722
 41
1.943696450428397
 42
50.0
 43
0.0
 44
0.0
 50
0.0
 51
0.0
 71
    16
 72
  1000
 73
     1
 74
     3
 75
     0
 76
     0
 77
     0
 78
     0
281
     0
 65
     1
110
0.0
120
0.0
130
0.0
111
1.0
121
0.0
131
0.0
112
0.0
122
1.0
132
0.0
 79
     0
146
0.0
348
9F
 60
     2
 61
     5
292
     1
282
     1
141
0.0
142
0.0
 63
   250
421
  3355443
361
ED
  0
ENDTAB
  0
TABLE
  2
LTYPE
  5
5
330
0
100
AcDbSymbolTable
 70
     1
  0
LTYPE
  5
14
330
5
100
AcDbSymbolTableRecord
100
AcDbLinetypeTableRecord
  2
ByBlock
 70
     0
  3

 72
    65
 73
     0
 40
0.0
  0
LTYPE
  5
15
330
5
100
AcDbSymbolTableRecord
100
AcDbLinetypeTableRecord
  2
ByLayer
 70
     0
  3
Solid line
 72
    65
 73
     0
 40
0.0
  0
LTYPE
  5
16
330
5
100
AcDbSymbolTableRecord
100
AcDbLinetypeTableRecord
  2
Continuous
 70
     0
  3
Solid line
 72
    65
 73
     0
 40
0.0
  0
ENDTAB
  0
TABLE
  2
LAYER
  5
2
102
{ACAD_XDICTIONARY
360
193
102
}
330
0
100
AcDbSymbolTable
 70
     4
  0
LAYER
  5
10
330
2
100
AcDbSymbolTableRecord
100
AcDbLayerTableRecord
  2
0
 70
     0
 62
     7
  6
Continuous
370
    -3
390
F
347
98
348
0
  0
LAYER
  5
12B
330
2
100
AcDbSymbolTableRecord
100
AcDbLayerTableRecord
  2
Koty
 70
     0
 62
     1
  6
Continuous
370
     5
390
F
347
98
348
0
1001
AcAecLayerStandard
1000

1000

1001
AcCmTransparency
1071
 33554687
  0
LAYER
  5
12F
330
2
100
AcDbSymbolTableRecord
100
AcDbLayerTableRecord
  2
Obrys
 70
     0
 62
     5
  6
Continuous
370
    30
390
F
347
98
348
0
1001
AcAecLayerStandard
1000

1000

  0
LAYER
  5
267
330
2
100
AcDbSymbolTableRecord
100
AcDbLayerTableRecord
  2
Defpoints
 70
     0
 62
     7
  6
Continuous
290
     0
370
    -3
390
F
347
98
348
0
  0
ENDTAB
  0
TABLE
  2
STYLE
  5
3
330
0
100
AcDbSymbolTable
 70
     1
  0
STYLE
  5
11
330
3
100
AcDbSymbolTableRecord
100
AcDbTextStyleTableRecord
  2
Standard
 70
     0
 40
0.0
 41
1.0
 50
0.0
 71
     0
 42
0.2
  3
arial.ttf
  4

1001
ACAD
1000
Arial
1071
        0
  0
ENDTAB
  0
TABLE
  2
VIEW
  5
6
330
0
100
AcDbSymbolTable
 70
     0
  0
ENDTAB
  0
TABLE
  2
UCS
  5
7
330
0
100
AcDbSymbolTable
 70
     0
  0
ENDTAB
  0
TABLE
  2
APPID
  5
9
330
0
100
AcDbSymbolTable
 70
     3
  0
APPID
  5
12
330
9
100
AcDbSymbolTableRecord
100
AcDbRegAppTableRecord
  2
ACAD
 70
     0
  0
APPID
  5
12D
330
9
100
AcDbSymbolTableRecord
100
AcDbRegAppTableRecord
  2
AcAecLayerStandard
 70
     0
  0
APPID
  5
12E
330
9
100
AcDbSymbolTableRecord
100
AcDbRegAppTableRecord
  2
AcCmTransparency
 70
     0
  0
ENDTAB
  0
TABLE
  2
DIMSTYLE
  5
A
330
0
100
AcDbSymbolTable
 70
     1
100
AcDbDimStyleTable
  0
DIMSTYLE
105
27
102
{ACAD_REACTORS
330
268
330
278
330
288
330
298
330
2A8
330
2BC
102
}
330
A
100
AcDbSymbolTableRecord
100
AcDbDimStyleTableRecord
  2
Standard
 70
     0
178
     0
340
11
  0
ENDTAB
  0
TABLE
  2
BLOCK_RECORD
  5
1
330
0
100
AcDbSymbolTable
 70
     6
  0
BLOCK_RECORD
  5
1F
330
1
100
AcDbSymbolTableRecord
100
AcDbBlockTableRecord
  2
*Model_Space
340
22
 70
     0
280
     1
281
     0
  0
BLOCK_RECORD
  5
2CC
330
1
100
AcDbSymbolTableRecord
100
AcDbBlockTableRecord
  2
*Paper_Space
340
2CD
 70
     0
280
     1
281
     0
  0
BLOCK_RECORD
  5
26B
330
1
100
AcDbSymbolTableRecord
100
AcDbBlockTableRecord
  2
*D0
340
0
 70
     0
280
     1
281
     0
  0
BLOCK_RECORD
  5
27B
330
1
100
AcDbSymbolTableRecord
100
AcDbBlockTableRecord
  2
*D1
340
0
 70
     0
280
     1
281
     0
  0
BLOCK_RECORD
  5
28B
330
1
100
AcDbSymbolTableRecord
100
AcDbBlockTableRecord
  2
*D2
340
0
 70
     0
280
     1
281
     0
  0
BLOCK_RECORD
  5
29B
330
1
100
AcDbSymbolTableRecord
100
AcDbBlockTableRecord
  2
*D3
340
0
 70
     0
280
     1
281
     0
  0
BLOCK_RECORD
  5
2AB
330
1
100
AcDbSymbolTableRecord
100
AcDbBlockTableRecord
  2
*D4
340
0
 70
     0
280
     1
281
     0
  0
BLOCK_RECORD
  5
2BF
330
1
100
AcDbSymbolTableRecord
100
AcDbBlockTableRecord
  2
*D5
340
0
 70
     0
280
     1
281
     0
  0
ENDTAB
  0
ENDSEC
  0
SECTION
  2
BLOCKS
  0
BLOCK
  5
20
330
1F
100
AcDbEntity
  8
0
100
AcDbBlockBegin
  2
*Model_Space
 70
     0
 10
0.0
 20
0.0
 30
0.0
  3
*Model_Space
  1
*Model_Space
  0
ENDBLK
  5
21
330
1F
100
AcDbEntity
  8
0
100
AcDbBlockEnd
  0
BLOCK
  5
2CE
330
2CC
100
AcDbEntity
 67
     1
  8
0
100
AcDbBlockBegin
  2
*Paper_Space
 70
     0
 10
0.0
 20
0.0
 30
0.0
  3
*Paper_Space
  1
*Paper_Space
  0
ENDBLK
  5
2CF
330
2CC
100
AcDbEntity
 67
     1
  8
0
100
AcDbBlockEnd
  0
BLOCK
  5
26C
330
26B
100
AcDbEntity
  8
0
100
AcDbBlockBegin
  2
*D0
 70
     1
 10
0.0
 20
0.0
 30
0.0
  3
*D0
  1
*D2
  0
LINE
  5
26E
330
26B
100
AcDbEntity
  8
Koty
 62
     0
370
    -2
100
AcDbLine
 10
271.1419860872751
 20
141.3764225190318
 30
0.0
 11
244.9384296172709
 21
141.3764225190318
 31
0.0
  0
LINE
  5
26F
330
26B
100
AcDbEntity
  8
Koty
 62
     0
370
    -2
100
AcDbLine
 10
268.84203882406
 20
114.3765023703345
 30
0.0
 11
244.9384296172709
 21
114.3765023703345
 31
0.0
  0
LINE
  5
270
330
26B
100
AcDbEntity
  8
Koty
 62
     0
370
    -2
100
AcDbLine
 10
245.1184296172709
 20
138.3764225190318
 30
0.0
 11
245.1184296172709
 21
117.3765023703345
 31
0.0
  0
SOLID
  5
271
330
26B
100
AcDbEntity
  8
Koty
 62
     0
100
AcDbTrace
 10
245.6184296172709
 20
138.3764225190318
 30
0.0
 11
244.6184296172709
 21
138.3764225190318
 31
0.0
 12
245.1184296172709
 22
141.3764225190318
 32
0.0
 13
245.1184296172709
 23
141.3764225190318
 33
0.0
  0
SOLID
  5
272
330
26B
100
AcDbEntity
  8
Koty
 62
     0
100
AcDbTrace
 10
244.6184296172709
 20
117.3765023703345
 30
0.0
 11
245.6184296172709
 21
117.3765023703345
 31
0.0
 12
245.1184296172709
 22
114.3765023703345
 32
0.0
 13
245.1184296172709
 23
114.3765023703345
 33
0.0
  0
MTEXT
  5
273
330
26B
100
AcDbEntity
  8
Koty
 62
     0
100
AcDbMText
 10
242.3169296172709
 20
127.8764624446831
 30
0.0
 40
3.0
 41
0.0
 46
0.0
 71
     5
 72
     1
  1
\A1;27,0
 11
0.0
 21
1.0
 31
0.0
 73
     1
 44
1.0
  0
POINT
  5
274
330
26B
100
AcDbEntity
  8
Defpoints
 62
     0
100
AcDbPoint
 10
271.2044860872751
 20
141.3764225190318
 30
0.0
  0
POINT
  5
275
330
26B
100
AcDbEntity
  8
Defpoints
 62
     0
100
AcDbPoint
 10
268.90453882406
 20
114.3765023703345
 30
0.0
  0
POINT
  5
276
330
26B
100
AcDbEntity
  8
Defpoints
 62
     0
100
AcDbPoint
 10
245.1184296172709
 20
114.3765023703345
 30
0.0
  0
ENDBLK
  5
26D
330
26B
100
AcDbEntity
  8
0
100
AcDbBlockEnd
  0
BLOCK
  5
27C
330
27B
100
AcDbEntity
  8
0
100
AcDbBlockBegin
  2
*D1
 70
     1
 10
0.0
 20
0.0
 30
0.0
  3
*D1
  1
*D3
  0
LINE
  5
27E
330
27B
100
AcDbEntity
  8
Koty
 62
     0
370
    -2
100
AcDbLine
 10
254.5422975743834
 20
107.8762919206124
 30
0.0
 11
244.9384296172709
 21
107.8762919206124
 31
0.0
  0
LINE
  5
27F
330
27B
100
AcDbEntity
  8
Koty
 62
     0
370
    -2
100
AcDbLine
 10
254.5422975743834
 20
71.87629192061237
 30
0.0
 11
244.9384296172709
 21
71.87629192061237
 31
0.0
  0
LINE
  5
280
330
27B
100
AcDbEntity
  8
Koty
 62
     0
370
    -2
100
AcDbLine
 10
245.1184296172709
 20
104.8762919206124
 30
0.0
 11
245.1184296172709
 21
74.87629192061237
 31
0.0
  0
SOLID
  5
281
330
27B
100
AcDbEntity
  8
Koty
 62
     0
100
AcDbTrace
 10
245.6184296172709
 20
104.8762919206124
 30
0.0
 11
244.6184296172709
 21
104.8762919206124
 31
0.0
 12
245.1184296172709
 22
107.8762919206124
 32
0.0
 13
245.1184296172709
 23
107.8762919206124
 33
0.0
  0
SOLID
  5
282
330
27B
100
AcDbEntity
  8
Koty
 62
     0
100
AcDbTrace
 10
244.6184296172709
 20
74.87629192061237
 30
0.0
 11
245.6184296172709
 21
74.87629192061237
 31
0.0
 12
245.1184296172709
 22
71.87629192061237
 32
0.0
 13
245.1184296172709
 23
71.87629192061237
 33
0.0
  0
MTEXT
  5
283
330
27B
100
AcDbEntity
  8
Koty
 62
     0
100
AcDbMText
 10
242.3169296172709
 20
89.87629192061239
 30
0.0
 40
3.0
 41
0.0
 46
0.0
 71
     5
 72
     1
  1
\A1;36,0
 11
0.0
 21
1.0
 31
0.0
 73
     1
 44
1.0
  0
POINT
  5
284
330
27B
100
AcDbEntity
  8
Defpoints
 62
     0
100
AcDbPoint
 10
254.6047975743834
 20
107.8762919206124
 30
0.0
  0
POINT
  5
285
330
27B
100
AcDbEntity
  8
Defpoints
 62
     0
100
AcDbPoint
 10
254.6047975743834
 20
71.87629192061237
 30
0.0
  0
POINT
  5
286
330
27B
100
AcDbEntity
  8
Defpoints
 62
     0
100
AcDbPoint
 10
245.1184296172709
 20
71.87629192061237
 30
0.0
  0
ENDBLK
  5
27D
330
27B
100
AcDbEntity
  8
0
100
AcDbBlockEnd
  0
BLOCK
  5
28C
330
28B
100
AcDbEntity
  8
0
100
AcDbBlockBegin
  2
*D2
 70
     1
 10
0.0
 20
0.0
 30
0.0
  3
*D2
  1
*D4
  0
LINE
  5
28E
330
28B
100
AcDbEntity
  8
Koty
 62
     0
370
    -2
100
AcDbLine
 10
272.9977947081042
 20
38.37616132219289
 30
0.0
 11
244.9384296172709
 21
38.37616132219289
 31
0.0
  0
LINE
  5
28F
330
28B
100
AcDbEntity
  8
Koty
 62
     0
370
    -2
100
AcDbLine
 10
270.6978474448889
 20
65.37608147089021
 30
0.0
 11
244.9384296172709
 21
65.37608147089021
 31
0.0
  0
LINE
  5
290
330
28B
100
AcDbEntity
  8
Koty
 62
     0
370
    -2
100
AcDbLine
 10
245.1184296172709
 20
41.37616132219289
 30
0.0
 11
245.1184296172709
 21
62.37608147089021
 31
0.0
  0
SOLID
  5
291
330
28B
100
AcDbEntity
  8
Koty
 62
     0
100
AcDbTrace
 10
244.6184296172709
 20
41.37616132219289
 30
0.0
 11
245.6184296172709
 21
41.37616132219289
 31
0.0
 12
245.1184296172709
 22
38.37616132219289
 32
0.0
 13
245.1184296172709
 23
38.37616132219289
 33
0.0
  0
SOLID
  5
292
330
28B
100
AcDbEntity
  8
Koty
 62
     0
100
AcDbTrace
 10
245.6184296172709
 20
62.37608147089021
 30
0.0
 11
244.6184296172709
 21
62.37608147089021
 31
0.0
 12
245.1184296172709
 22
65.37608147089021
 32
0.0
 13
245.1184296172709
 23
65.37608147089021
 33
0.0
  0
MTEXT
  5
293
330
28B
100
AcDbEntity
  8
Koty
 62
     0
100
AcDbMText
 10
242.3169296172709
 20
51.87612139654155
 30
0.0
 40
3.0
 41
0.0
 46
0.0
 71
     5
 72
     1
  1
\A1;27,0
 11
0.0
 21
1.0
 31
0.0
 73
     1
 44
1.0
  0
POINT
  5
294
330
28B
100
AcDbEntity
  8
Defpoints
 62
     0
100
AcDbPoint
 10
273.0602947081042
 20
38.37616132219289
 30
0.0
  0
POINT
  5
295
330
28B
100
AcDbEntity
  8
Defpoints
 62
     0
100
AcDbPoint
 10
270.7603474448889
 20
65.37608147089021
 30
0.0
  0
POINT
  5
296
330
28B
100
AcDbEntity
  8
Defpoints
 62
     0
100
AcDbPoint
 10
245.1184296172709
 20
65.37608147089021
 30
0.0
  0
ENDBLK
  5
28D
330
28B
100
AcDbEntity
  8
0
100
AcDbBlockEnd
  0
BLOCK
  5
29C
330
29B
100
AcDbEntity
  8
0
100
AcDbBlockBegin
  2
*D3
 70
     1
 10
0.0
 20
0.0
 30
0.0
  3
*D3
  1
*D5
  0
LINE
  5
29E
330
29B
100
AcDbEntity
  8
Koty
 62
     0
370
    -2
100
AcDbLine
 10
272.9977947081042
 20
38.37616132219289
 30
0.0
 11
230.5848870104615
 21
38.3761613221929
 31
0.0
  0
LINE
  5
29F
330
29B
100
AcDbEntity
  8
Koty
 62
     0
370
    -2
100
AcDbLine
 10
271.1419860872751
 20
141.3764225190318
 30
0.0
 11
230.5848870104615
 21
141.3764225190318
 31
0.0
  0
LINE
  5
2A0
330
29B
100
AcDbEntity
  8
Koty
 62
     0
370
    -2
100
AcDbLine
 10
230.7648870104615
 20
41.3761613221929
 30
0.0
 11
230.7648870104615
 21
138.3764225190318
 31
0.0
  0
SOLID
  5
2A1
330
29B
100
AcDbEntity
  8
Koty
 62
     0
100
AcDbTrace
 10
230.2648870104615
 20
41.3761613221929
 30
0.0
 11
231.2648870104615
 21
41.3761613221929
 31
0.0
 12
230.7648870104615
 22
38.3761613221929
 32
0.0
 13
230.7648870104615
 23
38.3761613221929
 33
0.0
  0
SOLID
  5
2A2
330
29B
100
AcDbEntity
  8
Koty
 62
     0
100
AcDbTrace
 10
231.2648870104615
 20
138.3764225190318
 30
0.0
 11
230.2648870104615
 21
138.3764225190318
 31
0.0
 12
230.7648870104615
 22
141.3764225190318
 32
0.0
 13
230.7648870104615
 23
141.3764225190318
 33
0.0
  0
MTEXT
  5
2A3
330
29B
100
AcDbEntity
  8
Koty
 62
     0
100
AcDbMText
 10
227.9633870104615
 20
89.87629192061235
 30
0.0
 40
3.0
 41
0.0
 46
0.0
 71
     5
 72
     1
  1
\A1;103,0
 11
0.0
 21
1.0
 31
0.0
 73
     1
 44
1.0
  0
POINT
  5
2A4
330
29B
100
AcDbEntity
  8
Defpoints
 62
     0
100
AcDbPoint
 10
273.0602947081042
 20
38.37616132219289
 30
0.0
  0
POINT
  5
2A5
330
29B
100
AcDbEntity
  8
Defpoints
 62
     0
100
AcDbPoint
 10
271.2044860872751
 20
141.3764225190318
 30
0.0
  0
POINT
  5
2A6
330
29B
100
AcDbEntity
  8
Defpoints
 62
     0
100
AcDbPoint
 10
230.7648870104615
 20
141.3764225190318
 30
0.0
  0
ENDBLK
  5
29D
330
29B
100
AcDbEntity
  8
0
100
AcDbBlockEnd
  0
BLOCK
  5
2AC
330
2AB
100
AcDbEntity
  8
0
100
AcDbBlockBegin
  2
*D4
 70
     1
 10
0.0
 20
0.0
 30
0.0
  3
*D4
  1
*D6
  0
LINE
  5
2AE
330
2AB
100
AcDbEntity
  8
Koty
 62
     0
370
    -2
100
AcDbLine
 10
254.6047975743834
 20
90.7450328203329
 30
0.0
 11
254.6047975743834
 21
90.8625328203329
 31
0.0
  0
LINE
  5
2AF
330
2AB
100
AcDbEntity
  8
Koty
 62
     0
370
    -2
100
AcDbLine
 10
294.6047975743834
 20
90.7450328203329
 30
0.0
 11
294.6047975743834
 21
90.8625328203329
 31
0.0
  0
LINE
  5
2B0
330
2AB
100
AcDbEntity
  8
Koty
 62
     0
370
    -2
100
AcDbLine
 10
257.6047975743834
 20
90.6825328203329
 30
0.0
 11
291.6047975743834
 21
90.6825328203329
 31
0.0
  0
SOLID
  5
2B1
330
2AB
100
AcDbEntity
  8
Koty
 62
     0
100
AcDbTrace
 10
257.6047975743834
 20
91.1825328203329
 30
0.0
 11
257.6047975743834
 21
90.1825328203329
 31
0.0
 12
254.6047975743834
 22
90.6825328203329
 32
0.0
 13
254.6047975743834
 23
90.6825328203329
 33
0.0
  0
SOLID
  5
2B2
330
2AB
100
AcDbEntity
  8
Koty
 62
     0
100
AcDbTrace
 10
291.6047975743834
 20
90.1825328203329
 30
0.0
 11
291.6047975743834
 21
91.1825328203329
 31
0.0
 12
294.6047975743834
 22
90.6825328203329
 32
0.0
 13
294.6047975743834
 23
90.6825328203329
 33
0.0
  0
MTEXT
  5
2B3
330
2AB
100
AcDbEntity
  8
Koty
 62
     0
100
AcDbMText
 10
274.6047975743834
 20
93.4840328203329
 30
0.0
 40
3.0
 41
0.0
 46
0.0
 71
     5
 72
     1
  1
\A1;40,0
 73
     1
 44
1.0
  0
POINT
  5
2B4
330
2AB
100
AcDbEntity
  8
Defpoints
 62
     0
100
AcDbPoint
 10
254.6047975743834
 20
90.6825328203329
 30
0.0
  0
POINT
  5
2B5
330
2AB
100
AcDbEntity
  8
Defpoints
 62
     0
100
AcDbPoint
 10
294.6047975743834
 20
90.6825328203329
 30
0.0
  0
POINT
  5
2B6
330
2AB
100
AcDbEntity
  8
Defpoints
 62
     0
100
AcDbPoint
 10
294.6047975743834
 20
90.6825328203329
 30
0.0
  0
ENDBLK
  5
2AD
330
2AB
100
AcDbEntity
  8
0
100
AcDbBlockEnd
  0
BLOCK
  5
2C0
330
2BF
100
AcDbEntity
  8
0
100
AcDbBlockBegin
  2
*D5
 70
     1
 10
0.0
 20
0.0
 30
0.0
  3
*D5
  1
*D7
  0
LINE
  5
2C2
330
2BF
100
AcDbEntity
  8
Koty
 62
     0
370
    -2
100
AcDbLine
 10
272.4601586786671
 20
38.91379735162982
 30
0.0
 11
272.4601586786671
 21
31.06706307715794
 31
0.0
  0
LINE
  5
2C3
330
2BF
100
AcDbEntity
  8
Koty
 62
     0
370
    -2
100
AcDbLine
 10
280.4603646922059
 20
38.91379735162982
 30
0.0
 11
280.4603646922059
 21
31.06706307715794
 31
0.0
  0
LINE
  5
2C4
330
2BF
100
AcDbEntity
  8
Koty
 62
     0
370
    -2
100
AcDbLine
 10
275.4601586786671
 20
31.24706307715794
 30
0.0
 11
277.4603646922059
 21
31.24706307715794
 31
0.0
  0
SOLID
  5
2C5
330
2BF
100
AcDbEntity
  8
Koty
 62
     0
100
AcDbTrace
 10
275.4601586786671
 20
31.74706307715794
 30
0.0
 11
275.4601586786671
 21
30.74706307715794
 31
0.0
 12
272.4601586786671
 22
31.24706307715794
 32
0.0
 13
272.4601586786671
 23
31.24706307715794
 33
0.0
  0
SOLID
  5
2C6
330
2BF
100
AcDbEntity
  8
Koty
 62
     0
100
AcDbTrace
 10
277.4603646922059
 20
30.74706307715794
 30
0.0
 11
277.4603646922059
 21
31.74706307715794
 31
0.0
 12
280.4603646922059
 22
31.24706307715794
 32
0.0
 13
280.4603646922059
 23
31.24706307715794
 33
0.0
  0
MTEXT
  5
2C7
330
2BF
100
AcDbEntity
  8
Koty
 62
     0
100
AcDbMText
 10
276.4602616854365
 20
33.77856307715794
 30
0.0
 40
3.0
 41
0.0
 46
0.0
 71
     5
 72
     1
  1
\A1;M8
 73
     1
 44
1.0
  0
POINT
  5
2C8
330
2BF
100
AcDbEntity
  8
Defpoints
 62
     0
100
AcDbPoint
 10
272.4601586786671
 20
38.97629735162982
 30
0.0
  0
POINT
  5
2C9
330
2BF
100
AcDbEntity
  8
Defpoints
 62
     0
100
AcDbPoint
 10
280.4603646922059
 20
38.97629735162982
 30
0.0
  0
POINT
  5
2CA
330
2BF
100
AcDbEntity
  8
Defpoints
 62
     0
100
AcDbPoint
 10
280.4603646922059
 20
31.24706307715794
 30
0.0
  0
ENDBLK
  5
2C1
330
2BF
100
AcDbEntity
  8
0
100
AcDbBlockEnd
  0
ENDSEC
  0
SECTION
  2
ENTITIES
  0
LINE
  5
126
102
{ACAD_REACTORS
330
27A
102
}
330
1F
100
AcDbEntity
  8
Obrys
100
AcDbLine
 10
254.6047975743834
 20
71.87629192061237
 30
0.0
 11
254.6047975743834
 21
107.8762919206124
 31
0.0
  0
LINE
  5
127
102
{ACAD_REACTORS
330
27A
102
}
330
1F
100
AcDbEntity
  8
Obrys
100
AcDbLine
 10
254.6047975743834
 20
107.8762919206124
 30
0.0
 11
294.6047975743834
 21
107.8762919206124
 31
0.0
  0
LINE
  5
128
330
1F
100
AcDbEntity
  8
Obrys
100
AcDbLine
 10
294.6047975743834
 20
107.8762919206124
 30
0.0
 11
294.6047975743834
 21
71.87629192061237
 31
0.0
  0
LINE
  5
129
330
1F
100
AcDbEntity
  8
Obrys
100
AcDbLine
 10
294.6047975743834
 20
71.87629192061237
 30
0.0
 11
254.6047975743834
 21
71.87629192061237
 31
0.0
  0
LINE
  5
1DC
330
1F
100
AcDbEntity
  8
Obrys
100
AcDbLine
 10
270.4599349203947
 20
65.67649399538449
 30
0.0
 11
270.4599349203947
 21
71.87629192061237
 31
0.0
  0
LINE
  5
1DD
330
1F
100
AcDbEntity
  8
Obrys
100
AcDbLine
 10
282.4598994309267
 20
65.67649399538449
 30
0.0
 11
282.4598994309267
 21
71.87629192061237
 31
0.0
  0
LINE
  5
1DE
102
{ACAD_REACTORS
330
28A
102
}
330
1F
100
AcDbEntity
  8
Obrys
100
AcDbLine
 10
270.4599349203947
 20
65.67649399538449
 30
0.0
 11
270.7603474448889
 21
65.37608147089021
 31
0.0
  0
LINE
  5
1DF
330
1F
100
AcDbEntity
  8
Obrys
100
AcDbLine
 10
282.4598994309267
 20
65.67649399538449
 30
0.0
 11
282.1601759259842
 21
65.37608147089021
 31
0.0
  0
LINE
  5
1E0
330
1F
100
AcDbEntity
  8
Obrys
100
AcDbLine
 10
270.4599349203947
 20
65.67649399538449
 30
0.0
 11
282.4598994309267
 21
65.67649399538449
 31
0.0
  0
ARC
  5
1E1
330
1F
100
AcDbEntity
  8
Obrys
100
AcDbCircle
 10
272.0605336992958
 20
64.97645709646766
 30
0.0
 40
0.3996249794321041
100
AcDbArc
 50
359.9990013291708
 51
90.09969938633287
  0
ARC
  5
1E2
330
1F
100
AcDbEntity
  8
Obrys
100
AcDbCircle
 10
280.8598417596487
 20
64.9766044034475
 30
0.0
 40
0.3994770972316581
100
AcDbArc
 50
89.97787316889989
 51
180.0221268311205
  0
LINE
  5
1E3
330
1F
100
AcDbEntity
  8
Obrys
100
AcDbLine
 10
272.4601586786671
 20
64.97645013096665
 30
0.0
 11
280.4603646922059
 21
64.97645013096665
 31
0.0
  0
LINE
  5
1E4
330
1F
100
AcDbEntity
  8
Obrys
100
AcDbLine
 10
272.4601586786671
 20
64.97645013096665
 30
0.0
 11
272.4387990725677
 21
60.37655560453622
 31
0.0
  0
LINE
  5
1E5
330
1F
100
AcDbEntity
  8
Obrys
100
AcDbLine
 10
280.4603646922059
 20
64.97645013096665
 30
0.0
 11
280.4817242983052
 21
60.37655560453622
 31
0.0
  0
LINE
  5
1E6
330
1F
100
AcDbEntity
  8
Obrys
100
AcDbLine
 10
269.9597067259388
 20
60.37655560453622
 30
0.0
 11
282.9973346811687
 21
60.37655560453622
 31
0.0
  0
LINE
  5
1E7
330
1F
100
AcDbEntity
  8
Obrys
100
AcDbLine
 10
284.4601231891993
 20
54.17606865975679
 30
0.0
 11
268.4604001816738
 21
54.17606865975679
 31
0.0
  0
LINE
  5
1E8
330
1F
100
AcDbEntity
  8
Obrys
100
AcDbLine
 10
268.4604001816738
 20
54.17606865975679
 30
0.0
 11
268.4604001816738
 21
50.97626186216197
 31
0.0
  0
LINE
  5
1E9
330
1F
100
AcDbEntity
  8
Obrys
100
AcDbLine
 10
268.4604001816738
 20
52.57616526095938
 30
0.0
 11
284.4601231891993
 21
52.57616526095938
 31
0.0
  0
LINE
  5
1EA
330
1F
100
AcDbEntity
  8
Obrys
100
AcDbLine
 10
284.4601231891993
 20
50.97626186216197
 30
0.0
 11
284.4601231891993
 21
54.17606865975679
 31
0.0
  0
LINE
  5
1EB
330
1F
100
AcDbEntity
  8
Obrys
100
AcDbLine
 10
268.4604001816738
 20
50.97626186216197
 30
0.0
 11
284.4601231891993
 21
50.97626186216197
 31
0.0
  0
ARC
  5
1EC
330
1F
100
AcDbEntity
  8
Obrys
100
AcDbCircle
 10
269.2599046463146
 20
50.77620476163059
 30
0.0
 40
0.2000576004353347
100
AcDbArc
 50
89.87191346212809
 51
179.9308551336614
  0
ARC
  5
1ED
330
1F
100
AcDbEntity
  8
Obrys
100
AcDbCircle
 10
269.2599122194684
 20
49.17679182324047
 30
0.0
 40
0.2000651828984581
100
AcDbArc
 50
180.0713185680341
 51
270.1259128361432
  0
ARC
  5
1EE
330
1F
100
AcDbEntity
  8
Obrys
100
AcDbCircle
 10
283.6600279440607
 20
49.17668633914254
 30
0.0
 40
0.1999592672254959
100
AcDbArc
 50
270.0411312057862
 51
359.9588687942443
  0
ARC
  5
1EF
330
1F
100
AcDbEntity
  8
Obrys
100
AcDbCircle
 10
283.6600438460706
 20
50.77631854847029
 30
0.0
 40
0.1999433544355248
100
AcDbArc
 50
0.0365775973031562
 51
89.96342240263168
  0
LINE
  5
1F0
330
1F
100
AcDbEntity
  8
Obrys
100
AcDbLine
 10
269.0598471915591
 20
50.7764461922002
 30
0.0
 11
283.8599871597623
 21
50.7764461922002
 31
0.0
  0
LINE
  5
1F1
330
1F
100
AcDbEntity
  8
Obrys
100
AcDbLine
 10
283.8599871597623
 20
49.17654279340277
 30
0.0
 11
269.0598471915591
 21
49.17654279340277
 31
0.0
  0
LINE
  5
1F2
330
1F
100
AcDbEntity
  8
Obrys
100
AcDbLine
 10
269.2603518810723
 20
48.97672712344097
 30
0.0
 11
283.6601714898007
 21
48.976727123441
 31
0.0
  0
LINE
  5
1F3
330
1F
100
AcDbEntity
  8
Obrys
100
AcDbLine
 10
282.9601276253829
 20
60.37655560453622
 30
0.0
 11
282.9601276253829
 21
54.17606865975679
 31
0.0
  0
LINE
  5
1F4
330
1F
100
AcDbEntity
  8
Obrys
100
AcDbLine
 10
269.9597067259388
 20
60.37655560453622
 30
0.0
 11
269.9597067259388
 21
54.17606865975679
 31
0.0
  0
LINE
  5
1F5
330
1F
100
AcDbEntity
  8
Obrys
100
AcDbLine
 10
269.9597067259388
 20
48.97672712344097
 30
0.0
 11
269.9597067259388
 21
42.47651667371888
 31
0.0
  0
LINE
  5
1F6
330
1F
100
AcDbEntity
  8
Obrys
100
AcDbLine
 10
282.9601276253829
 20
48.976727123441
 30
0.0
 11
282.9601276253829
 21
42.47651667371888
 31
0.0
  0
LINE
  5
1F7
330
1F
100
AcDbEntity
  8
Obrys
100
AcDbLine
 10
269.9597067259388
 20
42.47651667371888
 30
0.0
 11
282.9601276253829
 21
42.47651667371888
 31
0.0
  0
LINE
  5
1F8
102
{ACAD_REACTORS
330
2BE
102
}
330
1F
100
AcDbEntity
  8
Obrys
100
AcDbLine
 10
272.4601586786671
 20
38.97629735162982
 30
0.0
 11
272.4601586786671
 21
42.47651667371888
 31
0.0
  0
LINE
  5
1F9
330
1F
100
AcDbEntity
  8
Obrys
100
AcDbLine
 10
280.4603646922059
 20
38.97629735162982
 30
0.0
 11
280.4603646922059
 21
42.47651667371888
 31
0.0
  0
LINE
  5
1FA
330
1F
100
AcDbEntity
  8
Obrys
100
AcDbLine
 10
272.4601586786671
 20
38.97629735162982
 30
0.0
 11
273.0602947081042
 21
38.37616132219289
 31
0.0
  0
LINE
  5
1FB
102
{ACAD_REACTORS
330
2BE
102
}
330
1F
100
AcDbEntity
  8
Obrys
100
AcDbLine
 10
280.4603646922059
 20
38.97629735162982
 30
0.0
 11
279.8602286627689
 21
38.37616132219289
 31
0.0
  0
LINE
  5
1FC
102
{ACAD_REACTORS
330
28A
330
29A
102
}
330
1F
100
AcDbEntity
  8
Obrys
100
AcDbLine
 10
273.0602947081042
 20
38.37616132219289
 30
0.0
 11
279.8602286627689
 21
38.37616132219289
 31
0.0
  0
LINE
  5
1FD
330
1F
100
AcDbEntity
  8
Obrys
100
AcDbLine
 10
270.7603474448889
 20
65.37608147089021
 30
0.0
 11
282.1601759259842
 21
65.37608147089021
 31
0.0
  0
LINE
  5
1FE
330
1F
100
AcDbEntity
  8
Obrys
100
AcDbLine
 10
269.0598471915591
 20
50.7764461922002
 30
0.0
 11
269.0598471915591
 21
49.17654279340277
 31
0.0
  0
LINE
  5
1FF
330
1F
100
AcDbEntity
  8
Obrys
100
AcDbLine
 10
283.8599871597623
 20
50.7764461922002
 30
0.0
 11
283.8599871597623
 21
49.17654279340277
 31
0.0
  0
LINE
  5
200
330
1F
100
AcDbEntity
  8
Obrys
100
AcDbLine
 10
282.0885178926185
 20
54.17606865975679
 30
0.0
 11
282.6721174528174
 21
54.34281139124214
 31
0.0
  0
LINE
  5
201
330
1F
100
AcDbEntity
  8
Obrys
100
AcDbLine
 10
275.5889964624481
 20
54.17606865975679
 30
0.0
 11
276.1719070030952
 21
54.34281139124214
 31
0.0
  0
LINE
  5
202
330
1F
100
AcDbEntity
  8
Obrys
100
AcDbLine
 10
276.7479273482263
 20
54.34281139124214
 30
0.0
 11
277.3308378888735
 21
54.17675767930839
 31
0.0
  0
LINE
  5
203
330
1F
100
AcDbEntity
  8
Obrys
100
AcDbLine
 10
270.2477168985043
 20
54.34281139124214
 30
0.0
 11
270.8313164587029
 21
54.17675767930839
 31
0.0
  0
ARC
  5
204
330
1F
100
AcDbEntity
  8
Obrys
100
AcDbCircle
 10
273.2098119507997
 20
39.33873283106282
 30
0.0
 40
9.637994292378183
100
AcDbArc
 50
72.10128863747435
 51
107.898711362525
  0
ARC
  5
205
330
1F
100
AcDbEntity
  8
Obrys
100
AcDbCircle
 10
279.7100224005218
 20
39.33873283106282
 30
0.0
 40
9.637994292378183
100
AcDbArc
 50
72.101288637475
 51
107.8987113625257
  0
ARC
  5
206
330
1F
100
AcDbEntity
  8
Obrys
100
AcDbCircle
 10
273.2098119507997
 20
50.73856131215802
 30
0.0
 40
9.637994292378183
100
AcDbArc
 50
72.10128863747435
 51
107.898711362525
  0
ARC
  5
207
330
1F
100
AcDbEntity
  8
Obrys
100
AcDbCircle
 10
279.7100224005218
 20
50.73856131215802
 30
0.0
 40
9.637994292378183
100
AcDbArc
 50
72.101288637475
 51
107.8987113625257
  0
LINE
  5
208
330
1F
100
AcDbEntity
  8
Obrys
100
AcDbLine
 10
270.2477168985043
 20
42.47651667371888
 30
0.0
 11
276.1719070030952
 21
42.47651667371888
 31
0.0
  0
ARC
  5
209
330
1F
100
AcDbEntity
  8
Obrys
100
AcDbCircle
 10
273.2098119507997
 20
52.04974117525196
 30
0.0
 40
9.576379963111973
100
AcDbArc
 50
251.9821901087614
 51
288.0178098912386
  0
ARC
  5
20A
330
1F
100
AcDbEntity
  8
Obrys
100
AcDbCircle
 10
279.7100224005218
 20
52.04974117525196
 30
0.0
 40
9.576379963111973
100
AcDbArc
 50
251.9821901087611
 51
288.0178098912382
  0
LINE
  5
20B
330
1F
100
AcDbEntity
  8
Obrys
100
AcDbLine
 10
270.2477168985043
 20
42.94298291014689
 30
0.0
 11
269.9597067259388
 21
42.94298291014689
 31
0.0
  0
LINE
  5
20C
330
1F
100
AcDbEntity
  8
Obrys
100
AcDbLine
 10
270.2477168985043
 20
48.510260887013
 30
0.0
 11
270.2477168985043
 21
42.94298291014689
 31
0.0
  0
LINE
  5
20D
330
1F
100
AcDbEntity
  8
Obrys
100
AcDbLine
 10
270.2477168985043
 20
48.510260887013
 30
0.0
 11
269.9597067259388
 21
48.510260887013
 31
0.0
  0
LINE
  5
20E
330
1F
100
AcDbEntity
  8
Obrys
100
AcDbLine
 10
276.7479273482263
 20
42.94298291014689
 30
0.0
 11
276.1719070030952
 21
42.94298291014689
 31
0.0
  0
LINE
  5
20F
330
1F
100
AcDbEntity
  8
Obrys
100
AcDbLine
 10
276.1719070030952
 20
42.94298291014689
 30
0.0
 11
276.1719070030952
 21
48.510260887013
 31
0.0
  0
LINE
  5
210
330
1F
100
AcDbEntity
  8
Obrys
100
AcDbLine
 10
276.1719070030952
 20
48.510260887013
 30
0.0
 11
276.7479273482263
 21
48.510260887013
 31
0.0
  0
LINE
  5
211
330
1F
100
AcDbEntity
  8
Obrys
100
AcDbLine
 10
276.7479273482263
 20
48.510260887013
 30
0.0
 11
276.7479273482263
 21
42.94298291014689
 31
0.0
  0
LINE
  5
212
330
1F
100
AcDbEntity
  8
Obrys
100
AcDbLine
 10
282.6721174528171
 20
48.510260887013
 30
0.0
 11
282.9601276253829
 21
48.510260887013
 31
0.0
  0
LINE
  5
213
330
1F
100
AcDbEntity
  8
Obrys
100
AcDbLine
 10
282.6721174528171
 20
48.510260887013
 30
0.0
 11
282.6721174528171
 21
42.94298291014689
 31
0.0
  0
LINE
  5
214
330
1F
100
AcDbEntity
  8
Obrys
100
AcDbLine
 10
282.6721174528171
 20
42.94298291014689
 30
0.0
 11
282.9601276253829
 21
42.94298291014689
 31
0.0
  0
LINE
  5
215
330
1F
100
AcDbEntity
  8
Obrys
100
AcDbLine
 10
270.2477168985043
 20
59.91008936810822
 30
0.0
 11
269.9597067259388
 21
59.91008936810822
 31
0.0
  0
LINE
  5
216
330
1F
100
AcDbEntity
  8
Obrys
100
AcDbLine
 10
270.2477168985043
 20
59.91008936810822
 30
0.0
 11
270.2477168985043
 21
54.34281139124214
 31
0.0
  0
LINE
  5
217
330
1F
100
AcDbEntity
  8
Obrys
100
AcDbLine
 10
270.2477168985043
 20
54.34281139124214
 30
0.0
 11
269.9597067259388
 21
54.34281139124214
 31
0.0
  0
LINE
  5
218
330
1F
100
AcDbEntity
  8
Obrys
100
AcDbLine
 10
276.7479273482263
 20
54.34281139124214
 30
0.0
 11
276.1719070030952
 21
54.34281139124214
 31
0.0
  0
LINE
  5
219
330
1F
100
AcDbEntity
  8
Obrys
100
AcDbLine
 10
276.1719070030952
 20
54.34281139124214
 30
0.0
 11
276.1719070030952
 21
59.91008936810822
 31
0.0
  0
LINE
  5
21A
330
1F
100
AcDbEntity
  8
Obrys
100
AcDbLine
 10
276.1719070030952
 20
59.91008936810822
 30
0.0
 11
276.7479273482263
 21
59.91008936810822
 31
0.0
  0
LINE
  5
21B
330
1F
100
AcDbEntity
  8
Obrys
100
AcDbLine
 10
276.7479273482263
 20
59.91008936810822
 30
0.0
 11
276.7479273482263
 21
54.34281139124214
 31
0.0
  0
LINE
  5
21C
330
1F
100
AcDbEntity
  8
Obrys
100
AcDbLine
 10
282.6721174528171
 20
59.91008936810822
 30
0.0
 11
282.9601276253829
 21
59.91008936810822
 31
0.0
  0
LINE
  5
21D
330
1F
100
AcDbEntity
  8
Obrys
100
AcDbLine
 10
282.6721174528171
 20
59.91008936810822
 30
0.0
 11
282.6721174528174
 21
54.34281139124214
 31
0.0
  0
LINE
  5
21E
330
1F
100
AcDbEntity
  8
Obrys
100
AcDbLine
 10
282.6721174528174
 20
54.34281139124214
 30
0.0
 11
282.9601276253829
 21
54.34281139124214
 31
0.0
  0
LINE
  5
21F
330
1F
100
AcDbEntity
  8
Obrys
100
AcDbLine
 10
270.4599349203947
 20
71.87629192061237
 30
0.0
 11
282.4598994309267
 21
71.87629192061237
 31
0.0
  0
LINE
  5
220
330
1F
100
AcDbEntity
  8
Obrys
100
AcDbLine
 10
280.6047798296494
 20
114.0760898458402
 30
0.0
 11
280.6047798296494
 21
107.8762919206124
 31
0.0
  0
LINE
  5
221
330
1F
100
AcDbEntity
  8
Obrys
100
AcDbLine
 10
268.6048153191174
 20
114.0760898458402
 30
0.0
 11
268.6048153191174
 21
107.8762919206124
 31
0.0
  0
LINE
  5
222
330
1F
100
AcDbEntity
  8
Obrys
100
AcDbLine
 10
280.6047798296494
 20
114.0760898458402
 30
0.0
 11
280.3043673051552
 21
114.3765023703345
 31
0.0
  0
LINE
  5
223
102
{ACAD_REACTORS
330
26A
102
}
330
1F
100
AcDbEntity
  8
Obrys
100
AcDbLine
 10
268.6048153191174
 20
114.0760898458402
 30
0.0
 11
268.90453882406
 21
114.3765023703345
 31
0.0
  0
LINE
  5
224
330
1F
100
AcDbEntity
  8
Obrys
100
AcDbLine
 10
280.6047798296494
 20
114.0760898458402
 30
0.0
 11
268.6048153191174
 21
114.0760898458402
 31
0.0
  0
ARC
  5
225
330
1F
100
AcDbEntity
  8
Obrys
100
AcDbCircle
 10
279.0041810507483
 20
114.7761267447571
 30
0.0
 40
0.3996249794321041
100
AcDbArc
 50
179.9990013291709
 51
270.0996993863247
  0
ARC
  5
226
330
1F
100
AcDbEntity
  8
Obrys
100
AcDbCircle
 10
270.2048729903954
 20
114.7759794377772
 30
0.0
 40
0.3994770972316581
100
AcDbArc
 50
269.977873168908
 51
0.0221268311204971
  0
LINE
  5
227
330
1F
100
AcDbEntity
  8
Obrys
100
AcDbLine
 10
278.604556071377
 20
114.7761337102581
 30
0.0
 11
270.6043500578382
 21
114.7761337102581
 31
0.0
  0
LINE
  5
228
330
1F
100
AcDbEntity
  8
Obrys
100
AcDbLine
 10
278.604556071377
 20
114.7761337102581
 30
0.0
 11
278.6259156774764
 21
119.3760282366885
 31
0.0
  0
LINE
  5
229
330
1F
100
AcDbEntity
  8
Obrys
100
AcDbLine
 10
270.6043500578382
 20
114.7761337102581
 30
0.0
 11
270.582990451739
 21
119.3760282366885
 31
0.0
  0
LINE
  5
22A
330
1F
100
AcDbEntity
  8
Obrys
100
AcDbLine
 10
281.1050080241054
 20
119.3760282366885
 30
0.0
 11
268.0673800688754
 21
119.3760282366885
 31
0.0
  0
LINE
  5
22B
330
1F
100
AcDbEntity
  8
Obrys
100
AcDbLine
 10
266.6045915608448
 20
125.576515181468
 30
0.0
 11
282.6043145683703
 21
125.576515181468
 31
0.0
  0
LINE
  5
22C
330
1F
100
AcDbEntity
  8
Obrys
100
AcDbLine
 10
282.6043145683703
 20
125.576515181468
 30
0.0
 11
282.6043145683703
 21
128.7763219790628
 31
0.0
  0
LINE
  5
22D
330
1F
100
AcDbEntity
  8
Obrys
100
AcDbLine
 10
282.6043145683703
 20
127.1764185802654
 30
0.0
 11
266.6045915608448
 21
127.1764185802654
 31
0.0
  0
LINE
  5
22E
330
1F
100
AcDbEntity
  8
Obrys
100
AcDbLine
 10
266.6045915608448
 20
128.7763219790628
 30
0.0
 11
266.6045915608448
 21
125.576515181468
 31
0.0
  0
LINE
  5
22F
330
1F
100
AcDbEntity
  8
Obrys
100
AcDbLine
 10
282.6043145683703
 20
128.7763219790628
 30
0.0
 11
266.6045915608448
 21
128.7763219790628
 31
0.0
  0
ARC
  5
230
330
1F
100
AcDbEntity
  8
Obrys
100
AcDbCircle
 10
281.8048101037295
 20
128.9763790795942
 30
0.0
 40
0.2000576004353347
100
AcDbArc
 50
269.8719134621281
 51
359.9308551336613
  0
ARC
  5
231
330
1F
100
AcDbEntity
  8
Obrys
100
AcDbCircle
 10
281.8048025305757
 20
130.5757920179843
 30
0.0
 40
0.2000651828984581
100
AcDbArc
 50
0.0713185680341322
 51
90.12591283615951
  0
ARC
  5
232
330
1F
100
AcDbEntity
  8
Obrys
100
AcDbCircle
 10
267.4046868059834
 20
130.5758975020822
 30
0.0
 40
0.1999592672254959
100
AcDbArc
 50
90.04113120580247
 51
179.9588687942464
  0
ARC
  5
233
330
1F
100
AcDbEntity
  8
Obrys
100
AcDbCircle
 10
267.4046709039735
 20
128.9762652927544
 30
0.0
 40
0.1999433544355248
100
AcDbArc
 50
180.0365775973031
 51
269.9634224026481
  0
LINE
  5
234
330
1F
100
AcDbEntity
  8
Obrys
100
AcDbLine
 10
282.004867558485
 20
128.9761376490245
 30
0.0
 11
267.2047275902818
 21
128.9761376490245
 31
0.0
  0
LINE
  5
235
330
1F
100
AcDbEntity
  8
Obrys
100
AcDbLine
 10
267.2047275902818
 20
130.576041047822
 30
0.0
 11
282.004867558485
 21
130.576041047822
 31
0.0
  0
LINE
  5
236
330
1F
100
AcDbEntity
  8
Obrys
100
AcDbLine
 10
281.8043628689718
 20
130.7758567177838
 30
0.0
 11
267.4045432602434
 21
130.7758567177837
 31
0.0
  0
LINE
  5
237
330
1F
100
AcDbEntity
  8
Obrys
100
AcDbLine
 10
268.1045871246612
 20
119.3760282366885
 30
0.0
 11
268.1045871246612
 21
125.576515181468
 31
0.0
  0
LINE
  5
238
330
1F
100
AcDbEntity
  8
Obrys
100
AcDbLine
 10
281.1050080241054
 20
119.3760282366885
 30
0.0
 11
281.1050080241054
 21
125.576515181468
 31
0.0
  0
LINE
  5
239
330
1F
100
AcDbEntity
  8
Obrys
100
AcDbLine
 10
281.1050080241054
 20
130.7758567177838
 30
0.0
 11
281.1050080241054
 21
137.2760671675059
 31
0.0
  0
LINE
  5
23A
330
1F
100
AcDbEntity
  8
Obrys
100
AcDbLine
 10
268.1045871246612
 20
130.7758567177837
 30
0.0
 11
268.1045871246612
 21
137.2760671675059
 31
0.0
  0
LINE
  5
23B
330
1F
100
AcDbEntity
  8
Obrys
100
AcDbLine
 10
281.1050080241054
 20
137.2760671675059
 30
0.0
 11
268.1045871246612
 21
137.2760671675059
 31
0.0
  0
LINE
  5
23C
330
1F
100
AcDbEntity
  8
Obrys
100
AcDbLine
 10
278.604556071377
 20
140.7762864895949
 30
0.0
 11
278.604556071377
 21
137.2760671675059
 31
0.0
  0
LINE
  5
23D
330
1F
100
AcDbEntity
  8
Obrys
100
AcDbLine
 10
270.6043500578382
 20
140.7762864895949
 30
0.0
 11
270.6043500578382
 21
137.2760671675059
 31
0.0
  0
LINE
  5
23E
330
1F
100
AcDbEntity
  8
Obrys
100
AcDbLine
 10
278.604556071377
 20
140.7762864895949
 30
0.0
 11
278.00442004194
 21
141.3764225190318
 31
0.0
  0
LINE
  5
23F
102
{ACAD_REACTORS
330
26A
330
29A
102
}
330
1F
100
AcDbEntity
  8
Obrys
100
AcDbLine
 10
270.6043500578382
 20
140.7762864895949
 30
0.0
 11
271.2044860872751
 21
141.3764225190318
 31
0.0
  0
LINE
  5
240
330
1F
100
AcDbEntity
  8
Obrys
100
AcDbLine
 10
278.00442004194
 20
141.3764225190318
 30
0.0
 11
271.2044860872751
 21
141.3764225190318
 31
0.0
  0
LINE
  5
241
330
1F
100
AcDbEntity
  8
Obrys
100
AcDbLine
 10
280.3043673051552
 20
114.3765023703345
 30
0.0
 11
268.90453882406
 21
114.3765023703345
 31
0.0
  0
LINE
  5
242
330
1F
100
AcDbEntity
  8
Obrys
100
AcDbLine
 10
282.004867558485
 20
128.9761376490245
 30
0.0
 11
282.004867558485
 21
130.576041047822
 31
0.0
  0
LINE
  5
243
330
1F
100
AcDbEntity
  8
Obrys
100
AcDbLine
 10
267.2047275902818
 20
128.9761376490245
 30
0.0
 11
267.2047275902818
 21
130.576041047822
 31
0.0
  0
LINE
  5
244
330
1F
100
AcDbEntity
  8
Obrys
100
AcDbLine
 10
268.9761968574256
 20
125.576515181468
 30
0.0
 11
268.3925972972268
 21
125.4097724499826
 31
0.0
  0
LINE
  5
245
330
1F
100
AcDbEntity
  8
Obrys
100
AcDbLine
 10
275.475718287596
 20
125.576515181468
 30
0.0
 11
274.892807746949
 21
125.4097724499826
 31
0.0
  0
LINE
  5
246
330
1F
100
AcDbEntity
  8
Obrys
100
AcDbLine
 10
274.3167874018177
 20
125.4097724499826
 30
0.0
 11
273.7338768611706
 21
125.5758261619164
 31
0.0
  0
LINE
  5
247
330
1F
100
AcDbEntity
  8
Obrys
100
AcDbLine
 10
280.8169978515398
 20
125.4097724499826
 30
0.0
 11
280.2333982913412
 21
125.5758261619164
 31
0.0
  0
ARC
  5
248
330
1F
100
AcDbEntity
  8
Obrys
100
AcDbCircle
 10
277.8549027992444
 20
140.4138510101619
 30
0.0
 40
9.637994292378183
100
AcDbArc
 50
252.1012886374747
 51
287.8987113625254
  0
ARC
  5
249
330
1F
100
AcDbEntity
  8
Obrys
100
AcDbCircle
 10
271.3546923495223
 20
140.4138510101619
 30
0.0
 40
9.637994292378183
100
AcDbArc
 50
252.1012886374747
 51
287.8987113625254
  0
ARC
  5
24A
330
1F
100
AcDbEntity
  8
Obrys
100
AcDbCircle
 10
277.8549027992444
 20
129.0140225290667
 30
0.0
 40
9.637994292378183
100
AcDbArc
 50
252.1012886374747
 51
287.8987113625254
  0
ARC
  5
24B
330
1F
100
AcDbEntity
  8
Obrys
100
AcDbCircle
 10
271.3546923495223
 20
129.0140225290667
 30
0.0
 40
9.637994292378183
100
AcDbArc
 50
252.1012886374747
 51
287.8987113625254
  0
LINE
  5
24C
330
1F
100
AcDbEntity
  8
Obrys
100
AcDbLine
 10
280.8169978515398
 20
137.2760671675059
 30
0.0
 11
274.892807746949
 21
137.2760671675059
 31
0.0
  0
ARC
  5
24D
330
1F
100
AcDbEntity
  8
Obrys
100
AcDbCircle
 10
277.8549027992444
 20
127.7028426659728
 30
0.0
 40
9.576379963111973
100
AcDbArc
 50
71.98219010876147
 51
108.0178098912385
  0
ARC
  5
24E
330
1F
100
AcDbEntity
  8
Obrys
100
AcDbCircle
 10
271.3546923495223
 20
127.7028426659728
 30
0.0
 40
9.576379963111973
100
AcDbArc
 50
71.98219010876147
 51
108.0178098912385
  0
LINE
  5
24F
330
1F
100
AcDbEntity
  8
Obrys
100
AcDbLine
 10
280.8169978515398
 20
136.8096009310779
 30
0.0
 11
281.1050080241054
 21
136.8096009310779
 31
0.0
  0
LINE
  5
250
330
1F
100
AcDbEntity
  8
Obrys
100
AcDbLine
 10
280.8169978515398
 20
131.2423229542117
 30
0.0
 11
280.8169978515398
 21
136.8096009310779
 31
0.0
  0
LINE
  5
251
330
1F
100
AcDbEntity
  8
Obrys
100
AcDbLine
 10
280.8169978515398
 20
131.2423229542117
 30
0.0
 11
281.1050080241054
 21
131.2423229542117
 31
0.0
  0
LINE
  5
252
330
1F
100
AcDbEntity
  8
Obrys
100
AcDbLine
 10
274.3167874018177
 20
136.8096009310779
 30
0.0
 11
274.892807746949
 21
136.8096009310779
 31
0.0
  0
LINE
  5
253
330
1F
100
AcDbEntity
  8
Obrys
100
AcDbLine
 10
274.892807746949
 20
136.8096009310779
 30
0.0
 11
274.892807746949
 21
131.2423229542117
 31
0.0
  0
LINE
  5
254
330
1F
100
AcDbEntity
  8
Obrys
100
AcDbLine
 10
274.892807746949
 20
131.2423229542117
 30
0.0
 11
274.3167874018177
 21
131.2423229542117
 31
0.0
  0
LINE
  5
255
330
1F
100
AcDbEntity
  8
Obrys
100
AcDbLine
 10
274.3167874018177
 20
131.2423229542117
 30
0.0
 11
274.3167874018177
 21
136.8096009310779
 31
0.0
  0
LINE
  5
256
330
1F
100
AcDbEntity
  8
Obrys
100
AcDbLine
 10
268.392597297227
 20
131.2423229542117
 30
0.0
 11
268.1045871246612
 21
131.2423229542117
 31
0.0
  0
LINE
  5
257
330
1F
100
AcDbEntity
  8
Obrys
100
AcDbLine
 10
268.392597297227
 20
131.2423229542117
 30
0.0
 11
268.392597297227
 21
136.8096009310779
 31
0.0
  0
LINE
  5
258
330
1F
100
AcDbEntity
  8
Obrys
100
AcDbLine
 10
268.392597297227
 20
136.8096009310779
 30
0.0
 11
268.1045871246612
 21
136.8096009310779
 31
0.0
  0
LINE
  5
259
330
1F
100
AcDbEntity
  8
Obrys
100
AcDbLine
 10
280.8169978515398
 20
119.8424944731165
 30
0.0
 11
281.1050080241054
 21
119.8424944731165
 31
0.0
  0
LINE
  5
25A
330
1F
100
AcDbEntity
  8
Obrys
100
AcDbLine
 10
280.8169978515398
 20
119.8424944731165
 30
0.0
 11
280.8169978515398
 21
125.4097724499826
 31
0.0
  0
LINE
  5
25B
330
1F
100
AcDbEntity
  8
Obrys
100
AcDbLine
 10
280.8169978515398
 20
125.4097724499826
 30
0.0
 11
281.1050080241054
 21
125.4097724499826
 31
0.0
  0
LINE
  5
25C
330
1F
100
AcDbEntity
  8
Obrys
100
AcDbLine
 10
274.3167874018177
 20
125.4097724499826
 30
0.0
 11
274.892807746949
 21
125.4097724499826
 31
0.0
  0
LINE
  5
25D
330
1F
100
AcDbEntity
  8
Obrys
100
AcDbLine
 10
274.892807746949
 20
125.4097724499826
 30
0.0
 11
274.892807746949
 21
119.8424944731165
 31
0.0
  0
LINE
  5
25E
330
1F
100
AcDbEntity
  8
Obrys
100
AcDbLine
 10
274.892807746949
 20
119.8424944731165
 30
0.0
 11
274.3167874018177
 21
119.8424944731165
 31
0.0
  0
LINE
  5
25F
330
1F
100
AcDbEntity
  8
Obrys
100
AcDbLine
 10
274.3167874018177
 20
119.8424944731165
 30
0.0
 11
274.3167874018177
 21
125.4097724499826
 31
0.0
  0
LINE
  5
260
330
1F
100
AcDbEntity
  8
Obrys
100
AcDbLine
 10
268.392597297227
 20
119.8424944731165
 30
0.0
 11
268.1045871246612
 21
119.8424944731165
 31
0.0
  0
LINE
  5
261
330
1F
100
AcDbEntity
  8
Obrys
100
AcDbLine
 10
268.392597297227
 20
119.8424944731165
 30
0.0
 11
268.3925972972268
 21
125.4097724499826
 31
0.0
  0
LINE
  5
262
330
1F
100
AcDbEntity
  8
Obrys
100
AcDbLine
 10
268.3925972972268
 20
125.4097724499826
 30
0.0
 11
268.1045871246612
 21
125.4097724499826
 31
0.0
  0
LINE
  5
263
330
1F
100
AcDbEntity
  8
Obrys
100
AcDbLine
 10
280.6047798296494
 20
107.8762919206124
 30
0.0
 11
268.6048153191174
 21
107.8762919206124
 31
0.0
  0
DIMENSION
  5
268
102
{ACAD_REACTORS
330
26A
102
}
102
{ACAD_XDICTIONARY
360
269
102
}
330
1F
100
AcDbEntity
  8
Koty
100
AcDbDimension
280
     0
  2
*D0
 10
245.1184296172709
 20
114.3765023703345
 30
0.0
 11
242.3169296172709
 21
127.8764624446831
 31
0.0
 70
    32
 71
     5
 42
26.99992014869729
 73
     0
 74
     0
 75
     0
  3
Standard
100
AcDbAlignedDimension
 13
271.2044860872751
 23
141.3764225190318
 33
0.0
 14
268.90453882406
 24
114.3765023703345
 34
0.0
 50
90.0
100
AcDbRotatedDimension
1001
ACAD
1000
DSTYLE
1002
{
1070
   271
1070
     1
1070
   278
1070
    44
1070
   140
1040
3.0
1070
    74
1070
     0
1070
    73
1070
     0
1070
    77
1070
     1
1070
   147
1040
1.0
1070
    41
1040
3.0
1002
}
  0
DIMENSION
  5
278
102
{ACAD_REACTORS
330
27A
102
}
102
{ACAD_XDICTIONARY
360
279
102
}
330
1F
100
AcDbEntity
  8
Koty
100
AcDbDimension
280
     0
  2
*D1
 10
245.1184296172709
 20
71.87629192061237
 30
0.0
 11
242.3169296172709
 21
89.87629192061239
 31
0.0
 70
    32
 71
     5
 42
36.00000000000003
 73
     0
 74
     0
 75
     0
  3
Standard
100
AcDbAlignedDimension
 13
254.6047975743834
 23
107.8762919206124
 33
0.0
 14
254.6047975743834
 24
71.87629192061237
 34
0.0
 50
90.0
100
AcDbRotatedDimension
1001
ACAD
1000
DSTYLE
1002
{
1070
   271
1070
     1
1070
   278
1070
    44
1070
   140
1040
3.0
1070
    74
1070
     0
1070
    73
1070
     0
1070
    77
1070
     1
1070
   147
1040
1.0
1070
    41
1040
3.0
1002
}
  0
DIMENSION
  5
288
102
{ACAD_REACTORS
330
28A
102
}
102
{ACAD_XDICTIONARY
360
289
102
}
330
1F
100
AcDbEntity
  8
Koty
100
AcDbDimension
280
     0
  2
*D2
 10
245.1184296172709
 20
65.37608147089021
 30
0.0
 11
242.3169296172709
 21
51.87612139654155
 31
0.0
 70
    32
 71
     5
 42
26.99992014869732
 73
     0
 74
     0
 75
     0
  3
Standard
100
AcDbAlignedDimension
 13
273.0602947081042
 23
38.37616132219289
 33
0.0
 14
270.7603474448889
 24
65.37608147089021
 34
0.0
 50
90.0
100
AcDbRotatedDimension
1001
ACAD
1000
DSTYLE
1002
{
1070
   271
1070
     1
1070
   278
1070
    44
1070
   140
1040
3.0
1070
    74
1070
     0
1070
    73
1070
     0
1070
    77
1070
     1
1070
   147
1040
1.0
1070
    41
1040
3.0
1002
}
  0
DIMENSION
  5
298
102
{ACAD_REACTORS
330
29A
102
}
102
{ACAD_XDICTIONARY
360
299
102
}
330
1F
100
AcDbEntity
  8
Koty
100
AcDbDimension
280
     0
  2
*D3
 10
230.7648870104615
 20
141.3764225190318
 30
0.0
 11
227.9633870104615
 21
89.87629192061235
 31
0.0
 70
    32
 71
     5
 42
103.0002611968389
 73
     0
 74
     0
 75
     0
  3
Standard
100
AcDbAlignedDimension
 13
273.0602947081042
 23
38.37616132219289
 33
0.0
 14
271.2044860872751
 24
141.3764225190318
 34
0.0
 50
90.0
100
AcDbRotatedDimension
1001
ACAD
1000
DSTYLE
1002
{
1070
   271
1070
     1
1070
   278
1070
    44
1070
   140
1040
3.0
1070
    74
1070
     0
1070
    73
1070
     0
1070
    77
1070
     1
1070
   147
1040
1.0
1070
    41
1040
3.0
1002
}
  0
DIMENSION
  5
2A8
102
{ACAD_XDICTIONARY
360
2A9
102
}
330
1F
100
AcDbEntity
  8
Koty
100
AcDbDimension
280
     0
  2
*D4
 10
294.6047975743834
 20
90.6825328203329
 30
0.0
 11
274.6047975743834
 21
93.4840328203329
 31
0.0
 70
    32
 71
     5
 42
39.99999999999997
 73
     0
 74
     0
 75
     0
  3
Standard
100
AcDbAlignedDimension
 13
254.6047975743834
 23
90.6825328203329
 33
0.0
 14
294.6047975743834
 24
90.6825328203329
 34
0.0
100
AcDbRotatedDimension
1001
ACAD
1000
DSTYLE
1002
{
1070
   271
1070
     1
1070
   278
1070
    44
1070
   140
1040
3.0
1070
    74
1070
     0
1070
    73
1070
     0
1070
    77
1070
     1
1070
   147
1040
1.0
1070
    41
1040
3.0
1002
}
  0
DIMENSION
  5
2BC
102
{ACAD_REACTORS
330
2BE
102
}
102
{ACAD_XDICTIONARY
360
2BD
102
}
330
1F
100
AcDbEntity
  8
Koty
100
AcDbDimension
280
     0
  2
*D5
 10
280.4603646922059
 20
31.24706307715794
 30
0.0
 11
276.4602616854365
 21
33.77856307715794
 31
0.0
 70
    32
  1
M8
 71
     5
 42
8.000206013538843
 73
     0
 74
     0
 75
     0
  3
Standard
100
AcDbAlignedDimension
 13
272.4601586786671
 23
38.97629735162982
 33
0.0
 14
280.4603646922059
 24
38.97629735162982
 34
0.0
100
AcDbRotatedDimension
1001
ACAD
1000
DSTYLE
1002
{
1070
   271
1070
     1
1070
    73
1070
     0
1070
    77
1070
     1
1070
   140
1040
3.0
1070
   147
1040
1.0
1070
    41
1040
3.0
1002
}
  0
VIEWPORT
  5
2D0
330
2CC
100
AcDbEntity
 67
     1
  8
0
100
AcDbViewport
 10
5.25
 20
3.5
 30
0.0
 40
12.6
 41
8.4
 68
     1
 69
     1
 12
5.25
 22
3.5
 13
0.0
 23
0.0
 14
0.5
 24
0.5
 15
0.0
 25
0.0
 16
0.0
 26
0.0
 36
1.0
 17
0.0
 27
0.0
 37
0.0
 42
50.0
 43
0.0
 44
0.0
 45
8.4
 50
0.0
 51
0.0
 72
   100
 90
   557152
  1

281
     0
 71
     1
 74
     0
110
0.0
120
0.0
130
0.0
111
1.0
121
0.0
131
0.0
112
0.0
122
1.0
132
0.0
 79
     0
146
0.0
170
     0
 61
     5
348
9F
292
     1
282
     1
141
0.0
142
0.0
 63
   256
361
2D2
  0
VIEWPORT
  5
2D1
330
2CC
100
AcDbEntity
 67
     1
  8
0
100
AcDbViewport
 10
5.25
 20
3.5
 30
0.0
 40
8.4
 41
5.600000000000001
 68
     2
 69
     2
 12
260.6503422924225
 22
86.0617427980949
 13
0.0
 23
0.0
 14
0.5
 24
0.5
 15
0.0
 25
0.0
 16
0.0
 26
0.0
 36
1.0
 17
0.0
 27
0.0
 37
0.0
 42
50.0
 43
0.0
 44
0.0
 45
112.8419466307114
 50
0.0
 51
0.0
 72
   100
 90
   557152
  1

281
     0
 71
     1
 74
     0
110
0.0
120
0.0
130
0.0
111
1.0
121
0.0
131
0.0
112
0.0
122
1.0
132
0.0
 79
     0
146
0.0
170
     0
 61
     5
348
9F
292
     1
282
     1
141
0.0
142
0.0
 63
   256
  0
ENDSEC
  0
SECTION
  2
OBJECTS
  0
DICTIONARY
  5
C
330
0
100
AcDbDictionary
281
     1
  3
ACAD_COLOR
350
73
  3
ACAD_DETAILVIEWSTYLE
350
122
  3
ACAD_GROUP
350
D
  3
ACAD_IMAGE_VARS
350
DC
  3
ACAD_LAYOUT
350
1A
  3
ACAD_MATERIAL
350
72
  3
ACAD_MLEADERSTYLE
350
B5
  3
ACAD_MLINESTYLE
350
17
  3
ACAD_PLOTSETTINGS
350
19
  3
ACAD_PLOTSTYLENAME
350
E
  3
ACAD_SCALELIST
350
B6
  3
ACAD_SECTIONVIEWSTYLE
350
123
  3
ACAD_TABLESTYLE
350
86
  3
ACAD_VISUALSTYLE
350
99
  3
ACDB_RECOMPOSE_DATA
350
2D8
  3
AcDbVariableDictionary
350
66
  3
APPDATA
350
E1
  0
SUN
  5
ED
330
94
100
AcDbSun
 90
        1
290
     0
 63
     7
421
 16777215
 40
1.0
291
     1
 91
  2455826
 92
 54000000
292
     0
 70
     2
 71
   256
280
     1
  0
DICTIONARY
  5
193
330
2
100
AcDbDictionary
280
     1
281
     1
  3
ACAD_LAYERSTATES
360
194
  3
ACLYDICTIONARY
360
266
  0
DICTIONARY
  5
269
330
268
100
AcDbDictionary
280
     1
281
     1
  3
ACAD_DIMASSOC
360
26A
  0
DICTIONARY
  5
279
330
278
100
AcDbDictionary
280
     1
281
     1
  3
ACAD_DIMASSOC
360
27A
  0
DICTIONARY
  5
289
330
288
100
AcDbDictionary
280
     1
281
     1
  3
ACAD_DIMASSOC
360
28A
  0
DICTIONARY
  5
299
330
298
100
AcDbDictionary
280
     1
281
     1
  3
ACAD_DIMASSOC
360
29A
  0
DICTIONARY
  5
2A9
330
2A8
100
AcDbDictionary
280
     1
281
     1
  0
DICTIONARY
  5
2BD
330
2BC
100
AcDbDictionary
280
     1
281
     1
  3
ACAD_DIMASSOC
360
2BE
  0
SUN
  5
2D2
330
2D0
100
AcDbSun
 90
        1
290
     0
 63
     7
421
 16777215
 40
1.0
291
     1
 91
  2455826
 92
 54000000
292
     0
 70
     2
 71
   256
280
     1
  0
DICTIONARY
  5
73
102
{ACAD_REACTORS
330
C
102
}
330
C
100
AcDbDictionary
281
     1
  0
DICTIONARY
  5
122
102
{ACAD_REACTORS
330
C
102
}
330
C
100
AcDbDictionary
281
     1
  0
DICTIONARY
  5
D
102
{ACAD_REACTORS
330
C
102
}
330
C
100
AcDbDictionary
281
     1
  0
RASTERVARIABLES
  5
DC
102
{ACAD_REACTORS
330
C
102
}
330
C
100
AcDbRasterVariables
 90
        0
 70
     1
 71
     1
 72
     5
  0
DICTIONARY
  5
1A
102
{ACAD_REACTORS
330
C
102
}
330
C
100
AcDbDictionary
281
     1
  3
Model
350
22
  3
Sheet1
350
2CD
  0
DICTIONARY
  5
72
102
{ACAD_REACTORS
330
C
102
}
330
C
100
AcDbDictionary
281
     1
  3
ByBlock
350
E2
  3
ByLayer
350
96
  3
Global
350
98
  0
DICTIONARY
  5
B5
102
{ACAD_REACTORS
330
C
102
}
330
C
100
AcDbDictionary
281
     1
  3
Standard
350
124
  0
DICTIONARY
  5
17
102
{ACAD_REACTORS
330
C
102
}
330
C
100
AcDbDictionary
281
     1
  3
Standard
350
18
  0
DICTIONARY
  5
19
102
{ACAD_REACTORS
330
C
102
}
330
C
100
AcDbDictionary
281
     1
  0
ACDBDICTIONARYWDFLT
  5
E
102
{ACAD_REACTORS
330
C
102
}
330
C
100
AcDbDictionary
281
     1
  3
Normal
350
F
100
AcDbDictionaryWithDefault
340
F
  0
DICTIONARY
  5
B6
102
{ACAD_REACTORS
330
C
102
}
330
C
100
AcDbDictionary
281
     1
  3
A0
350
B7
  3
A1
350
B8
  3
A2
350
B9
  3
A3
350
BA
  3
A4
350
BB
  3
A5
350
BC
  3
A6
350
BD
  3
A7
350
BE
  3
A8
350
BF
  3
A9
350
C0
  3
B0
350
C1
  3
B1
350
C2
  3
B2
350
C3
  3
B3
350
C4
  3
B4
350
C5
  3
B5
350
C6
  3
B6
350
C7
  3
B7
350
C8
  3
B8
350
C9
  3
B9
350
CA
  3
C0
350
CB
  3
C1
350
CC
  3
C2
350
CD
  3
C3
350
CE
  3
C4
350
CF
  3
C5
350
D0
  3
C6
350
D1
  3
C7
350
D2
  3
C8
350
D3
  3
C9
350
D4
  3
D0
350
D5
  3
D1
350
D6
  3
D2
350
D7
  0
DICTIONARY
  5
123
102
{ACAD_REACTORS
330
C
102
}
330
C
100
AcDbDictionary
281
     1
  0
DICTIONARY
  5
86
102
{ACAD_REACTORS
330
C
102
}
330
C
100
AcDbDictionary
281
     1
  3
Standard
350
87
  0
DICTIONARY
  5
99
102
{ACAD_REACTORS
330
C
102
}
330
C
100
AcDbDictionary
281
     1
  3
2dWireframe
350
9F
  3
3D Hidden
350
A1
  3
3dWireframe
350
A0
  3
Basic
350
9E
  3
Brighten
350
A5
  3
ColorChange
350
A9
  3
Conceptual
350
A2
  3
Dim
350
A4
  3
EdgeColorOff
350
E7
  3
Facepattern
350
A8
  3
Flat
350
9A
  3
FlatWithEdges
350
9B
  3
Gouraud
350
9C
  3
GouraudWithEdges
350
9D
  3
Hidden
350
E4
  3
JitterOff
350
E5
  3
Linepattern
350
A7
  3
OverhangOff
350
E6
  3
Realistic
350
A3
  3
Shaded
350
EC
  3
Shaded with edges
350
EB
  3
Shades of Gray
350
E8
  3
Sketchy
350
E9
  3
Thicken
350
A6
  3
Wireframe
350
E3
  3
X-Ray
350
EA
  0
XRECORD
  5
2D8
102
{ACAD_REACTORS
330
C
102
}
330
C
100
AcDbXrecord
280
     1
 90
        1
330
87
  0
DICTIONARY
  5
66
102
{ACAD_REACTORS
330
C
102
}
330
C
100
AcDbDictionary
281
     1
  3
CANNOSCALE
350
D8
  3
CMLEADERSTYLE
350
2B8
  3
CTABLESTYLE
350
89
  3
DIMASSOC
350
67
  3
HIDETEXT
350
6B
  3
LIGHTSINBLOCKS
350
DF
  3
XCLIPFRAME
350
E0
  0
DICTIONARY
  5
E1
102
{ACAD_REACTORS
330
C
102
}
330
C
100
AcDbDictionary
281
     1
  0
DICTIONARY
  5
194
102
{ACAD_REACTORS
330
193
102
}
330
193
100
AcDbDictionary
281
     1
  3
ARGON_LAYERP_1
350
265
  0
DICTIONARY
  5
266
102
{ACAD_REACTORS
330
193
102
}
330
193
100
AcDbDictionary
281
     1
1001
ACAD
1000
<All
  0
DIMASSOC
  5
26A
102
{ACAD_REACTORS
330
269
102
}
330
269
100
AcDbDimAssoc
330
268
 90
        3
 70
     0
 71
     1
  1
AcDbOsnapPointRef
 72
     1
331
23F
 73
     0
 91
        0
 40
0.0
 10
0.0
 20
0.0
 30
0.0
 75
     0
  1
AcDbOsnapPointRef
 72
     1
331
223
 73
     0
 91
        0
 40
0.0
 10
0.0
 20
0.0
 30
0.0
 75
     0
  0
DIMASSOC
  5
27A
102
{ACAD_REACTORS
330
279
102
}
330
279
100
AcDbDimAssoc
330
278
 90
        3
 70
     0
 71
     1
  1
AcDbOsnapPointRef
 72
    13
331
127
 73
     0
 91
        0
 40
0.0
 10
0.0
 20
0.0
 30
0.0
 75
     0
  1
AcDbOsnapPointRef
 72
    13
331
126
 73
     0
 91
        0
 40
0.0
 10
0.0
 20
0.0
 30
0.0
 75
     0
  0
DIMASSOC
  5
28A
102
{ACAD_REACTORS
330
289
102
}
330
289
100
AcDbDimAssoc
330
288
 90
        3
 70
     0
 71
     1
  1
AcDbOsnapPointRef
 72
    13
331
1FC
 73
     0
 91
        0
 40
0.0
 10
0.0
 20
0.0
 30
0.0
 75
     0
  1
AcDbOsnapPointRef
 72
     1
331
1DE
 73
     0
 91
        0
 40
0.0
 10
0.0
 20
0.0
 30
0.0
 75
     0
  0
DIMASSOC
  5
29A
102
{ACAD_REACTORS
330
299
102
}
330
299
100
AcDbDimAssoc
330
298
 90
        3
 70
     0
 71
     1
  1
AcDbOsnapPointRef
 72
    13
331
1FC
 73
     0
 91
        0
 40
0.0
 10
0.0
 20
0.0
 30
0.0
 75
     0
  1
AcDbOsnapPointRef
 72
     1
331
23F
 73
     0
 91
        0
 40
0.0
 10
0.0
 20
0.0
 30
0.0
 75
     0
  0
DIMASSOC
  5
2BE
102
{ACAD_REACTORS
330
2BD
102
}
330
2BD
100
AcDbDimAssoc
330
2BC
 90
        3
 70
     0
 71
     1
  1
AcDbOsnapPointRef
 72
    13
331
1F8
 73
     0
 91
        0
 40
0.0
 10
0.0
 20
0.0
 30
0.0
 75
     0
  1
AcDbOsnapPointRef
 72
    13
331
1FB
 73
     0
 91
        0
 40
0.0
 10
0.0
 20
0.0
 30
0.0
 75
     0
  0
LAYOUT
  5
22
102
{ACAD_REACTORS
330
1A
102
}
330
1A
100
AcDbPlotSettings
  1

  2
none_device
  4
ANSI_A_(8.50_x_11.00_Inches)
  6

 40
6.35
 41
19.05
 42
6.35
 43
19.05
 44
215.9
 45
279.4
 46
11.11250000000003
 47
0.0000000000000142
 48
0.0
 49
0.0
140
0.0
141
0.0
142
1.0
143
1.263157894736842
 70
 11444
 72
     0
 73
     1
 74
     1
  7
monochrome.ctb
 75
     0
 76
     0
 77
     2
 78
   300
147
0.7916666666666665
148
-702.8076765758875
149
-496.2830551296954
100
AcDbLayout
  1
Model
 70
     1
 71
     0
 10
0.0
 20
0.0
 11
12.0
 21
9.0
 12
0.0
 22
0.0
 32
0.0
 14
226.1558870104615
 24
30.74706307715794
 34
0.0
 15
294.6047975743834
 25
141.3764225190318
 35
0.0
146
0.0
 13
0.0
 23
0.0
 33
0.0
 16
1.0
 26
0.0
 36
0.0
 17
0.0
 27
1.0
 37
0.0
 76
     0
330
1F
331
94
  0
LAYOUT
  5
2CD
102
{ACAD_REACTORS
330
1A
102
}
330
1A
100
AcDbPlotSettings
  1

  2
none_device
  4
ANSI_A_(11.00_x_8.50_Inches)
  6

 40
6.35
 41
19.05
 42
6.35
 43
19.05
 44
279.4
 45
215.9
 46
0.0
 47
0.0
 48
0.0
 49
0.0
140
0.0
141
0.0
142
1.0
143
1.0
 70
   688
 72
     0
 73
     0
 74
     5
  7

 75
    16
 76
     0
 77
     2
 78
   300
147
1.0
148
0.0
149
0.0
100
AcDbLayout
  1
Sheet1
 70
     1
 71
     1
 10
-0.25
 20
-0.7500000000000001
 11
10.75
 21
7.75
 12
0.0
 22
0.0
 32
0.0
 14
1.05
 24
0.6999999999999997
 34
0.0
 15
9.45
 25
6.300000000000001
 35
0.0
146
0.0
 13
0.0
 23
0.0
 33
0.0
 16
1.0
 26
0.0
 36
0.0
 17
0.0
 27
1.0
 37
0.0
 76
     0
330
2CC
331
2D0
  0
MATERIAL
  5
E2
102
{ACAD_REACTORS
330
72
102
}
330
72
100
AcDbMaterial
  1
ByBlock
 72
     1
 94
      127
  0
MATERIAL
  5
96
102
{ACAD_REACTORS
330
72
102
}
330
72
100
AcDbMaterial
  1
ByLayer
 72
     1
 94
       63
  0
MATERIAL
  5
98
102
{ACAD_REACTORS
330
72
102
}
330
72
100
AcDbMaterial
  1
Global
 72
     1
 94
       63
  0
MLEADERSTYLE
  5
124
102
{ACAD_REACTORS
330
B5
102
}
330
B5
100
AcDbMLeaderStyle
179
     2
170
     2
171
     1
172
     0
 90
        2
 40
0.0
 41
0.0
173
     1
 91
-1056964608
340
14
 92
       -2
290
     1
 42
0.09
291
     1
 43
0.36
  3
Standard
341
0
 44
0.18
300

342
11
174
     1
178
     6
175
     1
176
     0
 93
-1056964608
 45
0.18
292
     0
297
     0
 46
0.18
343
0
 94
-1056964608
 47
1.0
 49
1.0
140
1.0
293
     1
141
0.0
294
     1
177
     0
142
1.0
295
     0
296
     0
143
0.125
271
     0
272
     9
273
     9
298
     0
  0
MLINESTYLE
  5
18
102
{ACAD_REACTORS
330
17
102
}
330
17
100
AcDbMlineStyle
  2
STANDARD
 70
     0
  3

 62
   256
 51
90.0
 52
90.0
 71
     2
 49
0.5
 62
   256
  6
BYLAYER
 49
-0.5
 62
   256
  6
BYLAYER
  0
ACDBPLACEHOLDER
  5
F
102
{ACAD_REACTORS
330
E
102
}
330
E
  0
SCALE
  5
B7
102
{ACAD_REACTORS
330
B6
102
}
330
B6
100
AcDbScale
 70
     0
300
1:1
140
1.0
141
1.0
290
     1
  0
SCALE
  5
B8
102
{ACAD_REACTORS
330
B6
102
}
330
B6
100
AcDbScale
 70
     0
300
1:2
140
1.0
141
2.0
290
     0
  0
SCALE
  5
B9
102
{ACAD_REACTORS
330
B6
102
}
330
B6
100
AcDbScale
 70
     0
300
1:4
140
1.0
141
4.0
290
     0
  0
SCALE
  5
BA
102
{ACAD_REACTORS
330
B6
102
}
330
B6
100
AcDbScale
 70
     0
300
1:5
140
1.0
141
5.0
290
     0
  0
SCALE
  5
BB
102
{ACAD_REACTORS
330
B6
102
}
330
B6
100
AcDbScale
 70
     0
300
1:8
140
1.0
141
8.0
290
     0
  0
SCALE
  5
BC
102
{ACAD_REACTORS
330
B6
102
}
330
B6
100
AcDbScale
 70
     0
300
1:10
140
1.0
141
10.0
290
     0
  0
SCALE
  5
BD
102
{ACAD_REACTORS
330
B6
102
}
330
B6
100
AcDbScale
 70
     0
300
1:16
140
1.0
141
16.0
290
     0
  0
SCALE
  5
BE
102
{ACAD_REACTORS
330
B6
102
}
330
B6
100
AcDbScale
 70
     0
300
1:20
140
1.0
141
20.0
290
     0
  0
SCALE
  5
BF
102
{ACAD_REACTORS
330
B6
102
}
330
B6
100
AcDbScale
 70
     0
300
1:30
140
1.0
141
30.0
290
     0
  0
SCALE
  5
C0
102
{ACAD_REACTORS
330
B6
102
}
330
B6
100
AcDbScale
 70
     0
300
1:40
140
1.0
141
40.0
290
     0
  0
SCALE
  5
C1
102
{ACAD_REACTORS
330
B6
102
}
330
B6
100
AcDbScale
 70
     0
300
1:50
140
1.0
141
50.0
290
     0
  0
SCALE
  5
C2
102
{ACAD_REACTORS
330
B6
102
}
330
B6
100
AcDbScale
 70
     0
300
1:100
140
1.0
141
100.0
290
     0
  0
SCALE
  5
C3
102
{ACAD_REACTORS
330
B6
102
}
330
B6
100
AcDbScale
 70
     0
300
2:1
140
2.0
141
1.0
290
     0
  0
SCALE
  5
C4
102
{ACAD_REACTORS
330
B6
102
}
330
B6
100
AcDbScale
 70
     0
300
4:1
140
4.0
141
1.0
290
     0
  0
SCALE
  5
C5
102
{ACAD_REACTORS
330
B6
102
}
330
B6
100
AcDbScale
 70
     0
300
8:1
140
8.0
141
1.0
290
     0
  0
SCALE
  5
C6
102
{ACAD_REACTORS
330
B6
102
}
330
B6
100
AcDbScale
 70
     0
300
10:1
140
10.0
141
1.0
290
     0
  0
SCALE
  5
C7
102
{ACAD_REACTORS
330
B6
102
}
330
B6
100
AcDbScale
 70
     0
300
100:1
140
100.0
141
1.0
290
     0
  0
SCALE
  5
C8
102
{ACAD_REACTORS
330
B6
102
}
330
B6
100
AcDbScale
 70
     0
300
1/128" = 1'-0"
140
0.0078125
141
12.0
290
     0
  0
SCALE
  5
C9
102
{ACAD_REACTORS
330
B6
102
}
330
B6
100
AcDbScale
 70
     0
300
1/64" = 1'-0"
140
0.015625
141
12.0
290
     0
  0
SCALE
  5
CA
102
{ACAD_REACTORS
330
B6
102
}
330
B6
100
AcDbScale
 70
     0
300
1/32" = 1'-0"
140
0.03125
141
12.0
290
     0
  0
SCALE
  5
CB
102
{ACAD_REACTORS
330
B6
102
}
330
B6
100
AcDbScale
 70
     0
300
1/16" = 1'-0"
140
0.0625
141
12.0
290
     0
  0
SCALE
  5
CC
102
{ACAD_REACTORS
330
B6
102
}
330
B6
100
AcDbScale
 70
     0
300
3/32" = 1'-0"
140
0.09375
141
12.0
290
     0
  0
SCALE
  5
CD
102
{ACAD_REACTORS
330
B6
102
}
330
B6
100
AcDbScale
 70
     0
300
1/8" = 1'-0"
140
0.125
141
12.0
290
     0
  0
SCALE
  5
CE
102
{ACAD_REACTORS
330
B6
102
}
330
B6
100
AcDbScale
 70
     0
300
3/16" = 1'-0"
140
0.1875
141
12.0
290
     0
  0
SCALE
  5
CF
102
{ACAD_REACTORS
330
B6
102
}
330
B6
100
AcDbScale
 70
     0
300
1/4" = 1'-0"
140
0.25
141
12.0
290
     0
  0
SCALE
  5
D0
102
{ACAD_REACTORS
330
B6
102
}
330
B6
100
AcDbScale
 70
     0
300
3/8" = 1'-0"
140
0.375
141
12.0
290
     0
  0
SCALE
  5
D1
102
{ACAD_REACTORS
330
B6
102
}
330
B6
100
AcDbScale
 70
     0
300
1/2" = 1'-0"
140
0.5
141
12.0
290
     0
  0
SCALE
  5
D2
102
{ACAD_REACTORS
330
B6
102
}
330
B6
100
AcDbScale
 70
     0
300
3/4" = 1'-0"
140
0.75
141
12.0
290
     0
  0
SCALE
  5
D3
102
{ACAD_REACTORS
330
B6
102
}
330
B6
100
AcDbScale
 70
     0
300
1" = 1'-0"
140
1.0
141
12.0
290
     0
  0
SCALE
  5
D4
102
{ACAD_REACTORS
330
B6
102
}
330
B6
100
AcDbScale
 70
     0
300
1-1/2" = 1'-0"
140
1.5
141
12.0
290
     0
  0
SCALE
  5
D5
102
{ACAD_REACTORS
330
B6
102
}
330
B6
100
AcDbScale
 70
     0
300
3" = 1'-0"
140
3.0
141
12.0
290
     0
  0
SCALE
  5
D6
102
{ACAD_REACTORS
330
B6
102
}
330
B6
100
AcDbScale
 70
     0
300
6" = 1'-0"
140
6.0
141
12.0
290
     0
  0
SCALE
  5
D7
102
{ACAD_REACTORS
330
B6
102
}
330
B6
100
AcDbScale
 70
     0
300
1'-0" = 1'-0"
140
12.0
141
12.0
290
     0
  0
TABLESTYLE
  5
87
102
{ACAD_REACTORS
330
86
102
}
102
{ACAD_XDICTIONARY
360
2D6
102
}
330
86
100
AcDbTableStyle
  3
Standard
 70
     0
 71
     0
 40
0.06
 41
0.06
280
     0
281
     0
  7
Standard
140
0.18
170
     2
 62
     0
 63
   257
283
     0
 90
      512
 91
        0
  1

274
    -2
284
     1
 64
     0
275
    -2
285
     1
 65
     0
276
    -2
286
     1
 66
     0
277
    -2
287
     1
 67
     0
278
    -2
288
     1
 68
     0
279
    -2
289
     1
 69
     0
  7
Standard
140
0.25
170
     5
 62
     0
 63
   257
283
     0
 90
      512
 91
        0
  1

274
    -2
284
     1
 64
     0
275
    -2
285
     1
 65
     0
276
    -2
286
     1
 66
     0
277
    -2
287
     1
 67
     0
278
    -2
288
     1
 68
     0
279
    -2
289
     1
 69
     0
  7
Standard
140
0.18
170
     5
 62
     0
 63
   257
283
     0
 90
      512
 91
        0
  1

274
    -2
284
     1
 64
     0
275
    -2
285
     1
 65
     0
276
    -2
286
     1
 66
     0
277
    -2
287
     1
 67
     0
278
    -2
288
     1
 68
     0
279
    -2
289
     1
 69
     0
  0
VISUALSTYLE
  5
9F
102
{ACAD_REACTORS
330
99
102
}
330
99
100
AcDbVisualStyle
  2
2dWireframe
 70
     4
177
     3
291
     0
 70
    58
 90
        0
176
     1
 90
        2
176
     1
 90
        1
176
     1
 90
        0
176
     1
 40
-0.6
176
     1
 40
-30.0
176
     1
 62
     7
420
 16777215
176
     1
 90
        1
176
     1
 90
        4
176
     1
 62
     7
176
     1
 62
   257
176
     1
 90
        1
176
     1
 90
        1
176
     1
 40
1.0
176
     1
 90
        0
176
     1
 62
   257
176
     1
 40
1.0
176
     1
 90
        1
176
     1
 90
        6
176
     1
 90
        2
176
     1
 62
     7
176
     1
 90
        5
176
     1
 90
        0
176
     1
 90
        0
176
     1
290
     0
176
     1
 90
        1
176
     1
 40
0.0
176
     1
 90
        0
176
     1
290
     1
176
     1
290
     1
176
     1
290
     0
176
     1
290
     0
176
     1
290
     0
176
     1
290
     0
176
     1
290
     0
176
     1
290
     0
176
     1
290
     0
176
     1
 90
       50
176
     1
 40
0.0
176
     1
 40
1.0
176
     1
 90
        0
176
     1
 62
    18
420
        0
176
     1
 90
       50
176
     1
 90
        3
176
     1
 62
     5
420
      255
176
     1
290
     0
176
     1
 90
       50
176
     1
 90
       50
176
     1
 90
       50
176
     1
290
     0
176
     1
 90
       50
176
     1
 62
   256
176
     0
 40
1.0
176
     0
 90
        2
176
     1
  1
strokes_ogs.tif
176
     1
290
     0
176
     1
 40
1.0
176
     1
 40
1.0
176
     1
  0
VISUALSTYLE
  5
A1
102
{ACAD_REACTORS
330
99
102
}
330
99
100
AcDbVisualStyle
  2
3D Hidden
 70
     6
177
     3
291
     0
 70
    58
 90
        1
176
     1
 90
        2
176
     1
 90
        2
176
     1
 90
        0
176
     1
 40
-0.6
176
     1
 40
-30.0
176
     1
 62
     7
420
 16777215
176
     1
 90
        2
176
     1
 90
        2
176
     1
 62
     7
176
     1
 62
   257
176
     1
 90
        2
176
     1
 90
        1
176
     1
 40
40.0
176
     1
 90
        0
176
     1
 62
   257
176
     1
 40
1.0
176
     1
 90
        1
176
     1
 90
        6
176
     1
 90
        2
176
     1
 62
     7
176
     1
 90
        3
176
     1
 90
        0
176
     1
 90
        0
176
     1
290
     0
176
     1
 90
        1
176
     1
 40
0.0
176
     1
 90
        0
176
     1
290
     0
176
     1
290
     1
176
     1
290
     1
176
     1
290
     0
176
     1
290
     0
176
     1
290
     0
176
     1
290
     0
176
     1
290
     0
176
     1
290
     0
176
     1
 90
       50
176
     1
 40
0.0
176
     1
 40
1.0
176
     1
 90
        0
176
     1
 62
    18
420
        0
176
     1
 90
       50
176
     1
 90
        3
176
     1
 62
     5
420
      255
176
     1
290
     0
176
     1
 90
       50
176
     1
 90
       50
176
     1
 90
       50
176
     1
290
     0
176
     1
 90
       50
176
     1
 62
   256
176
     0
 40
1.0
176
     0
 90
        2
176
     1
  1
strokes_ogs.tif
176
     1
290
     0
176
     1
 40
1.0
176
     1
 40
1.0
176
     1
  0
VISUALSTYLE
  5
A0
102
{ACAD_REACTORS
330
99
102
}
330
99
100
AcDbVisualStyle
  2
3dWireframe
 70
     5
177
     3
291
     0
 70
    58
 90
        0
176
     1
 90
        2
176
     1
 90
        1
176
     1
 90
        0
176
     1
 40
-0.6
176
     1
 40
-30.0
176
     1
 62
     7
420
 16777215
176
     1
 90
        1
176
     1
 90
        4
176
     1
 62
     7
176
     1
 62
   257
176
     1
 90
        1
176
     1
 90
        1
176
     1
 40
1.0
176
     1
 90
        0
176
     1
 62
   257
176
     1
 40
1.0
176
     1
 90
        1
176
     1
 90
        6
176
     1
 90
        2
176
     1
 62
     7
176
     1
 90
        5
176
     1
 90
        0
176
     1
 90
        0
176
     1
290
     0
176
     1
 90
        1
176
     1
 40
0.0
176
     1
 90
        0
176
     1
290
     0
176
     1
290
     1
176
     1
290
     1
176
     1
290
     0
176
     1
290
     0
176
     1
290
     0
176
     1
290
     0
176
     1
290
     0
176
     1
290
     0
176
     1
 90
       50
176
     1
 40
0.0
176
     1
 40
1.0
176
     1
 90
        0
176
     1
 62
    18
420
        0
176
     1
 90
       50
176
     1
 90
        3
176
     1
 62
     5
420
      255
176
     1
290
     0
176
     1
 90
       50
176
     1
 90
       50
176
     1
 90
       50
176
     1
290
     0
176
     1
 90
       50
176
     1
 62
   256
176
     0
 40
1.0
176
     0
 90
        2
176
     1
  1
strokes_ogs.tif
176
     1
290
     0
176
     1
 40
1.0
176
     1
 40
1.0
176
     1
  0
VISUALSTYLE
  5
9E
102
{ACAD_REACTORS
330
99
102
}
330
99
100
AcDbVisualStyle
  2
Basic
 70
     7
177
     3
291
     1
 70
    58
 90
        1
176
     1
 90
        0
176
     1
 90
        1
176
     1
 90
        0
176
     1
 40
-0.6
176
     1
 40
-30.0
176
     1
 62
     7
420
 16777215
176
     1
 90
        0
176
     1
 90
        4
176
     1
 62
     7
176
     1
 62
   257
176
     1
 90
        1
176
     1
 90
        1
176
     1
 40
1.0
176
     1
 90
        8
176
     1
 62
     7
176
     1
 40
1.0
176
     1
 90
        1
176
     1
 90
        6
176
     1
 90
        2
176
     1
 62
     7
176
     1
 90
        5
176
     1
 90
        0
176
     1
 90
        0
176
     1
290
     0
176
     1
 90
        1
176
     1
 40
0.0
176
     1
 90
        0
176
     1
290
     0
176
     1
290
     1
176
     1
290
     1
176
     1
290
     0
176
     1
290
     0
176
     1
290
     0
176
     1
290
     0
176
     1
290
     0
176
     1
290
     0
176
     1
 90
       50
176
     1
 40
0.0
176
     1
 40
1.0
176
     1
 90
        0
176
     1
 62
    18
420
        0
176
     1
 90
       50
176
     1
 90
        3
176
     1
 62
     5
420
      255
176
     1
290
     0
176
     1
 90
       50
176
     1
 90
       50
176
     1
 90
       50
176
     1
290
     0
176
     1
 90
       50
176
     1
 62
   256
176
     0
 40
1.0
176
     0
 90
        2
176
     1
  1
strokes_ogs.tif
176
     1
290
     0
176
     1
 40
1.0
176
     1
 40
1.0
176
     1
  0
VISUALSTYLE
  5
A5
102
{ACAD_REACTORS
330
99
102
}
330
99
100
AcDbVisualStyle
  2
Brighten
 70
    12
177
     3
291
     1
 70
    58
 90
        2
176
     1
 90
        2
176
     1
 90
        1
176
     1
 90
        0
176
     1
 40
-0.6
176
     1
 40
-30.0
176
     1
 62
     7
420
 16777215
176
     1
 90
        1
176
     1
 90
        4
176
     1
 62
     7
176
     1
 62
   257
176
     1
 90
        1
176
     1
 90
        1
176
     1
 40
1.0
176
     1
 90
        8
176
     1
 62
     7
176
     1
 40
1.0
176
     1
 90
        1
176
     1
 90
        6
176
     1
 90
        2
176
     1
 62
     7
176
     1
 90
        5
176
     1
 90
        0
176
     1
 90
        0
176
     1
290
     0
176
     1
 90
        1
176
     1
 40
50.0
176
     1
 90
        0
176
     1
290
     0
176
     1
290
     1
176
     1
290
     1
176
     1
290
     0
176
     1
290
     0
176
     1
290
     0
176
     1
290
     0
176
     1
290
     0
176
     1
290
     0
176
     1
 90
       50
176
     1
 40
0.0
176
     1
 40
1.0
176
     1
 90
        0
176
     1
 62
    18
420
        0
176
     1
 90
       50
176
     1
 90
        3
176
     1
 62
     5
420
      255
176
     1
290
     0
176
     1
 90
       50
176
     1
 90
       50
176
     1
 90
       50
176
     1
290
     0
176
     1
 90
       50
176
     1
 62
   256
176
     0
 40
1.0
176
     0
 90
        2
176
     1
  1
strokes_ogs.tif
176
     1
290
     0
176
     1
 40
1.0
176
     1
 40
1.0
176
     1
  0
VISUALSTYLE
  5
A9
102
{ACAD_REACTORS
330
99
102
}
330
99
100
AcDbVisualStyle
  2
ColorChange
 70
    16
177
     3
291
     1
 70
    58
 90
        2
176
     1
 90
        2
176
     1
 90
        3
176
     1
 90
        0
176
     1
 40
-0.6
176
     1
 40
-30.0
176
     1
 62
     8
420
  8421504
176
     1
 90
        1
176
     1
 90
        4
176
     1
 62
     7
176
     1
 62
   257
176
     1
 90
        1
176
     1
 90
        1
176
     1
 40
1.0
176
     1
 90
        8
176
     1
 62
     8
420
  8421504
176
     1
 40
1.0
176
     1
 90
        1
176
     1
 90
        6
176
     1
 90
        2
176
     1
 62
     7
176
     1
 90
        5
176
     1
 90
        0
176
     1
 90
        0
176
     1
290
     0
176
     1
 90
        1
176
     1
 40
0.0
176
     1
 90
        0
176
     1
290
     0
176
     1
290
     1
176
     1
290
     1
176
     1
290
     0
176
     1
290
     0
176
     1
290
     0
176
     1
290
     0
176
     1
290
     0
176
     1
290
     0
176
     1
 90
       50
176
     1
 40
0.0
176
     1
 40
1.0
176
     1
 90
        0
176
     1
 62
    18
420
        0
176
     1
 90
       50
176
     1
 90
        3
176
     1
 62
     5
420
      255
176
     1
290
     0
176
     1
 90
       50
176
     1
 90
       50
176
     1
 90
       50
176
     1
290
     0
176
     1
 90
       50
176
     1
 62
   256
176
     0
 40
1.0
176
     0
 90
        2
176
     1
  1
strokes_ogs.tif
176
     1
290
     0
176
     1
 40
1.0
176
     1
 40
1.0
176
     1
  0
VISUALSTYLE
  5
A2
102
{ACAD_REACTORS
330
99
102
}
330
99
100
AcDbVisualStyle
  2
Conceptual
 70
     9
177
     3
291
     0
 70
    58
 90
        3
176
     1
 90
        2
176
     1
 90
        1
176
     1
 90
        0
176
     1
 40
-0.6
176
     1
 40
-30.0
176
     1
 62
     7
420
 16777215
176
     1
 90
        2
176
     1
 90
        2
176
     1
 62
     7
176
     1
 62
   257
176
     1
 90
        1
176
     1
 90
        1
176
     1
 40
40.0
176
     1
 90
        8
176
     1
 62
     7
176
     1
 40
1.0
176
     1
 90
        1
176
     1
 90
        6
176
     1
 90
        2
176
     1
 62
     7
176
     1
 90
        3
176
     1
 90
        0
176
     1
 90
        0
176
     1
290
     0
176
     1
 90
        1
176
     1
 40
0.0
176
     1
 90
        0
176
     1
290
     0
176
     1
290
     1
176
     1
290
     1
176
     1
290
     0
176
     1
290
     0
176
     1
290
     0
176
     1
290
     0
176
     1
290
     0
176
     1
290
     0
176
     1
 90
       50
176
     1
 40
0.0
176
     1
 40
1.0
176
     1
 90
        0
176
     1
 62
    18
420
        0
176
     1
 90
       50
176
     1
 90
        3
176
     1
 62
     5
420
      255
176
     1
290
     0
176
     1
 90
       50
176
     1
 90
       50
176
     1
 90
       50
176
     1
290
     0
176
     1
 90
       50
176
     1
 62
   256
176
     0
 40
1.0
176
     0
 90
        2
176
     1
  1
strokes_ogs.tif
176
     1
290
     0
176
     1
 40
1.0
176
     1
 40
1.0
176
     1
  0
VISUALSTYLE
  5
A4
102
{ACAD_REACTORS
330
99
102
}
330
99
100
AcDbVisualStyle
  2
Dim
 70
    11
177
     3
291
     1
 70
    58
 90
        2
176
     1
 90
        2
176
     1
 90
        1
176
     1
 90
        0
176
     1
 40
-0.6
176
     1
 40
-30.0
176
     1
 62
     7
420
 16777215
176
     1
 90
        1
176
     1
 90
        4
176
     1
 62
     7
176
     1
 62
   257
176
     1
 90
        1
176
     1
 90
        1
176
     1
 40
1.0
176
     1
 90
        8
176
     1
 62
     7
176
     1
 40
1.0
176
     1
 90
        1
176
     1
 90
        6
176
     1
 90
        2
176
     1
 62
     7
176
     1
 90
        5
176
     1
 90
        0
176
     1
 90
        0
176
     1
290
     0
176
     1
 90
        1
176
     1
 40
-50.0
176
     1
 90
        0
176
     1
290
     0
176
     1
290
     1
176
     1
290
     1
176
     1
290
     0
176
     1
290
     0
176
     1
290
     0
176
     1
290
     0
176
     1
290
     0
176
     1
290
     0
176
     1
 90
       50
176
     1
 40
0.0
176
     1
 40
1.0
176
     1
 90
        0
176
     1
 62
    18
420
        0
176
     1
 90
       50
176
     1
 90
        3
176
     1
 62
     5
420
      255
176
     1
290
     0
176
     1
 90
       50
176
     1
 90
       50
176
     1
 90
       50
176
     1
290
     0
176
     1
 90
       50
176
     1
 62
   256
176
     0
 40
1.0
176
     0
 90
        2
176
     1
  1
strokes_ogs.tif
176
     1
290
     0
176
     1
 40
1.0
176
     1
 40
1.0
176
     1
  0
VISUALSTYLE
  5
E7
102
{ACAD_REACTORS
330
99
102
}
330
99
100
AcDbVisualStyle
  2
EdgeColorOff
 70
    22
177
     3
291
     1
 70
    58
 90
        2
176
     0
 90
        2
176
     0
 90
        0
176
     0
 90
        0
176
     0
 40
0.6
176
     0
 40
30.0
176
     0
 62
     7
420
 16777215
176
     0
 90
        1
176
     0
 90
        4
176
     0
 62
     7
176
     0
 62
   257
176
     0
 90
        1
176
     0
 90
        1
176
     0
 40
1.0
176
     0
 90
        8
176
     2
 62
     7
176
     0
 40
1.0
176
     0
 90
        1
176
     0
 90
        6
176
     0
 90
        2
176
     0
 62
     7
176
     0
 90
        5
176
     0
 90
        0
176
     0
 90
        0
176
     0
290
     0
176
     0
 90
        1
176
     0
 40
0.0
176
     0
 90
        0
176
     0
290
     0
176
     0
290
     1
176
     0
290
     1
176
     0
290
     0
176
     0
290
     0
176
     0
290
     0
176
     0
290
     0
176
     0
290
     0
176
     0
290
     0
176
     0
 90
       50
176
     0
 40
0.0
176
     0
 40
1.0
176
     0
 90
        0
176
     0
 62
    18
420
        0
176
     0
 90
       50
176
     0
 90
        3
176
     0
 62
     5
420
      255
176
     0
290
     0
176
     0
 90
       50
176
     0
 90
       50
176
     0
 90
       50
176
     0
290
     0
176
     0
 90
       50
176
     0
 62
   256
176
     0
 40
1.0
176
     0
 90
        2
176
     0
  1
strokes_ogs.tif
176
     0
290
     0
176
     0
 40
1.0
176
     0
 40
1.0
176
     0
  0
VISUALSTYLE
  5
A8
102
{ACAD_REACTORS
330
99
102
}
330
99
100
AcDbVisualStyle
  2
Facepattern
 70
    15
177
     3
291
     1
 70
    58
 90
        2
176
     1
 90
        2
176
     1
 90
        1
176
     1
 90
        0
176
     1
 40
-0.6
176
     1
 40
-30.0
176
     1
 62
     7
420
 16777215
176
     1
 90
        1
176
     1
 90
        4
176
     1
 62
     7
176
     1
 62
   257
176
     1
 90
        1
176
     1
 90
        1
176
     1
 40
1.0
176
     1
 90
        8
176
     1
 62
     7
176
     1
 40
1.0
176
     1
 90
        1
176
     1
 90
        6
176
     1
 90
        2
176
     1
 62
     7
176
     1
 90
        5
176
     1
 90
        0
176
     1
 90
        0
176
     1
290
     0
176
     1
 90
        1
176
     1
 40
0.0
176
     1
 90
        0
176
     1
290
     0
176
     1
290
     1
176
     1
290
     1
176
     1
290
     0
176
     1
290
     0
176
     1
290
     0
176
     1
290
     0
176
     1
290
     0
176
     1
290
     0
176
     1
 90
       50
176
     1
 40
0.0
176
     1
 40
1.0
176
     1
 90
        0
176
     1
 62
    18
420
        0
176
     1
 90
       50
176
     1
 90
        3
176
     1
 62
     5
420
      255
176
     1
290
     0
176
     1
 90
       50
176
     1
 90
       50
176
     1
 90
       50
176
     1
290
     0
176
     1
 90
       50
176
     1
 62
   256
176
     0
 40
1.0
176
     0
 90
        2
176
     1
  1
strokes_ogs.tif
176
     1
290
     0
176
     1
 40
1.0
176
     1
 40
1.0
176
     1
  0
VISUALSTYLE
  5
9A
102
{ACAD_REACTORS
330
99
102
}
330
99
100
AcDbVisualStyle
  2
Flat
 70
     0
177
     3
291
     1
 70
    58
 90
        2
176
     1
 90
        1
176
     1
 90
        1
176
     1
 90
        2
176
     1
 40
-0.6
176
     1
 40
30.0
176
     1
 62
     7
420
 16777215
176
     1
 90
        0
176
     1
 90
        4
176
     1
 62
     7
176
     1
 62
   257
176
     1
 90
        1
176
     1
 90
        1
176
     1
 40
1.0
176
     1
 90
        8
176
     1
 62
     7
176
     1
 40
1.0
176
     1
 90
        1
176
     1
 90
        6
176
     1
 90
        2
176
     1
 62
     7
176
     1
 90
        5
176
     1
 90
        0
176
     1
 90
        0
176
     1
290
     0
176
     1
 90
        1
176
     1
 40
0.0
176
     1
 90
        0
176
     1
290
     0
176
     1
290
     1
176
     1
290
     1
176
     1
290
     0
176
     1
290
     0
176
     1
290
     0
176
     1
290
     0
176
     1
290
     0
176
     1
290
     0
176
     1
 90
       50
176
     1
 40
0.0
176
     1
 40
1.0
176
     1
 90
        0
176
     1
 62
    18
420
        0
176
     1
 90
       50
176
     1
 90
        3
176
     1
 62
     5
420
      255
176
     1
290
     0
176
     1
 90
       50
176
     1
 90
       50
176
     1
 90
       50
176
     1
290
     0
176
     1
 90
       50
176
     1
 62
   256
176
     0
 40
1.0
176
     0
 90
        2
176
     1
  1
strokes_ogs.tif
176
     1
290
     0
176
     1
 40
1.0
176
     1
 40
1.0
176
     1
  0
VISUALSTYLE
  5
9B
102
{ACAD_REACTORS
330
99
102
}
330
99
100
AcDbVisualStyle
  2
FlatWithEdges
 70
     1
177
     3
291
     1
 70
    58
 90
        2
176
     1
 90
        1
176
     1
 90
        1
176
     1
 90
        2
176
     1
 40
-0.6
176
     1
 40
30.0
176
     1
 62
     7
420
 16777215
176
     1
 90
        1
176
     1
 90
        4
176
     1
 62
     7
176
     1
 62
   257
176
     1
 90
        1
176
     1
 90
        1
176
     1
 40
1.0
176
     1
 90
        0
176
     1
 62
   257
176
     1
 40
1.0
176
     1
 90
        1
176
     1
 90
        6
176
     1
 90
        2
176
     1
 62
     7
176
     1
 90
        5
176
     1
 90
        0
176
     1
 90
        0
176
     1
290
     0
176
     1
 90
        1
176
     1
 40
0.0
176
     1
 90
        0
176
     1
290
     0
176
     1
290
     1
176
     1
290
     1
176
     1
290
     0
176
     1
290
     0
176
     1
290
     0
176
     1
290
     0
176
     1
290
     0
176
     1
290
     0
176
     1
 90
       50
176
     1
 40
0.0
176
     1
 40
1.0
176
     1
 90
        0
176
     1
 62
    18
420
        0
176
     1
 90
       50
176
     1
 90
        3
176
     1
 62
     5
420
      255
176
     1
290
     0
176
     1
 90
       50
176
     1
 90
       50
176
     1
 90
       50
176
     1
290
     0
176
     1
 90
       50
176
     1
 62
   256
176
     0
 40
1.0
176
     0
 90
        2
176
     1
  1
strokes_ogs.tif
176
     1
290
     0
176
     1
 40
1.0
176
     1
 40
1.0
176
     1
  0
VISUALSTYLE
  5
9C
102
{ACAD_REACTORS
330
99
102
}
330
99
100
AcDbVisualStyle
  2
Gouraud
 70
     2
177
     3
291
     1
 70
    58
 90
        2
176
     1
 90
        2
176
     1
 90
        1
176
     1
 90
        2
176
     1
 40
-0.6
176
     1
 40
30.0
176
     1
 62
     7
420
 16777215
176
     1
 90
        0
176
     1
 90
        4
176
     1
 62
     7
176
     1
 62
   257
176
     1
 90
        1
176
     1
 90
        1
176
     1
 40
1.0
176
     1
 90
        0
176
     1
 62
     7
176
     1
 40
1.0
176
     1
 90
        1
176
     1
 90
        6
176
     1
 90
        2
176
     1
 62
     7
176
     1
 90
        5
176
     1
 90
        0
176
     1
 90
        0
176
     1
290
     0
176
     1
 90
        1
176
     1
 40
0.0
176
     1
 90
        0
176
     1
290
     0
176
     1
290
     1
176
     1
290
     1
176
     1
290
     0
176
     1
290
     0
176
     1
290
     0
176
     1
290
     0
176
     1
290
     0
176
     1
290
     0
176
     1
 90
       50
176
     1
 40
0.0
176
     1
 40
1.0
176
     1
 90
        0
176
     1
 62
    18
420
        0
176
     1
 90
       50
176
     1
 90
        3
176
     1
 62
     5
420
      255
176
     1
290
     0
176
     1
 90
       50
176
     1
 90
       50
176
     1
 90
       50
176
     1
290
     0
176
     1
 90
       50
176
     1
 62
   256
176
     0
 40
1.0
176
     0
 90
        2
176
     1
  1
strokes_ogs.tif
176
     1
290
     0
176
     1
 40
1.0
176
     1
 40
1.0
176
     1
  0
VISUALSTYLE
  5
9D
102
{ACAD_REACTORS
330
99
102
}
330
99
100
AcDbVisualStyle
  2
GouraudWithEdges
 70
     3
177
     3
291
     1
 70
    58
 90
        2
176
     1
 90
        2
176
     1
 90
        1
176
     1
 90
        2
176
     1
 40
-0.6
176
     1
 40
30.0
176
     1
 62
     7
420
 16777215
176
     1
 90
        1
176
     1
 90
        4
176
     1
 62
     7
176
     1
 62
   257
176
     1
 90
        1
176
     1
 90
        1
176
     1
 40
1.0
176
     1
 90
        0
176
     1
 62
   257
176
     1
 40
1.0
176
     1
 90
        1
176
     1
 90
        6
176
     1
 90
        2
176
     1
 62
     7
176
     1
 90
        5
176
     1
 90
        0
176
     1
 90
        0
176
     1
290
     0
176
     1
 90
        1
176
     1
 40
0.0
176
     1
 90
        0
176
     1
290
     0
176
     1
290
     1
176
     1
290
     1
176
     1
290
     0
176
     1
290
     0
176
     1
290
     0
176
     1
290
     0
176
     1
290
     0
176
     1
290
     0
176
     1
 90
       50
176
     1
 40
0.0
176
     1
 40
1.0
176
     1
 90
        0
176
     1
 62
    18
420
        0
176
     1
 90
       50
176
     1
 90
        3
176
     1
 62
     5
420
      255
176
     1
290
     0
176
     1
 90
       50
176
     1
 90
       50
176
     1
 90
       50
176
     1
290
     0
176
     1
 90
       50
176
     1
 62
   256
176
     0
 40
1.0
176
     0
 90
        2
176
     1
  1
strokes_ogs.tif
176
     1
290
     0
176
     1
 40
1.0
176
     1
 40
1.0
176
     1
  0
VISUALSTYLE
  5
E4
102
{ACAD_REACTORS
330
99
102
}
330
99
100
AcDbVisualStyle
  2
Hidden
 70
     6
177
     3
291
     0
 70
    58
 90
        1
176
     1
 90
        2
176
     1
 90
        2
176
     1
 90
        0
176
     1
 40
0.6
176
     1
 40
30.0
176
     1
 62
     7
420
 16777215
176
     1
 90
        2
176
     1
 90
        2
176
     1
 62
     7
176
     1
 62
   257
176
     1
 90
        2
176
     1
 90
        1
176
     1
 40
40.0
176
     1
 90
        0
176
     1
 62
   257
176
     1
 40
1.0
176
     1
 90
        1
176
     1
 90
        6
176
     1
 90
        2
176
     1
 62
     7
176
     1
 90
        3
176
     1
 90
        0
176
     1
 90
        0
176
     1
290
     0
176
     1
 90
        1
176
     1
 40
0.0
176
     1
 90
        0
176
     1
290
     0
176
     1
290
     1
176
     1
290
     1
176
     1
290
     0
176
     1
290
     0
176
     1
290
     0
176
     1
290
     0
176
     1
290
     0
176
     1
290
     0
176
     1
 90
       50
176
     1
 40
0.0
176
     1
 40
1.0
176
     1
 90
        0
176
     1
 62
    18
420
        0
176
     1
 90
       50
176
     1
 90
        3
176
     1
 62
     5
420
      255
176
     1
290
     0
176
     1
 90
       50
176
     1
 90
       50
176
     1
 90
       50
176
     1
290
     0
176
     1
 90
       50
176
     1
 62
   256
176
     0
 40
1.0
176
     0
 90
        2
176
     1
  1
strokes_ogs.tif
176
     1
290
     0
176
     1
 40
1.0
176
     1
 40
1.0
176
     1
  0
VISUALSTYLE
  5
E5
102
{ACAD_REACTORS
330
99
102
}
330
99
100
AcDbVisualStyle
  2
JitterOff
 70
    20
177
     3
291
     1
 70
    58
 90
        2
176
     0
 90
        2
176
     0
 90
        0
176
     0
 90
        0
176
     0
 40
0.6
176
     0
 40
30.0
176
     0
 62
     7
420
 16777215
176
     0
 90
        1
176
     0
 90
        4
176
     0
 62
     7
176
     0
 62
   257
176
     0
 90
        1
176
     0
 90
        1
176
     0
 40
1.0
176
     0
 90
       10
176
     2
 62
     7
176
     0
 40
1.0
176
     0
 90
        1
176
     0
 90
        6
176
     0
 90
        2
176
     0
 62
     7
176
     0
 90
        5
176
     0
 90
        0
176
     0
 90
        0
176
     0
290
     0
176
     0
 90
        1
176
     0
 40
0.0
176
     0
 90
        0
176
     0
290
     0
176
     0
290
     1
176
     0
290
     1
176
     0
290
     0
176
     0
290
     0
176
     0
290
     0
176
     0
290
     0
176
     0
290
     0
176
     0
290
     0
176
     0
 90
       50
176
     0
 40
0.0
176
     0
 40
1.0
176
     0
 90
        0
176
     0
 62
    18
420
        0
176
     0
 90
       50
176
     0
 90
        3
176
     0
 62
     5
420
      255
176
     0
290
     0
176
     0
 90
       50
176
     0
 90
       50
176
     0
 90
       50
176
     0
290
     0
176
     0
 90
       50
176
     0
 62
   256
176
     0
 40
1.0
176
     0
 90
        2
176
     0
  1
strokes_ogs.tif
176
     0
290
     0
176
     0
 40
1.0
176
     0
 40
1.0
176
     0
  0
VISUALSTYLE
  5
A7
102
{ACAD_REACTORS
330
99
102
}
330
99
100
AcDbVisualStyle
  2
Linepattern
 70
    14
177
     3
291
     1
 70
    58
 90
        2
176
     1
 90
        2
176
     1
 90
        1
176
     1
 90
        0
176
     1
 40
-0.6
176
     1
 40
-30.0
176
     1
 62
     7
420
 16777215
176
     1
 90
        1
176
     1
 90
        4
176
     1
 62
     7
176
     1
 62
   257
176
     1
 90
        7
176
     1
 90
        7
176
     1
 40
1.0
176
     1
 90
        8
176
     1
 62
     7
176
     1
 40
1.0
176
     1
 90
        1
176
     1
 90
        6
176
     1
 90
        2
176
     1
 62
     7
176
     1
 90
        5
176
     1
 90
        0
176
     1
 90
        0
176
     1
290
     0
176
     1
 90
        1
176
     1
 40
0.0
176
     1
 90
        0
176
     1
290
     0
176
     1
290
     1
176
     1
290
     1
176
     1
290
     0
176
     1
290
     0
176
     1
290
     0
176
     1
290
     0
176
     1
290
     0
176
     1
290
     0
176
     1
 90
       50
176
     1
 40
0.0
176
     1
 40
1.0
176
     1
 90
        0
176
     1
 62
    18
420
        0
176
     1
 90
       50
176
     1
 90
        3
176
     1
 62
     5
420
      255
176
     1
290
     0
176
     1
 90
       50
176
     1
 90
       50
176
     1
 90
       50
176
     1
290
     0
176
     1
 90
       50
176
     1
 62
   256
176
     0
 40
1.0
176
     0
 90
        2
176
     1
  1
strokes_ogs.tif
176
     1
290
     0
176
     1
 40
1.0
176
     1
 40
1.0
176
     1
  0
VISUALSTYLE
  5
E6
102
{ACAD_REACTORS
330
99
102
}
330
99
100
AcDbVisualStyle
  2
OverhangOff
 70
    21
177
     3
291
     1
 70
    58
 90
        2
176
     0
 90
        2
176
     0
 90
        0
176
     0
 90
        0
176
     0
 40
0.6
176
     0
 40
30.0
176
     0
 62
     7
420
 16777215
176
     0
 90
        1
176
     0
 90
        4
176
     0
 62
     7
176
     0
 62
   257
176
     0
 90
        1
176
     0
 90
        1
176
     0
 40
1.0
176
     0
 90
        9
176
     2
 62
     7
176
     0
 40
1.0
176
     0
 90
        1
176
     0
 90
        6
176
     0
 90
        2
176
     0
 62
     7
176
     0
 90
        5
176
     0
 90
        0
176
     0
 90
        0
176
     0
290
     0
176
     0
 90
        1
176
     0
 40
0.0
176
     0
 90
        0
176
     0
290
     0
176
     0
290
     1
176
     0
290
     1
176
     0
290
     0
176
     0
290
     0
176
     0
290
     0
176
     0
290
     0
176
     0
290
     0
176
     0
290
     0
176
     0
 90
       50
176
     0
 40
0.0
176
     0
 40
1.0
176
     0
 90
        0
176
     0
 62
    18
420
        0
176
     0
 90
       50
176
     0
 90
        3
176
     0
 62
     5
420
      255
176
     0
290
     0
176
     0
 90
       50
176
     0
 90
       50
176
     0
 90
       50
176
     0
290
     0
176
     0
 90
       50
176
     0
 62
   256
176
     0
 40
1.0
176
     0
 90
        2
176
     0
  1
strokes_ogs.tif
176
     0
290
     0
176
     0
 40
1.0
176
     0
 40
1.0
176
     0
  0
VISUALSTYLE
  5
A3
102
{ACAD_REACTORS
330
99
102
}
330
99
100
AcDbVisualStyle
  2
Realistic
 70
     8
177
     3
291
     0
 70
    58
 90
        2
176
     1
 90
        2
176
     1
 90
        1
176
     1
 90
        0
176
     1
 40
-0.6
176
     1
 40
-30.0
176
     1
 62
     7
420
 16777215
176
     1
 90
        1
176
     1
 90
        0
176
     1
 62
     7
176
     1
 62
   257
176
     1
 90
        1
176
     1
 90
        1
176
     1
 40
1.0
176
     1
 90
        8
176
     1
 62
     8
420
  7895160
176
     1
 40
1.0
176
     1
 90
        1
176
     1
 90
        6
176
     1
 90
        2
176
     1
 62
     7
176
     1
 90
        5
176
     1
 90
        0
176
     1
 90
        0
176
     1
290
     0
176
     1
 90
       13
176
     1
 40
0.0
176
     1
 90
        0
176
     1
290
     0
176
     1
290
     1
176
     1
290
     1
176
     1
290
     0
176
     1
290
     0
176
     1
290
     0
176
     1
290
     0
176
     1
290
     0
176
     1
290
     0
176
     1
 90
       50
176
     1
 40
0.0
176
     1
 40
1.0
176
     1
 90
        0
176
     1
 62
    18
420
        0
176
     1
 90
       50
176
     1
 90
        3
176
     1
 62
     5
420
      255
176
     1
290
     0
176
     1
 90
       50
176
     1
 90
       50
176
     1
 90
       50
176
     1
290
     0
176
     1
 90
       50
176
     1
 62
   256
176
     0
 40
1.0
176
     0
 90
        2
176
     1
  1
strokes_ogs.tif
176
     1
290
     0
176
     1
 40
1.0
176
     1
 40
1.0
176
     1
  0
VISUALSTYLE
  5
EC
102
{ACAD_REACTORS
330
99
102
}
330
99
100
AcDbVisualStyle
  2
Shaded
 70
    27
177
     3
291
     0
 70
    58
 90
        2
176
     1
 90
        2
176
     1
 90
        1
176
     1
 90
        2
176
     1
 40
0.6
176
     1
 40
30.0
176
     1
 62
     7
420
 16777215
176
     1
 90
        0
176
     1
 90
        4
176
     1
 62
     7
176
     1
 62
   257
176
     1
 90
        1
176
     1
 90
        1
176
     1
 40
1.0
176
     1
 90
        8
176
     1
 62
   257
176
     1
 40
1.0
176
     1
 90
        1
176
     1
 90
        6
176
     1
 90
        2
176
     1
 62
     8
420
  7895160
176
     1
 90
        3
176
     1
 90
        0
176
     1
 90
        0
176
     1
290
     0
176
     1
 90
        5
176
     1
 40
0.0
176
     1
 90
        0
176
     1
290
     0
176
     1
290
     1
176
     1
290
     1
176
     1
290
     0
176
     1
290
     0
176
     1
290
     0
176
     1
290
     0
176
     1
290
     0
176
     1
290
     0
176
     1
 90
       50
176
     1
 40
0.0
176
     1
 40
1.0
176
     1
 90
        0
176
     1
 62
    18
420
        0
176
     1
 90
       50
176
     1
 90
        3
176
     1
 62
     5
420
      255
176
     1
290
     0
176
     1
 90
       50
176
     1
 90
       50
176
     1
 90
       50
176
     1
290
     0
176
     1
 90
       50
176
     1
 62
   256
176
     0
 40
1.0
176
     0
 90
        2
176
     1
  1
strokes_ogs.tif
176
     1
290
     0
176
     1
 40
1.0
176
     1
 40
1.0
176
     1
  0
VISUALSTYLE
  5
EB
102
{ACAD_REACTORS
330
99
102
}
330
99
100
AcDbVisualStyle
  2
Shaded with edges
 70
    26
177
     3
291
     0
 70
    58
 90
        2
176
     1
 90
        2
176
     1
 90
        1
176
     1
 90
        2
176
     1
 40
0.6
176
     1
 40
30.0
176
     1
 62
     7
420
 16777215
176
     1
 90
        1
176
     1
 90
       10
176
     1
 62
     7
176
     1
 62
   257
176
     1
 90
        2
176
     1
 90
        1
176
     1
 40
1.0
176
     1
 90
        8
176
     1
 62
   257
176
     1
 40
1.0
176
     1
 90
        1
176
     1
 90
        6
176
     1
 90
        2
176
     1
 62
     7
176
     1
 90
        3
176
     1
 90
        0
176
     1
 90
        0
176
     1
290
     0
176
     1
 90
        5
176
     1
 40
0.0
176
     1
 90
        0
176
     1
290
     0
176
     1
290
     1
176
     1
290
     1
176
     1
290
     0
176
     1
290
     0
176
     1
290
     0
176
     1
290
     0
176
     1
290
     0
176
     1
290
     0
176
     1
 90
       50
176
     1
 40
0.0
176
     1
 40
1.0
176
     1
 90
        0
176
     1
 62
    18
420
        0
176
     1
 90
       50
176
     1
 90
        3
176
     1
 62
     5
420
      255
176
     1
290
     0
176
     1
 90
       50
176
     1
 90
       50
176
     1
 90
       50
176
     1
290
     0
176
     1
 90
       50
176
     1
 62
   256
176
     0
 40
1.0
176
     0
 90
        2
176
     1
  1
strokes_ogs.tif
176
     1
290
     0
176
     1
 40
1.0
176
     1
 40
1.0
176
     1
  0
VISUALSTYLE
  5
E8
102
{ACAD_REACTORS
330
99
102
}
330
99
100
AcDbVisualStyle
  2
Shades of Gray
 70
    23
177
     3
291
     0
 70
    58
 90
        2
176
     1
 90
        2
176
     1
 90
        3
176
     1
 90
        0
176
     1
 40
0.6
176
     1
 40
30.0
176
     1
 62
     7
420
 16777215
176
     1
 90
        2
176
     1
 90
        2
176
     1
 62
     7
176
     1
 62
     7
176
     1
 90
        1
176
     1
 90
        1
176
     1
 40
40.0
176
     1
 90
        8
176
     1
 62
     7
176
     1
 40
1.0
176
     1
 90
        1
176
     1
 90
        6
176
     1
 90
        2
176
     1
 62
     7
176
     1
 90
        3
176
     1
 90
        0
176
     1
 90
        0
176
     1
290
     0
176
     1
 90
        1
176
     1
 40
0.0
176
     1
 90
        0
176
     1
290
     0
176
     1
290
     1
176
     1
290
     1
176
     1
290
     0
176
     1
290
     0
176
     1
290
     0
176
     1
290
     0
176
     1
290
     0
176
     1
290
     0
176
     1
 90
       50
176
     1
 40
0.0
176
     1
 40
1.0
176
     1
 90
        0
176
     1
 62
    18
420
        0
176
     1
 90
       50
176
     1
 90
        3
176
     1
 62
     5
420
      255
176
     1
290
     0
176
     1
 90
       50
176
     1
 90
       50
176
     1
 90
       50
176
     1
290
     0
176
     1
 90
       50
176
     1
 62
   256
176
     0
 40
1.0
176
     0
 90
        2
176
     1
  1
strokes_ogs.tif
176
     1
290
     0
176
     1
 40
1.0
176
     1
 40
1.0
176
     1
  0
VISUALSTYLE
  5
E9
102
{ACAD_REACTORS
330
99
102
}
330
99
100
AcDbVisualStyle
  2
Sketchy
 70
    24
177
     3
291
     0
 70
    58
 90
        1
176
     1
 90
        2
176
     1
 90
        2
176
     1
 90
        0
176
     1
 40
0.6
176
     1
 40
30.0
176
     1
 62
     7
420
 16777215
176
     1
 90
        2
176
     1
 90
        2
176
     1
 62
     7
176
     1
 62
     7
176
     1
 90
        1
176
     1
 90
        1
176
     1
 40
40.0
176
     1
 90
       11
176
     1
 62
     7
176
     1
 40
1.0
176
     1
 90
        1
176
     1
 90
        6
176
     1
 90
        2
176
     1
 62
     7
176
     1
 90
        6
176
     1
 90
        0
176
     1
 90
        0
176
     1
290
     0
176
     1
 90
        1
176
     1
 40
0.0
176
     1
 90
        0
176
     1
290
     0
176
     1
290
     1
176
     1
290
     1
176
     1
290
     0
176
     1
290
     0
176
     1
290
     0
176
     1
290
     0
176
     1
290
     0
176
     1
290
     0
176
     1
 90
       50
176
     1
 40
0.0
176
     1
 40
1.0
176
     1
 90
        0
176
     1
 62
    18
420
        0
176
     1
 90
       50
176
     1
 90
        3
176
     1
 62
     5
420
      255
176
     1
290
     0
176
     1
 90
       50
176
     1
 90
       50
176
     1
 90
       50
176
     1
290
     0
176
     1
 90
       50
176
     1
 62
   256
176
     0
 40
1.0
176
     0
 90
        2
176
     1
  1
strokes_ogs.tif
176
     1
290
     0
176
     1
 40
1.0
176
     1
 40
1.0
176
     1
  0
VISUALSTYLE
  5
A6
102
{ACAD_REACTORS
330
99
102
}
330
99
100
AcDbVisualStyle
  2
Thicken
 70
    13
177
     3
291
     1
 70
    58
 90
        2
176
     1
 90
        2
176
     1
 90
        1
176
     1
 90
        0
176
     1
 40
-0.6
176
     1
 40
-30.0
176
     1
 62
     7
420
 16777215
176
     1
 90
        1
176
     1
 90
        4
176
     1
 62
     7
176
     1
 62
   257
176
     1
 90
        1
176
     1
 90
        1
176
     1
 40
1.0
176
     1
 90
       12
176
     1
 62
     7
176
     1
 40
1.0
176
     1
 90
        1
176
     1
 90
        6
176
     1
 90
        2
176
     1
 62
     7
176
     1
 90
        5
176
     1
 90
        0
176
     1
 90
        0
176
     1
290
     0
176
     1
 90
        1
176
     1
 40
0.0
176
     1
 90
        0
176
     1
290
     0
176
     1
290
     1
176
     1
290
     1
176
     1
290
     0
176
     1
290
     0
176
     1
290
     0
176
     1
290
     0
176
     1
290
     0
176
     1
290
     0
176
     1
 90
       50
176
     1
 40
0.0
176
     1
 40
1.0
176
     1
 90
        0
176
     1
 62
    18
420
        0
176
     1
 90
       50
176
     1
 90
        3
176
     1
 62
     5
420
      255
176
     1
290
     0
176
     1
 90
       50
176
     1
 90
       50
176
     1
 90
       50
176
     1
290
     0
176
     1
 90
       50
176
     1
 62
   256
176
     0
 40
1.0
176
     0
 90
        2
176
     1
  1
strokes_ogs.tif
176
     1
290
     0
176
     1
 40
1.0
176
     1
 40
1.0
176
     1
  0
VISUALSTYLE
  5
E3
102
{ACAD_REACTORS
330
99
102
}
330
99
100
AcDbVisualStyle
  2
Wireframe
 70
     5
177
     3
291
     0
 70
    58
 90
        0
176
     1
 90
        2
176
     1
 90
        0
176
     1
 90
        0
176
     1
 40
0.6
176
     1
 40
30.0
176
     1
 62
     7
420
 16777215
176
     1
 90
        1
176
     1
 90
        4
176
     1
 62
     7
176
     1
 62
   257
176
     1
 90
        1
176
     1
 90
        1
176
     1
 40
1.0
176
     1
 90
        0
176
     1
 62
   257
176
     1
 40
1.0
176
     1
 90
        1
176
     1
 90
        6
176
     1
 90
        2
176
     1
 62
     7
176
     1
 90
        3
176
     1
 90
        0
176
     1
 90
        0
176
     1
290
     0
176
     1
 90
        1
176
     1
 40
0.0
176
     1
 90
        0
176
     1
290
     0
176
     1
290
     1
176
     1
290
     1
176
     1
290
     0
176
     1
290
     0
176
     1
290
     0
176
     1
290
     0
176
     1
290
     0
176
     1
290
     0
176
     1
 90
       50
176
     1
 40
0.0
176
     1
 40
1.0
176
     1
 90
        0
176
     1
 62
    18
420
        0
176
     1
 90
       50
176
     1
 90
        3
176
     1
 62
     5
420
      255
176
     1
290
     0
176
     1
 90
       50
176
     1
 90
       50
176
     1
 90
       50
176
     1
290
     0
176
     1
 90
       50
176
     1
 62
   256
176
     0
 40
1.0
176
     0
 90
        2
176
     1
  1
strokes_ogs.tif
176
     1
290
     0
176
     1
 40
1.0
176
     1
 40
1.0
176
     1
  0
VISUALSTYLE
  5
EA
102
{ACAD_REACTORS
330
99
102
}
330
99
100
AcDbVisualStyle
  2
X-Ray
 70
    25
177
     3
291
     0
 70
    58
 90
        2
176
     1
 90
        2
176
     1
 90
        1
176
     1
 90
        1
176
     1
 40
0.5
176
     1
 40
30.0
176
     1
 62
     7
420
 16777215
176
     1
 90
        1
176
     1
 90
        0
176
     1
 62
     7
176
     1
 62
   257
176
     1
 90
        1
176
     1
 90
        1
176
     1
 40
1.0
176
     1
 90
        8
176
     1
 62
     7
176
     1
 40
1.0
176
     1
 90
        1
176
     1
 90
        6
176
     1
 90
        2
176
     1
 62
     7
176
     1
 90
        3
176
     1
 90
        0
176
     1
 90
        0
176
     1
290
     0
176
     1
 90
       13
176
     1
 40
0.0
176
     1
 90
        0
176
     1
290
     0
176
     1
290
     1
176
     1
290
     1
176
     1
290
     0
176
     1
290
     0
176
     1
290
     0
176
     1
290
     0
176
     1
290
     0
176
     1
290
     0
176
     1
 90
       50
176
     1
 40
0.0
176
     1
 40
1.0
176
     1
 90
        0
176
     1
 62
    18
420
        0
176
     1
 90
       50
176
     1
 90
        3
176
     1
 62
     5
420
      255
176
     1
290
     0
176
     1
 90
       50
176
     1
 90
       50
176
     1
 90
       50
176
     1
290
     0
176
     1
 90
       50
176
     1
 62
   256
176
     0
 40
1.0
176
     0
 90
        2
176
     1
  1
strokes_ogs.tif
176
     1
290
     0
176
     1
 40
1.0
176
     1
 40
1.0
176
     1
  0
DICTIONARYVAR
  5
D8
102
{ACAD_REACTORS
330
66
102
}
330
66
100
DictionaryVariables
280
     0
  1
1:1
  0
DICTIONARYVAR
  5
2B8
102
{ACAD_REACTORS
330
66
102
}
330
66
100
DictionaryVariables
280
     0
  1
Standard
  0
DICTIONARYVAR
  5
89
102
{ACAD_REACTORS
330
66
102
}
330
66
100
DictionaryVariables
280
     0
  1
Standard
  0
DICTIONARYVAR
  5
67
102
{ACAD_REACTORS
330
66
102
}
330
66
100
DictionaryVariables
280
     0
  1
2
  0
DICTIONARYVAR
  5
6B
102
{ACAD_REACTORS
330
66
102
}
330
66
100
DictionaryVariables
280
     0
  1
1
  0
DICTIONARYVAR
  5
DF
102
{ACAD_REACTORS
330
66
102
}
330
66
100
DictionaryVariables
280
     0
  1
0
  0
DICTIONARYVAR
  5
E0
102
{ACAD_REACTORS
330
66
102
}
330
66
100
DictionaryVariables
280
     0
  1
0
  0
XRECORD
  5
265
102
{ACAD_REACTORS
330
194
102
}
330
194
100
AcDbXrecord
280
     1
 91
     1023
301

290
     0
302
0
330
10
 90
        8
 62
     7
370
    -3
331
16
  1
Color_7
330
12B
 90
        8
 62
     1
370
     5
331
16
  1
Color_1
330
12F
 90
        8
 62
     5
370
    30
331
16
  1
Color_5
  0
DICTIONARY
  5
2D6
330
87
100
AcDbDictionary
280
     1
281
     1
  3
ACAD_ROUNDTRIP_2008_TABLESTYLE_CELLSTYLEMAP
360
2D7
  0
CELLSTYLEMAP
  5
2D7
102
{ACAD_REACTORS
330
2D6
102
}
330
2D6
100
AcDbCellStyleMap
 90
        3
300
CELLSTYLE
  1
TABLEFORMAT_BEGIN
 90
        5
170
     1
 91
        0
 92
    32768
 62
   257
 93
        1
300
CONTENTFORMAT
  1
CONTENTFORMAT_BEGIN
 90
        0
 91
        0
 92
      512
 93
        0
300

 40
0.0
140
1.0
 94
        5
 62
     0
340
11
144
0.25
309
CONTENTFORMAT_END
171
     0
 94
        6
 95
        1
302
GRIDFORMAT
  1
GRIDFORMAT_BEGIN
 90
        0
 91
        1
 62
     0
 92
       -2
340
0
 93
        0
 40
0.045
309
GRIDFORMAT_END
 95
        2
302
GRIDFORMAT
  1
GRIDFORMAT_BEGIN
 90
        0
 91
        1
 62
     0
 92
       -2
340
0
 93
        0
 40
0.045
309
GRIDFORMAT_END
 95
        4
302
GRIDFORMAT
  1
GRIDFORMAT_BEGIN
 90
        0
 91
        1
 62
     0
 92
       -2
340
0
 93
        0
 40
0.045
309
GRIDFORMAT_END
 95
        8
302
GRIDFORMAT
  1
GRIDFORMAT_BEGIN
 90
        0
 91
        1
 62
     0
 92
       -2
340
0
 93
        0
 40
0.045
309
GRIDFORMAT_END
 95
       16
302
GRIDFORMAT
  1
GRIDFORMAT_BEGIN
 90
        0
 91
        1
 62
     0
 92
       -2
340
0
 93
        0
 40
0.045
309
GRIDFORMAT_END
 95
       32
302
GRIDFORMAT
  1
GRIDFORMAT_BEGIN
 90
        0
 91
        1
 62
     0
 92
       -2
340
0
 93
        0
 40
0.045
309
GRIDFORMAT_END
309
TABLEFORMAT_END
  1
CELLSTYLE_BEGIN
 90
        1
 91
        1
300
_TITLE
309
CELLSTYLE_END
300
CELLSTYLE
  1
TABLEFORMAT_BEGIN
 90
        5
170
     1
 91
        0
 92
        0
 62
   257
 93
        1
300
CONTENTFORMAT
  1
CONTENTFORMAT_BEGIN
 90
        0
 91
        0
 92
      512
 93
        0
300

 40
0.0
140
1.0
 94
        5
 62
     0
340
11
144
0.18
309
CONTENTFORMAT_END
171
     0
 94
        6
 95
        1
302
GRIDFORMAT
  1
GRIDFORMAT_BEGIN
 90
        0
 91
        1
 62
     0
 92
       -2
340
0
 93
        0
 40
0.045
309
GRIDFORMAT_END
 95
        2
302
GRIDFORMAT
  1
GRIDFORMAT_BEGIN
 90
        0
 91
        1
 62
     0
 92
       -2
340
0
 93
        0
 40
0.045
309
GRIDFORMAT_END
 95
        4
302
GRIDFORMAT
  1
GRIDFORMAT_BEGIN
 90
        0
 91
        1
 62
     0
 92
       -2
340
0
 93
        0
 40
0.045
309
GRIDFORMAT_END
 95
        8
302
GRIDFORMAT
  1
GRIDFORMAT_BEGIN
 90
        0
 91
        1
 62
     0
 92
       -2
340
0
 93
        0
 40
0.045
309
GRIDFORMAT_END
 95
       16
302
GRIDFORMAT
  1
GRIDFORMAT_BEGIN
 90
        0
 91
        1
 62
     0
 92
       -2
340
0
 93
        0
 40
0.045
309
GRIDFORMAT_END
 95
       32
302
GRIDFORMAT
  1
GRIDFORMAT_BEGIN
 90
        0
 91
        1
 62
     0
 92
       -2
340
0
 93
        0
 40
0.045
309
GRIDFORMAT_END
309
TABLEFORMAT_END
  1
CELLSTYLE_BEGIN
 90
        2
 91
        1
300
_HEADER
309
CELLSTYLE_END
300
CELLSTYLE
  1
TABLEFORMAT_BEGIN
 90
        5
170
     1
 91
        0
 92
        0
 62
   257
 93
        1
300
CONTENTFORMAT
  1
CONTENTFORMAT_BEGIN
 90
        0
 91
        0
 92
      512
 93
        0
300

 40
0.0
140
1.0
 94
        2
 62
     0
340
11
144
0.18
309
CONTENTFORMAT_END
171
     0
 94
        6
 95
        1
302
GRIDFORMAT
  1
GRIDFORMAT_BEGIN
 90
        0
 91
        1
 62
     0
 92
       -2
340
0
 93
        0
 40
0.045
309
GRIDFORMAT_END
 95
        2
302
GRIDFORMAT
  1
GRIDFORMAT_BEGIN
 90
        0
 91
        1
 62
     0
 92
       -2
340
0
 93
        0
 40
0.045
309
GRIDFORMAT_END
 95
        4
302
GRIDFORMAT
  1
GRIDFORMAT_BEGIN
 90
        0
 91
        1
 62
     0
 92
       -2
340
0
 93
        0
 40
0.045
309
GRIDFORMAT_END
 95
        8
302
GRIDFORMAT
  1
GRIDFORMAT_BEGIN
 90
        0
 91
        1
 62
     0
 92
       -2
340
0
 93
        0
 40
0.045
309
GRIDFORMAT_END
 95
       16
302
GRIDFORMAT
  1
GRIDFORMAT_BEGIN
 90
        0
 91
        1
 62
     0
 92
       -2
340
0
 93
        0
 40
0.045
309
GRIDFORMAT_END
 95
       32
302
GRIDFORMAT
  1
GRIDFORMAT_BEGIN
 90
        0
 91
        1
 62
     0
 92
       -2
340
0
 93
        0
 40
0.045
309
GRIDFORMAT_END
309
TABLEFORMAT_END
  1
CELLSTYLE_BEGIN
 90
        3
 91
        2
300
_DATA
309
CELLSTYLE_END
  0
ENDSEC
  0
EOF
