  0
SECTION
  2
HEADER
  9
$ACADVER
  1
AC1014
  9
$ACADMAINTVER
 70
     9
  9
$DWGCODEPAGE
  3
ANSI_1250
  9
$INSBASE
 10
0.0
 20
0.0
 30
0.0
  9
$EXTMIN
 10
565.5786685598279
 20
167.841037877114
 30
0.0
  9
$EXTMAX
 10
669.7568828373217
 20
362.2368961776897
 30
0.0000000004543359
  9
$LIMMIN
 10
0.0
 20
0.0
  9
$LIMMAX
 10
12.0
 20
9.0
  9
$ORTHOMODE
 70
     0
  9
$REGENMODE
 70
     1
  9
$FILLMODE
 70
     1
  9
$QTEXTMODE
 70
     0
  9
$MIRRTEXT
 70
     0
  9
$DRAGMODE
 70
     2
  9
$LTSCALE
 40
1.0
  9
$OSMODE
 70
 15359
  9
$ATTMODE
 70
     1
  9
$TEXTSIZE
 40
0.2
  9
$TRACEWID
 40
0.05
  9
$TEXTSTYLE
  7
STANDARD
  9
$CLAYER
  8
KOTY
  9
$CELTYPE
  6
BYLAYER
  9
$CECOLOR
 62
   256
  9
$CELTSCALE
 40
1.0
  9
$DELOBJ
 70
     1
  9
$DISPSILH
 70
     0
  9
$DIMSCALE
 40
1.0
  9
$DIMASZ
 40
0.18
  9
$DIMEXO
 40
0.0625
  9
$DIMDLI
 40
0.38
  9
$DIMRND
 40
0.0
  9
$DIMDLE
 40
0.0
  9
$DIMEXE
 40
0.18
  9
$DIMTP
 40
0.0
  9
$DIMTM
 40
0.0
  9
$DIMTXT
 40
0.18
  9
$DIMCEN
 40
0.09
  9
$DIMTSZ
 40
0.0
  9
$DIMTOL
 70
     0
  9
$DIMLIM
 70
     0
  9
$DIMTIH
 70
     1
  9
$DIMTOH
 70
     1
  9
$DIMSE1
 70
     0
  9
$DIMSE2
 70
     0
  9
$DIMTAD
 70
     0
  9
$DIMZIN
 70
     0
  9
$DIMBLK
  1

  9
$DIMASO
 70
     1
  9
$DIMSHO
 70
     1
  9
$DIMPOST
  1

  9
$DIMAPOST
  1

  9
$DIMALT
 70
     0
  9
$DIMALTD
 70
     2
  9
$DIMALTF
 40
25.4
  9
$DIMLFAC
 40
1.0
  9
$DIMTOFL
 70
     0
  9
$DIMTVP
 40
0.0
  9
$DIMTIX
 70
     0
  9
$DIMSOXD
 70
     0
  9
$DIMSAH
 70
     0
  9
$DIMBLK1
  1

  9
$DIMBLK2
  1

  9
$DIMSTYLE
  2
STANDARD
  9
$DIMCLRD
 70
     0
  9
$DIMCLRE
 70
     0
  9
$DIMCLRT
 70
     0
  9
$DIMTFAC
 40
1.0
  9
$DIMGAP
 40
0.09
  9
$DIMJUST
 70
     0
  9
$DIMSD1
 70
     0
  9
$DIMSD2
 70
     0
  9
$DIMTOLJ
 70
     1
  9
$DIMTZIN
 70
     0
  9
$DIMALTZ
 70
     0
  9
$DIMALTTZ
 70
     0
  9
$DIMFIT
 70
     5
  9
$DIMUPT
 70
     0
  9
$DIMUNIT
 70
     2
  9
$DIMDEC
 70
     4
  9
$DIMTDEC
 70
     4
  9
$DIMALTU
 70
     2
  9
$DIMALTTD
 70
     2
  9
$DIMTXSTY
  7
STANDARD
  9
$DIMAUNIT
 70
     0
  9
$LUNITS
 70
     2
  9
$LUPREC
 70
     4
  9
$SKETCHINC
 40
0.1
  9
$FILLETRAD
 40
0.0
  9
$AUNITS
 70
     0
  9
$AUPREC
 70
     0
  9
$MENU
  1
.
  9
$ELEVATION
 40
0.0
  9
$PELEVATION
 40
0.0
  9
$THICKNESS
 40
0.0
  9
$LIMCHECK
 70
     0
  9
$CHAMFERA
 40
0.0
  9
$CHAMFERB
 40
0.0
  9
$CHAMFERC
 40
0.0
  9
$CHAMFERD
 40
0.0
  9
$SKPOLY
 70
     0
  9
$TDCREATE
 40
2452643.105050926
  9
$TDUPDATE
 40
2457042.549285995
  9
$TDINDWG
 40
0.004576713
  9
$TDUSRTIMER
 40
2457042.507224259
  9
$USRTIMER
 70
     1
  9
$ANGBASE
 50
0.0
  9
$ANGDIR
 70
     0
  9
$PDMODE
 70
     0
  9
$PDSIZE
 40
0.0
  9
$PLINEWID
 40
0.0
  9
$COORDS
 70
     2
  9
$SPLFRAME
 70
     0
  9
$SPLINETYPE
 70
     6
  9
$SPLINESEGS
 70
     8
  9
$ATTDIA
 70
     0
  9
$ATTREQ
 70
     1
  9
$HANDLING
 70
     1
  9
$HANDSEED
  5
570
  9
$SURFTAB1
 70
     6
  9
$SURFTAB2
 70
     6
  9
$SURFTYPE
 70
     6
  9
$SURFU
 70
     6
  9
$SURFV
 70
     6
  9
$UCSNAME
  2

  9
$UCSORG
 10
0.0
 20
0.0
 30
0.0
  9
$UCSXDIR
 10
1.0
 20
0.0
 30
0.0
  9
$UCSYDIR
 10
0.0
 20
1.0
 30
0.0
  9
$PUCSNAME
  2

  9
$PUCSORG
 10
0.0
 20
0.0
 30
0.0
  9
$PUCSXDIR
 10
1.0
 20
0.0
 30
0.0
  9
$PUCSYDIR
 10
0.0
 20
1.0
 30
0.0
  9
$USERI1
 70
     0
  9
$USERI2
 70
     0
  9
$USERI3
 70
     0
  9
$USERI4
 70
     0
  9
$USERI5
 70
     0
  9
$USERR1
 40
0.0
  9
$USERR2
 40
0.0
  9
$USERR3
 40
0.0
  9
$USERR4
 40
0.0
  9
$USERR5
 40
0.0
  9
$WORLDVIEW
 70
     1
  9
$SHADEDGE
 70
     3
  9
$SHADEDIF
 70
    70
  9
$TILEMODE
 70
     0
  9
$MAXACTVP
 70
    64
  9
$PINSBASE
 10
0.0
 20
0.0
 30
0.0
  9
$PLIMCHECK
 70
     0
  9
$PEXTMIN
 10
1.05
 20
0.7999999999999998
 30
0.0
  9
$PEXTMAX
 10
9.45
 20
7.2
 30
0.0
  9
$PLIMMIN
 10
0.8500000000000006
 20
0.5999999999999998
  9
$PLIMMAX
 10
9.650000000000002
 20
7.4
  9
$UNITMODE
 70
     0
  9
$VISRETAIN
 70
     1
  9
$PLINEGEN
 70
     0
  9
$PSLTSCALE
 70
     1
  9
$TREEDEPTH
 70
  3020
  9
$PICKSTYLE
 70
     0
  9
$CMLSTYLE
  2
STANDARD
  9
$CMLJUST
 70
     0
  9
$CMLSCALE
 40
1.0
  9
$PROXYGRAPHICS
 70
     1
  9
$MEASUREMENT
 70
     0
  0
ENDSEC
  0
SECTION
  2
CLASSES
  0
CLASS
  1
ACDBDICTIONARYWDFLT
  2
AcDbDictionaryWithDefault
  3
ObjectDBX Classes
 90
        0
280
     0
281
     0
  0
CLASS
  1
ACDBPLACEHOLDER
  2
AcDbPlaceHolder
  3
ObjectDBX Classes
 90
        0
280
     0
281
     0
  0
CLASS
  1
LAYOUT
  2
AcDbLayout
  3
ObjectDBX Classes
 90
        0
280
     0
281
     0
  0
CLASS
  1
DICTIONARYVAR
  2
AcDbDictionaryVar
  3
ObjectDBX Classes
 90
        0
280
     0
281
     0
  0
CLASS
  1
TABLESTYLE
  2
AcDbTableStyle
  3
ObjectDBX Classes
 90
     4095
280
     0
281
     0
  0
CLASS
  1
MATERIAL
  2
AcDbMaterial
  3
ObjectDBX Classes
 90
     1153
280
     0
281
     0
  0
CLASS
  1
VISUALSTYLE
  2
AcDbVisualStyle
  3
ObjectDBX Classes
 90
     4095
280
     0
281
     0
  0
CLASS
  1
SCALE
  2
AcDbScale
  3
ObjectDBX Classes
 90
     1153
280
     0
281
     0
  0
CLASS
  1
CELLSTYLEMAP
  2
AcDbCellStyleMap
  3
ObjectDBX Classes
 90
     1152
280
     0
281
     0
  0
CLASS
  1
RASTERVARIABLES
  2
AcDbRasterVariables
  3
ISM
 90
        0
280
     0
281
     0
  0
CLASS
  1
SUN
  2
AcDbSun
  3
SCENEOE
 90
     1153
280
     0
281
     0
  0
CLASS
  1
DIMASSOC
  2
AcDbDimAssoc
  3
"AcDbDimAssoc|Product Desc:     AcDim ARX App For Dimension|Company:          Autodesk, Inc.|WEB Address:      www.autodesk.com"
 90
        0
280
     0
281
     0
  0
CLASS
  1
XRECORD
  2
AcDbXrecord
  3
ObjectDBX Classes
 90
        0
280
     0
281
     0
  0
CLASS
  1
LWPOLYLINE
  2
AcDbPolyline
  3
ObjectDBX Classes
 90
        0
280
     0
281
     1
  0
CLASS
  1
HATCH
  2
AcDbHatch
  3
ObjectDBX Classes
 90
        0
280
     0
281
     1
  0
ENDSEC
  0
SECTION
  2
TABLES
  0
TABLE
  2
VPORT
  5
8
330
0
100
AcDbSymbolTable
 70
     1
  0
VPORT
  5
94
330
8
100
AcDbSymbolTableRecord
100
AcDbViewportTableRecord
  2
*ACTIVE
 70
     0
 10
0.0
 20
0.0
 11
1.0
 21
1.0
 12
664.8559876005085
 22
286.1720772558588
 13
0.0
 23
0.0
 14
0.5
 24
0.5
 15
0.5
 25
0.5
 16
0.0
 26
0.0
 36
1.0
 17
-27.66959356597977
 27
-19.53870295786203
 37
0.0
 40
200.1927766416752
 41
1.13768115942029
 42
50.0
 43
0.0
 44
0.0
 50
0.0
 51
0.0
 71
    16
 72
  1000
 73
     1
 74
     3
 75
     0
 76
     0
 77
     0
 78
     0
  0
ENDTAB
  0
TABLE
  2
LTYPE
  5
5
330
0
100
AcDbSymbolTable
 70
     1
  0
LTYPE
  5
14
330
5
100
AcDbSymbolTableRecord
100
AcDbLinetypeTableRecord
  2
BYBLOCK
 70
     0
  3

 72
    65
 73
     0
 40
0.0
  0
LTYPE
  5
15
330
5
100
AcDbSymbolTableRecord
100
AcDbLinetypeTableRecord
  2
BYLAYER
 70
     0
  3
Solid line
 72
    65
 73
     0
 40
0.0
  0
LTYPE
  5
16
330
5
100
AcDbSymbolTableRecord
100
AcDbLinetypeTableRecord
  2
CONTINUOUS
 70
     0
  3
Solid line
 72
    65
 73
     0
 40
0.0
  0
ENDTAB
  0
TABLE
  2
LAYER
  5
2
102
{ACAD_XDICTIONARY
360
4C2
102
}
330
0
100
AcDbSymbolTable
 70
     4
  0
LAYER
  5
10
330
2
100
AcDbSymbolTableRecord
100
AcDbLayerTableRecord
  2
0
 70
     0
 62
     7
  6
CONTINUOUS
  0
LAYER
  5
125
330
2
100
AcDbSymbolTableRecord
100
AcDbLayerTableRecord
  2
OBRYS
 70
     0
 62
     5
  6
CONTINUOUS
1001
ACAECLAYERSTANDARD
1000

1000

  0
LAYER
  5
4C5
330
2
100
AcDbSymbolTableRecord
100
AcDbLayerTableRecord
  2
KOTY
 70
     0
 62
     1
  6
CONTINUOUS
1001
ACAECLAYERSTANDARD
1000

1000

  0
LAYER
  5
4CA
330
2
100
AcDbSymbolTableRecord
100
AcDbLayerTableRecord
  2
DEFPOINTS
 70
     0
 62
     7
  6
CONTINUOUS
  0
ENDTAB
  0
TABLE
  2
STYLE
  5
3
330
0
100
AcDbSymbolTable
 70
     1
  0
STYLE
  5
11
330
3
100
AcDbSymbolTableRecord
100
AcDbTextStyleTableRecord
  2
STANDARD
 70
     0
 40
0.0
 41
1.0
 50
0.0
 71
     0
 42
0.2
  3
arial.ttf
  4

1001
ACAD
1000
Arial
1071
        0
  0
ENDTAB
  0
TABLE
  2
VIEW
  5
6
330
0
100
AcDbSymbolTable
 70
     0
  0
ENDTAB
  0
TABLE
  2
UCS
  5
7
330
0
100
AcDbSymbolTable
 70
     0
  0
ENDTAB
  0
TABLE
  2
APPID
  5
9
330
0
100
AcDbSymbolTable
 70
     3
  0
APPID
  5
12
330
9
100
AcDbSymbolTableRecord
100
AcDbRegAppTableRecord
  2
ACAD
 70
     0
  0
APPID
  5
127
330
9
100
AcDbSymbolTableRecord
100
AcDbRegAppTableRecord
  2
ACAECLAYERSTANDARD
 70
     0
  0
APPID
  5
50E
330
9
100
AcDbSymbolTableRecord
100
AcDbRegAppTableRecord
  2
ACAD_DSTYLE_DIMRADIAL_EXTE
 70
     0
  0
ENDTAB
  0
TABLE
  2
DIMSTYLE
  5
A
330
0
100
AcDbSymbolTable
 70
     1
  0
DIMSTYLE
105
27
102
{ACAD_REACTORS
330
4CB
330
4DE
330
4EE
330
4FE
330
50F
102
}
330
A
100
AcDbSymbolTableRecord
100
AcDbDimStyleTableRecord
  2
STANDARD
 70
     0
  3

  4

  5

  6

  7

 40
1.0
 41
0.18
 42
0.0625
 43
0.38
 44
0.18
 45
0.0
 46
0.0
 47
0.0
 48
0.0
140
0.18
141
0.09
142
0.0
143
25.4
144
1.0
145
0.0
146
1.0
147
0.09
 71
     0
 72
     0
 73
     1
 74
     1
 75
     0
 76
     0
 77
     0
 78
     0
170
     0
171
     2
172
     0
173
     0
174
     0
175
     0
176
     0
177
     0
178
     0
270
     2
271
     4
272
     4
273
     2
274
     2
340
11
275
     0
280
     0
281
     0
282
     0
283
     1
284
     0
285
     0
286
     0
287
     3
288
     0
  0
ENDTAB
  0
TABLE
  2
BLOCK_RECORD
  5
1
330
0
100
AcDbSymbolTable
 70
     5
  0
BLOCK_RECORD
  5
1F
330
1
100
AcDbSymbolTableRecord
100
AcDbBlockTableRecord
  2
*MODEL_SPACE
  0
BLOCK_RECORD
  5
521
330
1
100
AcDbSymbolTableRecord
100
AcDbBlockTableRecord
  2
*PAPER_SPACE
  0
BLOCK_RECORD
  5
4CE
330
1
100
AcDbSymbolTableRecord
100
AcDbBlockTableRecord
  2
*D0
  0
BLOCK_RECORD
  5
4E1
330
1
100
AcDbSymbolTableRecord
100
AcDbBlockTableRecord
  2
*D1
  0
BLOCK_RECORD
  5
4F1
330
1
100
AcDbSymbolTableRecord
100
AcDbBlockTableRecord
  2
*D2
  0
BLOCK_RECORD
  5
501
330
1
100
AcDbSymbolTableRecord
100
AcDbBlockTableRecord
  2
*D3
  0
BLOCK_RECORD
  5
512
330
1
100
AcDbSymbolTableRecord
100
AcDbBlockTableRecord
  2
*D4
  0
ENDTAB
  0
ENDSEC
  0
SECTION
  2
BLOCKS
  0
BLOCK
  5
20
330
1F
100
AcDbEntity
  8
0
100
AcDbBlockBegin
  2
*MODEL_SPACE
 70
     0
 10
0.0
 20
0.0
 30
0.0
  3
*MODEL_SPACE
  1

  0
ENDBLK
  5
21
330
1F
100
AcDbEntity
  8
0
100
AcDbBlockEnd
  0
BLOCK
  5
523
330
521
100
AcDbEntity
 67
     1
  8
0
100
AcDbBlockBegin
  2
*PAPER_SPACE
 70
     0
 10
0.0
 20
0.0
 30
0.0
  3
*PAPER_SPACE
  1

  0
ENDBLK
  5
524
330
521
100
AcDbEntity
 67
     1
  8
0
100
AcDbBlockEnd
  0
BLOCK
  5
4CF
330
4CE
100
AcDbEntity
  8
0
100
AcDbBlockBegin
  2
*D0
 70
     1
 10
0.0
 20
0.0
 30
0.0
  3
*D0
  1
*D2
  0
LINE
  5
4D1
330
4CE
100
AcDbEntity
  8
KOTY
 62
     0
100
AcDbLine
 10
599.9930528373216
 20
228.5676165541128
 30
0.0
 11
599.9930528373216
 21
228.7476165541128
 31
0.0
  0
LINE
  5
4D2
330
4CE
100
AcDbEntity
  8
KOTY
 62
     0
100
AcDbLine
 10
626.4930528373216
 20
228.5676165541128
 30
0.0
 11
626.4930528373216
 21
228.7476165541128
 31
0.0
  0
LINE
  5
4D3
330
4CE
100
AcDbEntity
  8
KOTY
 62
     0
100
AcDbLine
 10
603.9930528373216
 20
228.5676165541128
 30
0.0
 11
622.4930528373216
 21
228.5676165541128
 31
0.0
  0
SOLID
  5
4D4
330
4CE
100
AcDbEntity
  8
KOTY
 62
     0
100
AcDbTrace
 10
603.9930528373216
 20
229.2342832207794
 30
0.0
 11
603.9930528373216
 21
227.9009498874461
 31
0.0
 12
599.9930528373216
 22
228.5676165541128
 32
0.0
 13
599.9930528373216
 23
228.5676165541128
 33
0.0
  0
SOLID
  5
4D5
330
4CE
100
AcDbEntity
  8
KOTY
 62
     0
100
AcDbTrace
 10
622.4930528373216
 20
227.9009498874461
 30
0.0
 11
622.4930528373216
 21
229.2342832207794
 31
0.0
 12
626.4930528373216
 22
228.5676165541128
 32
0.0
 13
626.4930528373216
 23
228.5676165541128
 33
0.0
  0
MTEXT
  5
4D6
330
4CE
100
AcDbEntity
  8
KOTY
 62
     0
100
AcDbMText
 10
613.2430528373216
 20
231.9696165541128
 30
0.0
 40
4.0
 41
0.0
 71
     5
 72
     1
  1
\A1;\U+00F8 26,5
  0
POINT
  5
4D7
330
4CE
100
AcDbEntity
  8
DEFPOINTS
 62
     0
100
AcDbPoint
 10
599.9930528373216
 20
228.5051165541128
 30
0.0
  0
POINT
  5
4D8
330
4CE
100
AcDbEntity
  8
DEFPOINTS
 62
     0
100
AcDbPoint
 10
626.4930528373216
 20
228.5051165541128
 30
0.0
  0
POINT
  5
4D9
330
4CE
100
AcDbEntity
  8
DEFPOINTS
 62
     0
100
AcDbPoint
 10
626.4930528373216
 20
228.5676165541128
 30
0.0
  0
ENDBLK
  5
4D0
330
4CE
100
AcDbEntity
  8
0
100
AcDbBlockEnd
  0
BLOCK
  5
4E2
330
4E1
100
AcDbEntity
  8
0
100
AcDbBlockBegin
  2
*D1
 70
     1
 10
0.0
 20
0.0
 30
0.0
  3
*D1
  1
*D3
  0
LINE
  5
4E4
330
4E1
100
AcDbEntity
  8
KOTY
 62
     0
100
AcDbLine
 10
609.7805528373217
 20
176.7551165541128
 30
0.0
 11
589.592761572855
 21
176.7551165541128
 31
0.0
  0
LINE
  5
4E5
330
4E1
100
AcDbEntity
  8
KOTY
 62
     0
100
AcDbLine
 10
606.6805528373216
 20
203.7551165541128
 30
0.0
 11
589.592761572855
 21
203.7551165541128
 31
0.0
  0
LINE
  5
4E6
330
4E1
100
AcDbEntity
  8
KOTY
 62
     0
100
AcDbLine
 10
589.772761572855
 20
180.7551165541128
 30
0.0
 11
589.772761572855
 21
199.7551165541128
 31
0.0
  0
SOLID
  5
4E7
330
4E1
100
AcDbEntity
  8
KOTY
 62
     0
100
AcDbTrace
 10
589.1060949061883
 20
180.7551165541128
 30
0.0
 11
590.4394282395216
 21
180.7551165541128
 31
0.0
 12
589.772761572855
 22
176.7551165541128
 32
0.0
 13
589.772761572855
 23
176.7551165541128
 33
0.0
  0
SOLID
  5
4E8
330
4E1
100
AcDbEntity
  8
KOTY
 62
     0
100
AcDbTrace
 10
590.4394282395216
 20
199.7551165541128
 30
0.0
 11
589.1060949061883
 21
199.7551165541128
 31
0.0
 12
589.772761572855
 22
203.7551165541128
 32
0.0
 13
589.772761572855
 23
203.7551165541128
 33
0.0
  0
MTEXT
  5
4E9
330
4E1
100
AcDbEntity
  8
KOTY
 62
     0
100
AcDbMText
 10
586.3707615728549
 20
190.2551165541128
 30
0.0
 40
4.0
 41
0.0
 71
     5
 72
     1
  1
\A1;27,0
 11
0.0
 21
1.0
 31
0.0
  0
POINT
  5
4EA
330
4E1
100
AcDbEntity
  8
DEFPOINTS
 62
     0
100
AcDbPoint
 10
609.8430528373217
 20
176.7551165541128
 30
0.0
  0
POINT
  5
4EB
330
4E1
100
AcDbEntity
  8
DEFPOINTS
 62
     0
100
AcDbPoint
 10
606.7430528373216
 20
203.7551165541128
 30
0.0
  0
POINT
  5
4EC
330
4E1
100
AcDbEntity
  8
DEFPOINTS
 62
     0
100
AcDbPoint
 10
589.772761572855
 20
203.7551165541128
 30
0.0
  0
ENDBLK
  5
4E3
330
4E1
100
AcDbEntity
  8
0
100
AcDbBlockEnd
  0
BLOCK
  5
4F2
330
4F1
100
AcDbEntity
  8
0
100
AcDbBlockBegin
  2
*D2
 70
     1
 10
0.0
 20
0.0
 30
0.0
  3
*D2
  1
*D4
  0
LINE
  5
4F4
330
4F1
100
AcDbEntity
  8
KOTY
 62
     0
100
AcDbLine
 10
609.2430528373216
 20
177.2926165541128
 30
0.0
 11
609.2430528373216
 21
168.3277045437807
 31
0.0
  0
LINE
  5
4F5
330
4F1
100
AcDbEntity
  8
KOTY
 62
     0
100
AcDbLine
 10
617.2430528373216
 20
177.2926165541128
 30
0.0
 11
617.2430528373216
 21
168.3277045437807
 31
0.0
  0
LINE
  5
4F6
330
4F1
100
AcDbEntity
  8
KOTY
 62
     0
100
AcDbLine
 10
621.2430528373216
 20
168.5077045437807
 30
0.0
 11
634.3390528373216
 21
168.5077045437807
 31
0.0
  0
LINE
  5
4F7
330
4F1
100
AcDbEntity
  8
KOTY
 62
     0
100
AcDbLine
 10
605.2430528373216
 20
168.5077045437807
 30
0.0
 11
601.2430528373216
 21
168.5077045437807
 31
0.0
  0
SOLID
  5
4F8
330
4F1
100
AcDbEntity
  8
KOTY
 62
     0
100
AcDbTrace
 10
605.2430528373216
 20
167.841037877114
 30
0.0
 11
605.2430528373216
 21
169.1743712104474
 31
0.0
 12
609.2430528373216
 22
168.5077045437807
 32
0.0
 13
609.2430528373216
 23
168.5077045437807
 33
0.0
  0
SOLID
  5
4F9
330
4F1
100
AcDbEntity
  8
KOTY
 62
     0
100
AcDbTrace
 10
621.2430528373216
 20
169.1743712104474
 30
0.0
 11
621.2430528373216
 21
167.841037877114
 31
0.0
 12
617.2430528373216
 22
168.5077045437807
 32
0.0
 13
617.2430528373216
 23
168.5077045437807
 33
0.0
  0
MTEXT
  5
4FA
330
4F1
100
AcDbEntity
  8
KOTY
 62
     0
100
AcDbMText
 10
629.7910528373216
 20
171.5497045437807
 30
0.0
 40
4.0
 41
0.0
 71
     5
 72
     1
  1
\A1;M8
  0
POINT
  5
4FB
330
4F1
100
AcDbEntity
  8
DEFPOINTS
 62
     0
100
AcDbPoint
 10
609.2430528373216
 20
177.3551165541128
 30
0.0
  0
POINT
  5
4FC
330
4F1
100
AcDbEntity
  8
DEFPOINTS
 62
     0
100
AcDbPoint
 10
617.2430528373216
 20
177.3551165541128
 30
0.0
  0
POINT
  5
4FD
330
4F1
100
AcDbEntity
  8
DEFPOINTS
 62
     0
100
AcDbPoint
 10
617.2430528373216
 20
168.5077045437807
 30
0.0
  0
ENDBLK
  5
4F3
330
4F1
100
AcDbEntity
  8
0
100
AcDbBlockEnd
  0
BLOCK
  5
502
330
501
100
AcDbEntity
  8
0
100
AcDbBlockBegin
  2
*D3
 70
     1
 10
0.0
 20
0.0
 30
0.0
  3
*D3
  1
*D5
  0
LINE
  5
504
330
501
100
AcDbEntity
  8
KOTY
 62
     0
100
AcDbLine
 10
609.7805528373217
 20
176.7551165541128
 30
0.0
 11
571.2106685598279
 21
176.7551165541128
 31
0.0
  0
LINE
  5
505
330
501
100
AcDbEntity
  8
KOTY
 62
     0
100
AcDbLine
 10
613.1805528373216
 20
346.5642345541128
 30
0.0
 11
571.2106685598279
 21
346.5642345541128
 31
0.0
  0
LINE
  5
506
330
501
100
AcDbEntity
  8
KOTY
 62
     0
100
AcDbLine
 10
571.3906685598279
 20
180.7551165541128
 30
0.0
 11
571.3906685598279
 21
342.5642345541128
 31
0.0
  0
SOLID
  5
507
330
501
100
AcDbEntity
  8
KOTY
 62
     0
100
AcDbTrace
 10
570.7240018931612
 20
180.7551165541128
 30
0.0
 11
572.0573352264945
 21
180.7551165541128
 31
0.0
 12
571.3906685598279
 22
176.7551165541128
 32
0.0
 13
571.3906685598279
 23
176.7551165541128
 33
0.0
  0
SOLID
  5
508
330
501
100
AcDbEntity
  8
KOTY
 62
     0
100
AcDbTrace
 10
572.0573352264945
 20
342.5642345541128
 30
0.0
 11
570.7240018931612
 21
342.5642345541128
 31
0.0
 12
571.3906685598279
 22
346.5642345541128
 32
0.0
 13
571.3906685598279
 23
346.5642345541128
 33
0.0
  0
MTEXT
  5
509
330
501
100
AcDbEntity
  8
KOTY
 62
     0
100
AcDbMText
 10
567.9886685598278
 20
261.6596755541128
 30
0.0
 40
4.0
 41
0.0
 71
     5
 72
     1
  1
\A1;306,0
 11
0.0
 21
1.0
 31
0.0
  0
POINT
  5
50A
330
501
100
AcDbEntity
  8
DEFPOINTS
 62
     0
100
AcDbPoint
 10
609.8430528373217
 20
176.7551165541128
 30
0.0
  0
POINT
  5
50B
330
501
100
AcDbEntity
  8
DEFPOINTS
 62
     0
100
AcDbPoint
 10
613.2430528373216
 20
346.5642345541128
 30
0.0
  0
POINT
  5
50C
330
501
100
AcDbEntity
  8
DEFPOINTS
 62
     0
100
AcDbPoint
 10
571.3906685598279
 20
346.5642345541128
 30
0.0
  0
ENDBLK
  5
503
330
501
100
AcDbEntity
  8
0
100
AcDbBlockEnd
  0
BLOCK
  5
513
330
512
100
AcDbEntity
  8
0
100
AcDbBlockBegin
  2
*D4
 70
     1
 10
0.0
 20
0.0
 30
0.0
  3
*D4
  1
*D6
  0
LINE
  5
515
330
512
100
AcDbEntity
  8
KOTY
 62
     0
100
AcDbLine
 10
631.9788785830725
 20
356.4248961776898
 30
0.0
 11
620.4268785830726
 21
356.4248961776898
 31
0.0
  0
LINE
  5
516
330
512
100
AcDbEntity
  8
KOTY
 62
     0
100
AcDbLine
 10
620.4268785830726
 20
356.4248961776898
 30
0.0
 11
618.0715258795476
 21
353.191892366681
 31
0.0
  0
MTEXT
  5
517
330
512
100
AcDbEntity
  8
KOTY
 62
     0
100
AcDbMText
 10
626.7028785830726
 20
359.8268961776898
 30
0.0
 40
4.0
 41
0.0
 71
     5
 72
     1
  1
\A1;%%c8,4
  0
SOLID
  5
518
330
512
100
AcDbEntity
  8
KOTY
 62
     0
100
AcDbTrace
 10
617.5326919110462
 20
353.5844511506018
 30
0.0
 11
618.610359848049
 21
352.7993335827601
 31
0.0
 12
615.7161731760227
 22
349.9588885556721
 32
0.0
 13
615.7161731760227
 23
349.9588885556721
 33
0.0
  0
LINE
  5
519
330
512
100
AcDbEntity
  8
KOTY
 62
     0
100
AcDbLine
 10
613.1530528373215
 20
346.5642345541128
 30
0.0
 11
613.3330528373216
 21
346.5642345541128
 31
0.0
  0
LINE
  5
51A
330
512
100
AcDbEntity
  8
KOTY
 62
     0
100
AcDbLine
 10
613.2430528373216
 20
346.4742345541129
 30
0.0
 11
613.2430528373216
 21
346.6542345541128
 31
0.0
  0
POINT
  5
51B
330
512
100
AcDbEntity
  8
DEFPOINTS
 62
     0
100
AcDbPoint
 10
615.7161731760227
 20
349.9588885556721
 30
0.0
  0
POINT
  5
51C
330
512
100
AcDbEntity
  8
DEFPOINTS
 62
     0
100
AcDbPoint
 10
610.7699324986204
 20
343.1695805525536
 30
0.0
  0
ENDBLK
  5
514
330
512
100
AcDbEntity
  8
0
100
AcDbBlockEnd
  0
ENDSEC
  0
SECTION
  2
ENTITIES
  0
LINE
  5
306
330
1F
100
AcDbEntity
  8
OBRYS
  6
CONTINUOUS
100
AcDbLine
 10
626.4930528373216
 20
218.1051165541128
 30
0.0000000000005163
 11
626.4930528373216
 21
238.9051165541129
 31
0.0000000000005163
  0
LINE
  5
307
330
1F
100
AcDbEntity
  8
OBRYS
  6
CONTINUOUS
100
AcDbLine
 10
599.9930528373216
 20
238.9051165541129
 30
0.0000000000005163
 11
599.9930528373216
 21
218.1051165541128
 31
0.0000000000005163
  0
LINE
  5
308
330
1F
100
AcDbEntity
  8
OBRYS
  6
CONTINUOUS
100
AcDbLine
 10
608.2430528373216
 20
332.5642345541128
 30
0.0000000000005163
 11
608.2430528373216
 21
330.5640345541128
 31
0.0000000000005163
  0
LINE
  5
309
330
1F
100
AcDbEntity
  8
OBRYS
  6
CONTINUOUS
100
AcDbLine
 10
618.2430528373216
 20
330.5640345541128
 30
0.0000000000005163
 11
618.2430528373216
 21
332.5642345541128
 31
0.0000000000005163
  0
LINE
  5
30A
330
1F
100
AcDbEntity
  8
OBRYS
  6
CONTINUOUS
100
AcDbLine
 10
620.2430528373216
 20
337.0642345541128
 30
0.0000000000005163
 11
606.2430528373216
 21
337.0642345541128
 31
0.0000000000005163
  0
LINE
  5
30B
330
1F
100
AcDbEntity
  8
OBRYS
  6
CONTINUOUS
100
AcDbLine
 10
606.2430528373216
 20
355.0642345541128
 30
0.0000000000005163
 11
606.2430528373216
 21
337.0642345541128
 31
0.0000000000005163
  0
LINE
  5
30C
330
1F
100
AcDbEntity
  8
OBRYS
  6
CONTINUOUS
100
AcDbLine
 10
607.2430528373216
 20
355.7933778335325
 30
0.0000000000005163
 11
607.2430528373216
 21
337.0642345541128
 31
0.0000000000005163
  0
LINE
  5
30D
330
1F
100
AcDbEntity
  8
OBRYS
  6
CONTINUOUS
100
AcDbLine
 10
619.2430528373216
 20
355.7933778335325
 30
0.0000000000005163
 11
619.2430528373216
 21
337.0642345541128
 31
0.0000000000005163
  0
LINE
  5
30E
330
1F
100
AcDbEntity
  8
OBRYS
  6
CONTINUOUS
100
AcDbLine
 10
620.2430528373216
 20
355.0642345541128
 30
0.0000000000005163
 11
620.2430528373216
 21
337.0642345541128
 31
0.0000000000005163
  0
LINE
  5
30F
330
1F
100
AcDbEntity
  8
OBRYS
  6
CONTINUOUS
100
AcDbLine
 10
618.6430528373216
 20
305.5642345541128
 30
0.0000000000005163
 11
618.6430528373216
 21
316.8386905541129
 31
0.0000000000005163
  0
LINE
  5
310
330
1F
100
AcDbEntity
  8
OBRYS
  6
CONTINUOUS
100
AcDbLine
 10
618.7930528373216
 20
318.5642345541128
 30
0.0000000000005163
 11
618.7930528373216
 21
330.5642345541128
 31
0.0000000000005163
  0
LINE
  5
311
330
1F
100
AcDbEntity
  8
OBRYS
  6
CONTINUOUS
100
AcDbLine
 10
607.6930528373216
 20
330.5642345541128
 30
0.0000000000005163
 11
607.6930528373216
 21
318.5642345541128
 31
0.0000000000005163
  0
LINE
  5
312
330
1F
100
AcDbEntity
  8
OBRYS
  6
CONTINUOUS
100
AcDbLine
 10
607.8430528373216
 20
316.8386905541129
 30
0.0000000000005163
 11
607.8430528373216
 21
305.5642345541128
 31
0.0000000000005163
  0
LINE
  5
313
330
1F
100
AcDbEntity
  8
OBRYS
  6
CONTINUOUS
100
AcDbLine
 10
618.2430528373216
 20
332.5642345541128
 30
0.0000000000005163
 11
613.2430528373216
 21
332.5642345541128
 31
0.0000000000005163
  0
LINE
  5
314
330
1F
100
AcDbEntity
  8
OBRYS
  6
CONTINUOUS
100
AcDbLine
 10
608.2430528373216
 20
332.5642345541128
 30
0.0000000000005163
 11
613.2430528373216
 21
332.5642345541128
 31
0.0000000000005163
  0
LINE
  5
315
330
1F
100
AcDbEntity
  8
OBRYS
  6
CONTINUOUS
100
AcDbLine
 10
607.7725528373217
 20
317.6496965541128
 30
0.0000000000005163
 11
618.7135528373216
 21
317.6496965541128
 31
0.0000000000005163
  0
LINE
  5
316
330
1F
100
AcDbEntity
  8
OBRYS
  6
CONTINUOUS
100
AcDbLine
 10
607.8430528373216
 20
316.8386905541129
 30
0.0000000000005163
 11
618.6430528373216
 21
316.8386905541129
 31
0.0000000000005163
  0
LINE
  5
317
330
1F
100
AcDbEntity
  8
OBRYS
  6
CONTINUOUS
100
AcDbLine
 10
607.6930528373216
 20
318.5642345541128
 30
0.0000000000005163
 11
618.7930528373216
 21
318.5642345541128
 31
0.0000000000005163
  0
LINE
  5
318
330
1F
100
AcDbEntity
  8
OBRYS
  6
CONTINUOUS
100
AcDbLine
 10
607.6930528373216
 20
330.5642345541128
 30
0.0000000000005163
 11
618.7930528373216
 21
330.5642345541128
 31
0.0000000000005163
  0
LINE
  5
319
330
1F
100
AcDbEntity
  8
OBRYS
  6
CONTINUOUS
100
AcDbLine
 10
607.8430528373216
 20
305.5642345541128
 30
0.0000000000005163
 11
618.6430528373216
 21
305.5642345541128
 31
0.0000000000005163
  0
LINE
  5
31A
330
1F
100
AcDbEntity
  8
OBRYS
  6
CONTINUOUS
100
AcDbLine
 10
669.7568828373217
 20
218.1051165541128
 30
0.0000000000005163
 11
669.7568828373217
 21
238.9051165541129
 31
0.0000000000005163
  0
LINE
  5
31B
330
1F
100
AcDbEntity
  8
OBRYS
  6
CONTINUOUS
100
AcDbLine
 10
643.2568828373217
 20
238.9051165541129
 30
0.0000000000005163
 11
643.2568828373217
 21
218.1051165541128
 31
0.0000000000005163
  0
LINE
  5
31C
330
1F
100
AcDbEntity
  8
OBRYS
  6
CONTINUOUS
100
AcDbLine
 10
661.5068828373217
 20
330.5640345541128
 30
0.0000000000005163
 11
661.5068828373217
 21
332.5642345541128
 31
0.0000000000005163
  0
LINE
  5
31D
330
1F
100
AcDbEntity
  8
OBRYS
  6
CONTINUOUS
100
AcDbLine
 10
651.5068828373217
 20
357.5642345541128
 30
0.0000000000005163
 11
651.5067884240643
 21
330.5642345541128
 31
0.0000000000005163
  0
LINE
  5
31E
330
1F
100
AcDbEntity
  8
OBRYS
  6
CONTINUOUS
100
AcDbLine
 10
654.1068828373216
 20
357.5642345541128
 30
0.0000000000005163
 11
651.5068828373217
 21
357.5642345541128
 31
0.0000000000005163
  0
LINE
  5
31F
330
1F
100
AcDbEntity
  8
OBRYS
  6
CONTINUOUS
100
AcDbLine
 10
653.1068828373216
 20
355.0642345541128
 30
0.0000000000005163
 11
653.1068828373216
 21
337.0642345541128
 31
0.0000000000005163
  0
LINE
  5
320
330
1F
100
AcDbEntity
  8
OBRYS
  6
CONTINUOUS
100
AcDbLine
 10
652.5068828373217
 20
355.0642345541128
 30
0.0000000000005163
 11
652.5068828373217
 21
337.0642345541128
 31
0.0000000000005163
  0
LINE
  5
321
330
1F
100
AcDbEntity
  8
OBRYS
  6
CONTINUOUS
100
AcDbLine
 10
652.5068828373217
 20
355.0642345541128
 30
0.0000000000005163
 11
653.1068828373216
 21
355.0642345541128
 31
0.0000000000005163
  0
LINE
  5
322
330
1F
100
AcDbEntity
  8
OBRYS
  6
CONTINUOUS
100
AcDbLine
 10
654.1068828373216
 20
357.5642345541128
 30
0.0000000000005163
 11
654.1068828373216
 21
337.0642345541128
 31
0.0000000000005163
  0
LINE
  5
323
330
1F
100
AcDbEntity
  8
OBRYS
  6
CONTINUOUS
100
AcDbLine
 10
662.0568828373216
 20
330.5642345541128
 30
0.0000000000005163
 11
650.9568828373216
 21
330.5642345541128
 31
0.0000000000005163
  0
LINE
  5
324
330
1F
100
AcDbEntity
  8
OBRYS
  6
CONTINUOUS
100
AcDbLine
 10
651.5068828373217
 20
332.5642345541128
 30
0.0000000000005163
 11
661.5068826857515
 21
332.5642341537339
 31
0.0000000000005163
  0
CIRCLE
  5
325
330
1F
100
AcDbEntity
  8
OBRYS
  6
CONTINUOUS
100
AcDbCircle
 10
-613.2430528373216
 20
346.5642345541128
 30
-0.0000000000005163
 40
4.500000000000001
210
0.0
220
0.0
230
-1.0
  0
CIRCLE
  5
326
330
1F
100
AcDbEntity
  8
OBRYS
  6
CONTINUOUS
100
AcDbCircle
 10
613.2430528373216
 20
346.5642345541128
 30
0.0000000000005163
 40
4.2
  0
ARC
  5
327
330
1F
100
AcDbEntity
  8
OBRYS
  6
CONTINUOUS
100
AcDbCircle
 10
612.9930528373216
 20
318.5642345541128
 30
0.0000000000005163
 40
5.3
100
AcDbArc
 50
180.0
 51
189.9363670000005
  0
ARC
  5
328
330
1F
100
AcDbEntity
  8
OBRYS
  6
CONTINUOUS
100
AcDbCircle
 10
613.4930528373216
 20
318.5642345541128
 30
0.0000000000005163
 40
5.3
100
AcDbArc
 50
350.0636329999998
 51
0.0
  0
ARC
  5
329
330
1F
100
AcDbEntity
  8
OBRYS
  6
CONTINUOUS
100
AcDbCircle
 10
-623.3430528373216
 20
316.8386905541129
 30
-0.0000000000005163
 40
4.699999999999999
210
0.0
220
0.0
230
-1.0
100
AcDbArc
 50
0.0
 51
9.936366999999722
  0
ARC
  5
32A
330
1F
100
AcDbEntity
  8
OBRYS
  6
CONTINUOUS
100
AcDbCircle
 10
-603.1430528373216
 20
316.8386905541129
 30
-0.0000000000005163
 40
4.699999999999999
210
0.0
220
0.0
230
-1.0
100
AcDbArc
 50
170.063633
 51
180.0
  0
LINE
  5
32B
330
1F
100
AcDbEntity
  8
OBRYS
100
AcDbLine
 10
619.7430528373216
 20
203.7551165541128
 30
0.0000000000005163
 11
606.7430528373216
 21
203.7551165541128
 31
0.0000000000005163
  0
LINE
  5
32C
330
1F
100
AcDbEntity
  8
OBRYS
100
AcDbLine
 10
600.6930528373216
 20
217.4051165541129
 30
0.0000000000005163
 11
625.7930528373216
 21
217.4051165541129
 31
0.0000000000005163
  0
LINE
  5
32D
330
1F
100
AcDbEntity
  8
OBRYS
100
AcDbLine
 10
617.2430528373216
 20
177.3551165541128
 30
0.0000000000005163
 11
609.2430528373216
 21
177.3551165541128
 31
0.0000000000005163
  0
LINE
  5
32E
330
1F
100
AcDbEntity
  8
OBRYS
100
AcDbLine
 10
609.2430528373216
 20
177.3551165541128
 30
0.0000000000005163
 11
609.8430528373217
 21
176.7551165541128
 31
0.0000000000005163
  0
LINE
  5
32F
330
1F
100
AcDbEntity
  8
OBRYS
100
AcDbLine
 10
609.8430528373217
 20
176.7551165541128
 30
0.0000000000005163
 11
616.6430528373216
 21
176.7551165541128
 31
0.0000000000005163
  0
LINE
  5
330
330
1F
100
AcDbEntity
  8
OBRYS
100
AcDbLine
 10
606.7430528373216
 20
210.7551165541128
 30
0.0000000000005163
 11
606.7430528373216
 21
203.7551165541128
 31
0.0000000000005163
  0
LINE
  5
331
330
1F
100
AcDbEntity
  8
OBRYS
100
AcDbLine
 10
619.7430528373216
 20
203.7551165541128
 30
0.0000000000005163
 11
619.7430528373216
 21
210.7551165541128
 31
0.0000000000005163
  0
LINE
  5
332
330
1F
100
AcDbEntity
  8
OBRYS
100
AcDbLine
 10
613.5309133373216
 20
186.5886465541128
 30
0.0000000000005163
 11
613.5309133373216
 21
181.0215865541128
 31
0.0000000000005163
  0
LINE
  5
333
330
1F
100
AcDbEntity
  8
OBRYS
100
AcDbLine
 10
619.7430528373216
 20
198.7551165541128
 30
0.0000000000005163
 11
619.7430528373216
 21
192.2551165541128
 31
0.0000000000005163
  0
LINE
  5
334
330
1F
100
AcDbEntity
  8
OBRYS
100
AcDbLine
 10
619.8930528373216
 20
213.8919690541128
 30
0.0000000000005163
 11
619.8930528373216
 21
215.7051165541129
 31
0.0000000000005163
  0
LINE
  5
335
330
1F
100
AcDbEntity
  8
OBRYS
100
AcDbLine
 10
609.2430528373216
 20
203.3551165541128
 30
0.0000000000005163
 11
609.2430528373216
 21
198.7547415541129
 31
0.0000000000005163
  0
LINE
  5
336
330
1F
100
AcDbEntity
  8
OBRYS
100
AcDbLine
 10
609.2430528373216
 20
180.5551480541129
 30
0.0000000000005163
 11
609.2430528373216
 21
177.3551165541128
 31
0.0000000000005163
  0
LINE
  5
337
330
1F
100
AcDbEntity
  8
OBRYS
100
AcDbLine
 10
606.7430528373216
 20
192.2551165541128
 30
0.0000000000005163
 11
606.7430528373216
 21
198.7551165541128
 31
0.0000000000005163
  0
LINE
  5
338
330
1F
100
AcDbEntity
  8
OBRYS
100
AcDbLine
 10
620.7430528373216
 20
215.7051165541129
 30
0.0000000000005163
 11
620.7430528373216
 21
213.2046175541128
 31
0.0000000000005163
  0
LINE
  5
339
330
1F
100
AcDbEntity
  8
OBRYS
100
AcDbLine
 10
605.8430528373217
 20
188.8551165541128
 30
0.0000000000005163
 11
605.8430528373217
 21
187.2551165541128
 31
0.0000000000005163
  0
LINE
  5
33A
330
1F
100
AcDbEntity
  8
OBRYS
100
AcDbLine
 10
619.7430528373216
 20
187.0551165541128
 30
0.0000000000005163
 11
619.7430528373216
 21
180.5551165541128
 31
0.0000000000005163
  0
LINE
  5
33B
330
1F
100
AcDbEntity
  8
OBRYS
100
AcDbLine
 10
613.5309133373216
 20
198.2886465541129
 30
0.0000000000005163
 11
613.5309133373216
 21
192.7215865541128
 31
0.0000000000005163
  0
LINE
  5
33C
330
1F
100
AcDbEntity
  8
OBRYS
100
AcDbLine
 10
621.2430528373216
 20
189.0551165541128
 30
0.0000000000005163
 11
621.2430528373216
 21
192.2551165541128
 31
0.0000000000005163
  0
LINE
  5
33D
330
1F
100
AcDbEntity
  8
OBRYS
100
AcDbLine
 10
612.9551918373215
 20
181.0215865541128
 30
0.0000000000005163
 11
612.9551918373215
 21
186.5886465541128
 31
0.0000000000005163
  0
LINE
  5
33E
330
1F
100
AcDbEntity
  8
OBRYS
100
AcDbLine
 10
616.6430528373216
 20
176.7551165541128
 30
0.0000000000005163
 11
617.2430528373216
 21
177.3551165541128
 31
0.0000000000005163
  0
LINE
  5
33F
330
1F
100
AcDbEntity
  8
OBRYS
100
AcDbLine
 10
605.7430528373217
 20
213.2046070376733
 30
0.0000000000005163
 11
605.7430528373216
 21
215.7051165541129
 31
0.0000000000005163
  0
LINE
  5
340
330
1F
100
AcDbEntity
  8
OBRYS
100
AcDbLine
 10
605.2430528373216
 20
192.2551165541128
 30
0.0000000000005163
 11
605.2430528373216
 21
189.0551165541128
 31
0.0000000000005163
  0
LINE
  5
341
330
1F
100
AcDbEntity
  8
OBRYS
100
AcDbLine
 10
606.7430528349777
 20
180.5551166194353
 30
0.0000000000005097
 11
606.7430525965028
 21
187.0551165541128
 31
0.0000000000005163
  0
LINE
  5
342
330
1F
100
AcDbEntity
  8
OBRYS
100
AcDbLine
 10
619.4551918373215
 20
192.7215865541128
 30
0.0000000000005163
 11
619.4551918373215
 21
198.2886465541129
 31
0.0000000000005163
  0
LINE
  5
343
330
1F
100
AcDbEntity
  8
OBRYS
100
AcDbLine
 10
619.4551918373215
 20
181.0215865541128
 30
0.0000000000005163
 11
619.4551918373215
 21
186.5886465541128
 31
0.0000000000005163
  0
LINE
  5
344
330
1F
100
AcDbEntity
  8
OBRYS
100
AcDbLine
 10
607.0309133373216
 20
198.2886465541129
 30
0.0000000000005163
 11
607.0309133373216
 21
192.7215865541128
 31
0.0000000000005163
  0
LINE
  5
345
330
1F
100
AcDbEntity
  8
OBRYS
100
AcDbLine
 10
617.2430528373216
 20
177.3551165541128
 30
0.0000000000005163
 11
617.2430528373216
 21
180.5551480541129
 31
0.0000000000005163
  0
LINE
  5
346
330
1F
100
AcDbEntity
  8
OBRYS
100
AcDbLine
 10
617.2430528373216
 20
198.7547415541129
 30
0.0000000000005163
 11
617.2430528373216
 21
203.3551165541128
 31
0.0000000000005163
  0
LINE
  5
347
330
1F
100
AcDbEntity
  8
OBRYS
100
AcDbLine
 10
612.9551918373215
 20
192.7215865541128
 30
0.0000000000005163
 11
612.9551918373215
 21
198.2886465541129
 31
0.0000000000005163
  0
LINE
  5
348
330
1F
100
AcDbEntity
  8
OBRYS
100
AcDbLine
 10
614.0930528373217
 20
215.7051165541129
 30
0.0000000000005163
 11
614.0930528373217
 21
213.8919690541128
 31
0.0000000000005163
  0
LINE
  5
349
330
1F
100
AcDbEntity
  8
OBRYS
100
AcDbLine
 10
620.6430528373216
 20
187.2551165541128
 30
0.0000000000005163
 11
620.6430528373216
 21
188.8551165541128
 31
0.0000000000005163
  0
LINE
  5
34A
330
1F
100
AcDbEntity
  8
OBRYS
100
AcDbLine
 10
606.5930528373217
 20
215.7051165541129
 30
0.0000000000005163
 11
606.6358274807847
 21
212.5730601353079
 31
0.0000000000005099
  0
LINE
  5
34B
330
1F
100
AcDbEntity
  8
OBRYS
100
AcDbLine
 10
607.0309133373216
 20
186.5886465541128
 30
0.0000000000005163
 11
607.0309133373216
 21
181.0215865541128
 31
0.0000000000005163
  0
LINE
  5
34C
330
1F
100
AcDbEntity
  8
OBRYS
100
AcDbLine
 10
612.3930528373216
 20
213.8919690541128
 30
0.0000000000005163
 11
612.3930528373216
 21
215.7051165541129
 31
0.0000000000005163
  0
LINE
  5
34D
330
1F
100
AcDbEntity
  8
OBRYS
100
AcDbLine
 10
620.7430528373216
 20
215.7051165541129
 30
0.0000000000005163
 11
605.7430528373216
 21
215.7051165541129
 31
0.0000000000005163
  0
LINE
  5
34E
330
1F
100
AcDbEntity
  8
OBRYS
100
AcDbLine
 10
609.7975528373216
 20
176.8006715541129
 30
0.0000000000005163
 11
609.7975528373216
 21
180.5555750541129
 31
0.0000000000005163
  0
LINE
  5
34F
330
1F
100
AcDbEntity
  8
OBRYS
100
AcDbLine
 10
609.7975528373216
 20
198.7542675541129
 30
0.0000000000005163
 11
609.7975528373216
 21
201.2551165541128
 31
0.0000000000005163
  0
LINE
  5
350
330
1F
100
AcDbEntity
  8
OBRYS
100
AcDbLine
 10
609.7975528373216
 20
201.2551165541128
 30
0.0000000000005163
 11
609.2430528373216
 21
203.1759610541129
 31
0.0000000000005163
  0
LINE
  5
351
330
1F
100
AcDbEntity
  8
OBRYS
100
AcDbLine
 10
616.6885528373216
 20
176.8006715541129
 30
0.0000000000005163
 11
616.6885528373216
 21
180.5555750541129
 31
0.0000000000005163
  0
LINE
  5
352
330
1F
100
AcDbEntity
  8
OBRYS
100
AcDbLine
 10
616.6885528373216
 20
198.7542675541129
 30
0.0000000000005163
 11
616.6885528373216
 21
201.2551165541128
 31
0.0000000000005163
  0
LINE
  5
353
330
1F
100
AcDbEntity
  8
OBRYS
100
AcDbLine
 10
616.6885528373216
 20
201.2551165541128
 30
0.0000000000005163
 11
617.2430528373216
 21
203.1759610541129
 31
0.0000000000005163
  0
LINE
  5
354
330
1F
100
AcDbEntity
  8
OBRYS
100
AcDbLine
 10
617.2430528373216
 20
201.2551165541128
 30
0.0000000000005163
 11
609.2430528373216
 21
201.2551165541128
 31
0.0000000000005163
  0
LINE
  5
355
330
1F
100
AcDbEntity
  8
OBRYS
100
AcDbLine
 10
619.7430528373216
 20
181.0215865541128
 30
0.0000000000005163
 11
619.4551918373215
 21
181.0215865541128
 31
0.0000000000005163
  0
LINE
  5
356
330
1F
100
AcDbEntity
  8
OBRYS
100
AcDbLine
 10
605.2430528373216
 20
192.2551165541128
 30
0.0000000000005163
 11
621.2430528373216
 21
192.2551165541128
 31
0.0000000000005163
  0
LINE
  5
357
330
1F
100
AcDbEntity
  8
OBRYS
100
AcDbLine
 10
612.9551918373215
 20
192.7215865541128
 30
0.0000000000005163
 11
613.5309133373216
 21
192.7215865541128
 31
0.0000000000005163
  0
LINE
  5
358
330
1F
100
AcDbEntity
  8
OBRYS
100
AcDbLine
 10
609.2430528373216
 20
203.3551165541128
 30
0.0000000000005163
 11
617.2430528373216
 21
203.3551165541128
 31
0.0000000000005163
  0
LINE
  5
359
330
1F
100
AcDbEntity
  8
OBRYS
100
AcDbLine
 10
607.0309133373216
 20
198.2886465541129
 30
0.0000000000005163
 11
606.7430528373216
 21
198.2886465541129
 31
0.0000000000005163
  0
LINE
  5
35A
330
1F
100
AcDbEntity
  8
OBRYS
100
AcDbLine
 10
606.0430528373216
 20
187.0551165541128
 30
0.0000000000005163
 11
620.4430528373216
 21
187.0551165541128
 31
0.0000000000005163
  0
LINE
  5
35B
330
1F
100
AcDbEntity
  8
OBRYS
100
AcDbLine
 10
621.2430528373216
 20
190.6551165541129
 30
0.0000000000005163
 11
605.2430528373216
 21
190.6551165541129
 31
0.0000000000005163
  0
LINE
  5
35C
330
1F
100
AcDbEntity
  8
OBRYS
100
AcDbLine
 10
605.7430528373216
 20
213.8919690541128
 30
0.0000000000005163
 11
606.6178104612901
 21
213.8923071701608
 31
0.0000000000005126
  0
LINE
  5
35D
330
1F
100
AcDbEntity
  8
OBRYS
100
AcDbLine
 10
620.6430528373216
 20
187.2551165541128
 30
0.0000000000005163
 11
605.8430528373217
 21
187.2551165541128
 31
0.0000000000005163
  0
LINE
  5
35E
330
1F
100
AcDbEntity
  8
OBRYS
100
AcDbLine
 10
606.7430528373216
 20
181.0215865541128
 30
0.0000000000005163
 11
607.0309133373216
 21
181.0215865541128
 31
0.0000000000005163
  0
LINE
  5
35F
330
1F
100
AcDbEntity
  8
OBRYS
100
AcDbLine
 10
599.9930528373216
 20
218.1051165541128
 30
0.0000000000005163
 11
626.4930528373216
 21
218.1051165541128
 31
0.0000000000005163
  0
LINE
  5
360
330
1F
100
AcDbEntity
  8
OBRYS
100
AcDbLine
 10
619.7430528373216
 20
186.5886465541128
 30
0.0000000000005163
 11
619.4551918373215
 21
186.5886465541128
 31
0.0000000000005163
  0
LINE
  5
361
330
1F
100
AcDbEntity
  8
OBRYS
100
AcDbLine
 10
621.2430528373216
 20
189.0551165541128
 30
0.0000000000005163
 11
605.2430528373216
 21
189.0551165541128
 31
0.0000000000005163
  0
LINE
  5
362
330
1F
100
AcDbEntity
  8
OBRYS
100
AcDbLine
 10
619.7430528373216
 20
210.7551165541128
 30
0.0000000000005163
 11
606.7430528373216
 21
210.7551165541128
 31
0.0000000000005163
  0
LINE
  5
363
330
1F
100
AcDbEntity
  8
OBRYS
100
AcDbLine
 10
605.8430528373217
 20
188.8551165541128
 30
0.0000000000005163
 11
620.6430528373216
 21
188.8551165541128
 31
0.0000000000005163
  0
LINE
  5
364
330
1F
100
AcDbEntity
  8
OBRYS
100
AcDbLine
 10
612.9551918373215
 20
181.0215865541128
 30
0.0000000000005163
 11
613.5309133373216
 21
181.0215865541128
 31
0.0000000000005163
  0
LINE
  5
365
330
1F
100
AcDbEntity
  8
OBRYS
100
AcDbLine
 10
613.5309133373216
 20
198.2886465541129
 30
0.0000000000005163
 11
612.9551918373215
 21
198.2886465541129
 31
0.0000000000005163
  0
LINE
  5
366
330
1F
100
AcDbEntity
  8
OBRYS
100
AcDbLine
 10
606.7430525965028
 20
180.5551166194353
 30
0.0000000000005097
 11
619.7430528373216
 21
180.5551165541128
 31
0.0000000000005163
  0
LINE
  5
367
330
1F
100
AcDbEntity
  8
OBRYS
100
AcDbLine
 10
613.5309133373216
 20
186.5886465541128
 30
0.0000000000005163
 11
612.9551918373215
 21
186.5886465541128
 31
0.0000000000005163
  0
LINE
  5
368
330
1F
100
AcDbEntity
  8
OBRYS
100
AcDbLine
 10
619.7430528373216
 20
198.2886465541129
 30
0.0000000000005163
 11
619.4551918373215
 21
198.2886465541129
 31
0.0000000000005163
  0
LINE
  5
369
330
1F
100
AcDbEntity
  8
OBRYS
100
AcDbLine
 10
619.7430528373216
 20
192.7215865541128
 30
0.0000000000005163
 11
619.4551918373215
 21
192.7215865541128
 31
0.0000000000005163
  0
LINE
  5
36A
330
1F
100
AcDbEntity
  8
OBRYS
100
AcDbLine
 10
619.8930528373216
 20
213.8919690541128
 30
0.0000000000005163
 11
620.7430528373216
 21
213.8919690541128
 31
0.0000000000005163
  0
LINE
  5
36B
330
1F
100
AcDbEntity
  8
OBRYS
100
AcDbLine
 10
612.3930528373216
 20
213.8919690541128
 30
0.0000000000005163
 11
614.0930528373217
 21
213.8919690541128
 31
0.0000000000005163
  0
LINE
  5
36C
330
1F
100
AcDbEntity
  8
OBRYS
100
AcDbLine
 10
619.7430528373216
 20
198.7551165541128
 30
0.0000000000005163
 11
606.7430528373216
 21
198.7551165541128
 31
0.0000000000005163
  0
LINE
  5
36D
330
1F
100
AcDbEntity
  8
OBRYS
100
AcDbLine
 10
606.7430528373216
 20
192.7215865541128
 30
0.0000000000005163
 11
607.0309133373216
 21
192.7215865541128
 31
0.0000000000005163
  0
LINE
  5
36E
330
1F
100
AcDbEntity
  8
OBRYS
100
AcDbLine
 10
607.0309133373216
 20
186.5886465541128
 30
0.0000000000005163
 11
606.7430528373216
 21
186.5886465541128
 31
0.0000000000005163
  0
LINE
  5
36F
330
1F
100
AcDbEntity
  8
OBRYS
100
AcDbLine
 10
620.1716238373216
 20
211.8048980541128
 30
0.0000000000005163
 11
620.1716148373216
 21
211.8049025541129
 31
0.0000000000005163
  0
ARC
  5
370
330
1F
100
AcDbEntity
  8
OBRYS
100
AcDbCircle
 10
600.6930528373216
 20
218.1051165541128
 30
0.0000000000005163
 40
0.7
100
AcDbArc
 50
180.0
 51
270.0
  0
ARC
  5
371
330
1F
100
AcDbEntity
  8
OBRYS
100
AcDbCircle
 10
-617.6430528373216
 20
203.3551165541128
 30
-0.0000000000005163
 40
0.4
210
0.0
220
0.0
230
-1.0
100
AcDbArc
 50
0.0
 51
90.0
  0
ARC
  5
372
330
1F
100
AcDbEntity
  8
OBRYS
100
AcDbCircle
 10
-608.8430528373217
 20
203.3551165541128
 30
-0.0000000000005163
 40
0.4
210
0.0
220
0.0
230
-1.0
100
AcDbArc
 50
90.0
 51
180.0
  0
ARC
  5
373
330
1F
100
AcDbEntity
  8
OBRYS
100
AcDbCircle
 10
-604.0430528373216
 20
215.7051165541129
 30
-0.0000000000005163
 40
1.7
210
0.0
220
0.0
230
-1.0
100
AcDbArc
 50
90.0
 51
180.0
  0
ARC
  5
374
330
1F
100
AcDbEntity
  8
OBRYS
100
AcDbCircle
 10
-605.2430528373216
 20
210.7551165541128
 30
-0.0000000000005163
 40
1.499999999999972
210
0.0
220
0.0
230
-1.0
100
AcDbArc
 50
135.6148670000007
 51
180.0
  0
ARC
  5
375
330
1F
100
AcDbEntity
  8
OBRYS
100
AcDbCircle
 10
606.0430528373216
 20
187.2551165541128
 30
0.0000000000005163
 40
0.2
100
AcDbArc
 50
180.0
 51
270.0
  0
ARC
  5
376
330
1F
100
AcDbEntity
  8
OBRYS
100
AcDbCircle
 10
-621.2430528373216
 20
210.7551165541128
 30
-0.0000000000005163
 40
1.499999999999972
210
0.0
220
0.0
230
-1.0
100
AcDbArc
 50
0.0
 51
44.38426099999981
  0
ARC
  5
377
330
1F
100
AcDbEntity
  8
OBRYS
100
AcDbCircle
 10
625.7930528373216
 20
218.1051165541128
 30
0.0000000000005163
 40
0.7
100
AcDbArc
 50
270.0
 51
0.0
  0
ARC
  5
378
330
1F
100
AcDbEntity
  8
OBRYS
100
AcDbCircle
 10
620.4430528373216
 20
188.8551165541128
 30
0.0000000000005163
 40
0.2
100
AcDbArc
 50
0.0
 51
90.0
  0
ARC
  5
379
330
1F
100
AcDbEntity
  8
OBRYS
100
AcDbCircle
 10
620.4430528373216
 20
187.2551165541128
 30
0.0000000000005163
 40
0.2
100
AcDbArc
 50
270.0
 51
0.0
  0
ARC
  5
37A
330
1F
100
AcDbEntity
  8
OBRYS
100
AcDbCircle
 10
606.0430528373216
 20
188.8551165541128
 30
0.0000000000005163
 40
0.2
100
AcDbArc
 50
90.0
 51
180.0
  0
ARC
  5
37B
330
1F
100
AcDbEntity
  8
OBRYS
100
AcDbCircle
 10
-622.4430528373216
 20
215.7051165541129
 30
-0.0000000000005163
 40
1.7
210
0.0
220
0.0
230
-1.0
100
AcDbArc
 50
0.0
 51
90.0
  0
ELLIPSE
  5
37C
330
1F
100
AcDbEntity
  8
OBRYS
100
AcDbEllipse
 10
605.7430528373216
 20
215.7051165541129
 30
0.0000000000005163
 11
0.0
 21
1.7
 31
0.0
210
0.0
220
0.0
230
1.0
 40
0.5
 41
4.71238898038469
 42
6.283185307179586
  0
ELLIPSE
  5
37D
330
1F
100
AcDbEntity
  8
OBRYS
100
AcDbEllipse
 10
618.7430528373216
 20
213.2046175541128
 30
0.0000000000005163
 11
2.0
 21
0.0
 31
0.0
210
0.0
220
0.0
230
1.0
 40
0.999998
 41
5.507206575526
 42
6.283189385697062
  0
ELLIPSE
  5
37E
330
1F
100
AcDbEntity
  8
OBRYS
100
AcDbEllipse
 10
611.5430528373216
 20
215.7051165541129
 30
0.0000000000005163
 11
0.0
 21
-1.7
 31
0.0
210
0.0
220
0.0
230
1.0
 40
0.5
 41
1.570796326794897
 42
3.141592653589793
  0
ELLIPSE
  5
37F
330
1F
100
AcDbEntity
  8
OBRYS
100
AcDbEllipse
 10
614.9430528373216
 20
215.7051165541129
 30
0.0000000000005163
 11
0.0
 21
1.7
 31
0.0
210
0.0
220
0.0
230
1.0
 40
0.5
 41
0.0
 42
1.570796326794897
  0
ELLIPSE
  5
380
330
1F
100
AcDbEntity
  8
OBRYS
100
AcDbEllipse
 10
607.7430528373216
 20
213.2046065541128
 30
0.0000000000005163
 11
2.0
 21
0.0
 31
0.0
210
0.0
220
0.0
230
1.0
 40
1.0
 41
3.141592411810501
 42
3.917537124681715
  0
ELLIPSE
  5
381
330
1F
100
AcDbEntity
  8
OBRYS
100
AcDbEllipse
 10
620.7430528373216
 20
215.7051165541129
 30
0.0000000000005163
 11
0.0
 21
-1.7
 31
0.0
210
0.0
220
0.0
230
1.0
 40
0.5
 41
3.141592653589793
 42
4.71238898038469
  0
LINE
  5
382
330
1F
100
AcDbEntity
  8
OBRYS
100
AcDbLine
 10
607.0309133373216
 20
181.0215865541128
 30
0.0000000000005163
 11
609.3911663723085
 21
180.5551166194353
 31
0.0000000000005208
  0
LINE
  5
383
330
1F
100
AcDbEntity
  8
OBRYS
100
AcDbLine
 10
612.9551918373215
 20
181.0215865541128
 30
0.0000000000005163
 11
610.5949388206973
 21
180.5551166194353
 31
0.0000000000005194
  0
LINE
  5
384
330
1F
100
AcDbEntity
  8
OBRYS
100
AcDbLine
 10
613.5309133373216
 20
181.0215865541128
 30
0.0000000000005163
 11
615.8911663723085
 21
180.5551166194353
 31
0.0000000000005132
  0
LINE
  5
385
330
1F
100
AcDbEntity
  8
OBRYS
100
AcDbLine
 10
619.4551918373215
 20
181.0215865541128
 30
0.0000000000005163
 11
617.0949388206973
 21
180.5551166194353
 31
0.0000000000005118
  0
LINE
  5
386
330
1F
100
AcDbEntity
  8
OBRYS
100
AcDbLine
 10
609.3911654502896
 20
187.0551165541128
 30
0.0000000000005163
 11
607.0309133373216
 21
186.5886465541128
 31
0.0000000000005163
  0
LINE
  5
387
330
1F
100
AcDbEntity
  8
OBRYS
100
AcDbLine
 10
610.5949397427162
 20
187.0551165541128
 30
0.0000000000005163
 11
612.9551918373215
 21
186.5886465541128
 31
0.0000000000005163
  0
LINE
  5
388
330
1F
100
AcDbEntity
  8
OBRYS
100
AcDbLine
 10
615.8911654502896
 20
187.0551165541128
 30
0.0000000000005163
 11
613.5309133373216
 21
186.5886465541128
 31
0.0000000000005163
  0
LINE
  5
389
330
1F
100
AcDbEntity
  8
OBRYS
100
AcDbLine
 10
617.0949397427162
 20
187.0551165541128
 30
0.0000000000005163
 11
619.4551918373215
 21
186.5886465541128
 31
0.0000000000005163
  0
LINE
  5
38A
330
1F
100
AcDbEntity
  8
OBRYS
100
AcDbLine
 10
609.3911663723086
 20
192.2551166194353
 30
0.0000000000005208
 11
607.0309133373216
 21
192.7215865541128
 31
0.0000000000005163
  0
LINE
  5
38B
330
1F
100
AcDbEntity
  8
OBRYS
100
AcDbLine
 10
610.5949388206973
 20
192.2551166194353
 30
0.0000000000005194
 11
612.9551918373215
 21
192.7215865541128
 31
0.0000000000005163
  0
LINE
  5
38C
330
1F
100
AcDbEntity
  8
OBRYS
100
AcDbLine
 10
613.5309133373216
 20
192.7215865541128
 30
0.0000000000005163
 11
615.8911663723086
 21
192.2551166194353
 31
0.0000000000005132
  0
LINE
  5
38D
330
1F
100
AcDbEntity
  8
OBRYS
100
AcDbLine
 10
617.0949388206973
 20
192.2551166194353
 30
0.0000000000005118
 11
619.4551918373215
 21
192.7215865541128
 31
0.0000000000005163
  0
LINE
  5
38E
330
1F
100
AcDbEntity
  8
OBRYS
100
AcDbLine
 10
609.3911654502895
 20
198.7551165541128
 30
0.0000000000005163
 11
607.0309133373216
 21
198.2886465541129
 31
0.0000000000005163
  0
LINE
  5
38F
330
1F
100
AcDbEntity
  8
OBRYS
100
AcDbLine
 10
610.5949388206992
 20
198.7551166194635
 30
0.0000000000005194
 11
612.9551918373215
 21
198.2886465541129
 31
0.0000000000005163
  0
LINE
  5
390
330
1F
100
AcDbEntity
  8
OBRYS
100
AcDbLine
 10
613.5309133373216
 20
198.2886465541129
 30
0.0000000000005163
 11
615.8911654502895
 21
198.7551165541128
 31
0.0000000000005163
  0
LINE
  5
391
330
1F
100
AcDbEntity
  8
OBRYS
100
AcDbLine
 10
617.0949388206991
 20
198.7551166194635
 30
0.0000000000005118
 11
619.4551918373215
 21
198.2886465541129
 31
0.0000000000005163
  0
ARC
  5
392
330
1F
100
AcDbEntity
  8
OBRYS
100
AcDbCircle
 10
609.5057665320667
 20
219.6121538372345
 30
0.0000000000004622
 40
6.407568662259437
100
AcDbArc
 50
243.2107460540356
 51
296.782545094197
  0
ARC
  5
393
330
1F
100
AcDbEntity
  8
OBRYS
100
AcDbCircle
 10
616.9930527836256
 20
219.6658832378053
 30
0.0000000000005831
 40
6.461275778761332
100
AcDbArc
 50
243.3315007911521
 51
296.6684978848272
  0
ARC
  5
394
330
1F
100
AcDbEntity
  8
OBRYS
100
AcDbCircle
 10
610.3770476143902
 20
214.7113120305408
 30
0.0000000000019088
 40
3.891969973333687
100
AcDbArc
 50
317.4247395123882
 51
347.2515564305559
  0
ARC
  5
395
330
1F
100
AcDbEntity
  8
OBRYS
100
AcDbCircle
 10
616.1090426463346
 20
214.7113024183257
 30
0.0000000000154724
 40
3.891952474155374
100
AcDbArc
 50
192.7509626116315
 51
222.5753050088322
  0
ARC
  5
396
330
1F
100
AcDbEntity
  8
OBRYS
100
AcDbCircle
 10
610.08499453071
 20
230.0028803352482
 30
0.0
 40
18.20078654897358
100
AcDbArc
 50
260.0079124766234
 51
279.9920875233762
  0
ARC
  5
397
330
1F
100
AcDbEntity
  8
OBRYS
100
AcDbCircle
 10
616.4011106622715
 20
230.0333852494659
 30
0.0000000004543359
 40
18.23082952459953
100
AcDbArc
 50
260.0245472149006
 51
279.9754527852249
  0
LINE
  5
398
330
1F
100
AcDbEntity
  8
OBRYS
100
AcDbLine
 10
619.5591687280889
 20
212.0781683360467
 30
0.0000000004543359
 11
620.1705245527542
 21
211.8037904226117
 31
0.0000000000005163
  0
LINE
  5
399
330
1F
100
AcDbEntity
  8
OBRYS
100
AcDbLine
 10
606.9269364649207
 20
212.0781683360398
 30
0.0000000000005095
 11
606.3144814476077
 21
211.8048980900065
 31
0.0000000000005163
  0
LINE
  5
39A
330
1F
100
AcDbEntity
  8
OBRYS
100
AcDbLine
 10
606.6358274807847
 20
212.5730601353079
 30
0.0000000000005099
 11
606.9269364649207
 21
212.0781683360398
 31
0.0000000000005095
  0
LINE
  5
39B
330
1F
100
AcDbEntity
  8
OBRYS
100
AcDbLine
 10
619.8502777122167
 20
212.5730601352961
 30
0.0000000000005228
 11
619.5591687280889
 21
212.0781683360467
 31
0.0000000004543359
  0
LINE
  5
39C
330
1F
100
AcDbEntity
  8
OBRYS
100
AcDbLine
 10
619.8930528373216
 20
213.8919690541128
 30
0.0000000000005163
 11
619.8502777122167
 21
212.5730601352961
 31
0.0000000000005228
  0
LINE
  5
39D
330
1F
100
AcDbEntity
  8
OBRYS
100
AcDbLine
 10
663.0068828373217
 20
203.7551165541128
 30
0.0000000000005163
 11
650.0068828373217
 21
203.7551165541128
 31
0.0000000000005163
  0
LINE
  5
39E
330
1F
100
AcDbEntity
  8
OBRYS
100
AcDbLine
 10
643.9568828373216
 20
217.4051165541129
 30
0.0000000000005163
 11
669.0568828373216
 21
217.4051165541129
 31
0.0000000000005163
  0
LINE
  5
39F
330
1F
100
AcDbEntity
  8
OBRYS
100
AcDbLine
 10
660.5068828373217
 20
177.3551165541128
 30
0.0000000000005163
 11
652.5068828373217
 21
177.3551165541128
 31
0.0000000000005163
  0
LINE
  5
3A0
330
1F
100
AcDbEntity
  8
OBRYS
100
AcDbLine
 10
652.5068828373217
 20
177.3551165541128
 30
0.0000000000005163
 11
653.1068828373216
 21
176.7551165541128
 31
0.0000000000005163
  0
LINE
  5
3A1
330
1F
100
AcDbEntity
  8
OBRYS
100
AcDbLine
 10
653.1068828373216
 20
176.7551165541128
 30
0.0000000000005163
 11
659.9068828373215
 21
176.7551165541128
 31
0.0000000000005163
  0
LINE
  5
3A2
330
1F
100
AcDbEntity
  8
OBRYS
100
AcDbLine
 10
650.0068828373217
 20
210.7551165541128
 30
0.0000000000005163
 11
650.0068828373217
 21
203.7551165541128
 31
0.0000000000005163
  0
LINE
  5
3A3
330
1F
100
AcDbEntity
  8
OBRYS
100
AcDbLine
 10
663.0068828373217
 20
203.7551165541128
 30
0.0000000000005163
 11
663.0068828373217
 21
210.7551165541128
 31
0.0000000000005163
  0
LINE
  5
3A4
330
1F
100
AcDbEntity
  8
OBRYS
100
AcDbLine
 10
656.7947433373216
 20
186.5886465541128
 30
0.0000000000005163
 11
656.7947433373216
 21
181.0215865541128
 31
0.0000000000005163
  0
LINE
  5
3A5
330
1F
100
AcDbEntity
  8
OBRYS
100
AcDbLine
 10
663.0068828373217
 20
198.7551165541128
 30
0.0000000000005163
 11
663.0068828373217
 21
192.2551165541128
 31
0.0000000000005163
  0
LINE
  5
3A6
330
1F
100
AcDbEntity
  8
OBRYS
100
AcDbLine
 10
663.1568828373215
 20
213.8919690541128
 30
0.0000000000005163
 11
663.1568828373215
 21
215.7051165541129
 31
0.0000000000005163
  0
LINE
  5
3A7
330
1F
100
AcDbEntity
  8
OBRYS
100
AcDbLine
 10
652.5068828373217
 20
203.3551165541128
 30
0.0000000000005163
 11
652.5068828373217
 21
198.7547415541129
 31
0.0000000000005163
  0
LINE
  5
3A8
330
1F
100
AcDbEntity
  8
OBRYS
100
AcDbLine
 10
652.5068828373217
 20
180.5551480541129
 30
0.0000000000005163
 11
652.5068828373217
 21
177.3551165541128
 31
0.0000000000005163
  0
LINE
  5
3A9
330
1F
100
AcDbEntity
  8
OBRYS
100
AcDbLine
 10
650.0068828373217
 20
192.2551165541128
 30
0.0000000000005163
 11
650.0068828373217
 21
198.7551165541128
 31
0.0000000000005163
  0
LINE
  5
3AA
330
1F
100
AcDbEntity
  8
OBRYS
100
AcDbLine
 10
664.0068828373217
 20
215.7051165541129
 30
0.0000000000005163
 11
664.0068828373217
 21
213.2046175541128
 31
0.0000000000005163
  0
LINE
  5
3AB
330
1F
100
AcDbEntity
  8
OBRYS
100
AcDbLine
 10
649.1068828373216
 20
188.8551165541128
 30
0.0000000000005163
 11
649.1068828373216
 21
187.2551165541128
 31
0.0000000000005163
  0
LINE
  5
3AC
330
1F
100
AcDbEntity
  8
OBRYS
100
AcDbLine
 10
663.0068828373217
 20
187.0551165541128
 30
0.0000000000005163
 11
663.0068828373217
 21
180.5551165541128
 31
0.0000000000005163
  0
LINE
  5
3AD
330
1F
100
AcDbEntity
  8
OBRYS
100
AcDbLine
 10
656.7947433373216
 20
198.2886465541129
 30
0.0000000000005163
 11
656.7947433373216
 21
192.7215865541128
 31
0.0000000000005163
  0
LINE
  5
3AE
330
1F
100
AcDbEntity
  8
OBRYS
100
AcDbLine
 10
664.5068828373217
 20
189.0551165541128
 30
0.0000000000005163
 11
664.5068828373217
 21
192.2551165541128
 31
0.0000000000005163
  0
LINE
  5
3AF
330
1F
100
AcDbEntity
  8
OBRYS
100
AcDbLine
 10
656.2190218373216
 20
181.0215865541128
 30
0.0000000000005163
 11
656.2190218373216
 21
186.5886465541128
 31
0.0000000000005163
  0
LINE
  5
3B0
330
1F
100
AcDbEntity
  8
OBRYS
100
AcDbLine
 10
659.9068828373215
 20
176.7551165541128
 30
0.0000000000005163
 11
660.5068828373217
 21
177.3551165541128
 31
0.0000000000005163
  0
LINE
  5
3B1
330
1F
100
AcDbEntity
  8
OBRYS
100
AcDbLine
 10
649.0068828373217
 20
213.2046070376733
 30
0.0000000000005163
 11
649.0068828373217
 21
215.7051165541129
 31
0.0000000000005163
  0
LINE
  5
3B2
330
1F
100
AcDbEntity
  8
OBRYS
100
AcDbLine
 10
648.5068828373217
 20
192.2551165541128
 30
0.0000000000005163
 11
648.5068828373217
 21
189.0551165541128
 31
0.0000000000005163
  0
LINE
  5
3B3
330
1F
100
AcDbEntity
  8
OBRYS
100
AcDbLine
 10
650.0068828349777
 20
180.5551166194353
 30
0.0000000000005097
 11
650.0068825965028
 21
187.0551165541128
 31
0.0000000000005163
  0
LINE
  5
3B4
330
1F
100
AcDbEntity
  8
OBRYS
100
AcDbLine
 10
662.7190218373216
 20
192.7215865541128
 30
0.0000000000005163
 11
662.7190218373216
 21
198.2886465541129
 31
0.0000000000005163
  0
LINE
  5
3B5
330
1F
100
AcDbEntity
  8
OBRYS
100
AcDbLine
 10
662.7190218373216
 20
181.0215865541128
 30
0.0000000000005163
 11
662.7190218373216
 21
186.5886465541128
 31
0.0000000000005163
  0
LINE
  5
3B6
330
1F
100
AcDbEntity
  8
OBRYS
100
AcDbLine
 10
650.2947433373216
 20
198.2886465541129
 30
0.0000000000005163
 11
650.2947433373216
 21
192.7215865541128
 31
0.0000000000005163
  0
LINE
  5
3B7
330
1F
100
AcDbEntity
  8
OBRYS
100
AcDbLine
 10
660.5068828373217
 20
177.3551165541128
 30
0.0000000000005163
 11
660.5068828373217
 21
180.5551480541129
 31
0.0000000000005163
  0
LINE
  5
3B8
330
1F
100
AcDbEntity
  8
OBRYS
100
AcDbLine
 10
660.5068828373217
 20
198.7547415541129
 30
0.0000000000005163
 11
660.5068828373217
 21
203.3551165541128
 31
0.0000000000005163
  0
LINE
  5
3B9
330
1F
100
AcDbEntity
  8
OBRYS
100
AcDbLine
 10
656.2190218373216
 20
192.7215865541128
 30
0.0000000000005163
 11
656.2190218373216
 21
198.2886465541129
 31
0.0000000000005163
  0
LINE
  5
3BA
330
1F
100
AcDbEntity
  8
OBRYS
100
AcDbLine
 10
657.3568828373216
 20
215.7051165541129
 30
0.0000000000005163
 11
657.3568828373216
 21
213.8919690541128
 31
0.0000000000005163
  0
LINE
  5
3BB
330
1F
100
AcDbEntity
  8
OBRYS
100
AcDbLine
 10
663.9068828373215
 20
187.2551165541128
 30
0.0000000000005163
 11
663.9068828373215
 21
188.8551165541128
 31
0.0000000000005163
  0
LINE
  5
3BC
330
1F
100
AcDbEntity
  8
OBRYS
100
AcDbLine
 10
649.8568828373216
 20
215.7051165541129
 30
0.0000000000005163
 11
649.8996574807845
 21
212.5730601353079
 31
0.0000000000005099
  0
LINE
  5
3BD
330
1F
100
AcDbEntity
  8
OBRYS
100
AcDbLine
 10
650.2947433373216
 20
186.5886465541128
 30
0.0000000000005163
 11
650.2947433373216
 21
181.0215865541128
 31
0.0000000000005163
  0
LINE
  5
3BE
330
1F
100
AcDbEntity
  8
OBRYS
100
AcDbLine
 10
655.6568828373215
 20
213.8919690541128
 30
0.0000000000005163
 11
655.6568828373215
 21
215.7051165541129
 31
0.0000000000005163
  0
LINE
  5
3BF
330
1F
100
AcDbEntity
  8
OBRYS
100
AcDbLine
 10
664.0068828373217
 20
215.7051165541129
 30
0.0000000000005163
 11
649.0068828373217
 21
215.7051165541129
 31
0.0000000000005163
  0
LINE
  5
3C0
330
1F
100
AcDbEntity
  8
OBRYS
100
AcDbLine
 10
653.0613828373216
 20
176.8006715541129
 30
0.0000000000005163
 11
653.0613828373216
 21
180.5555750541129
 31
0.0000000000005163
  0
LINE
  5
3C1
330
1F
100
AcDbEntity
  8
OBRYS
100
AcDbLine
 10
653.0613828373216
 20
198.7542675541129
 30
0.0000000000005163
 11
653.0613828373216
 21
201.2551165541128
 31
0.0000000000005163
  0
LINE
  5
3C2
330
1F
100
AcDbEntity
  8
OBRYS
100
AcDbLine
 10
653.0613828373216
 20
201.2551165541128
 30
0.0000000000005163
 11
652.5068828373217
 21
203.1759610541129
 31
0.0000000000005163
  0
LINE
  5
3C3
330
1F
100
AcDbEntity
  8
OBRYS
100
AcDbLine
 10
659.9523828373216
 20
176.8006715541129
 30
0.0000000000005163
 11
659.9523828373216
 21
180.5555750541129
 31
0.0000000000005163
  0
LINE
  5
3C4
330
1F
100
AcDbEntity
  8
OBRYS
100
AcDbLine
 10
659.9523828373216
 20
198.7542675541129
 30
0.0000000000005163
 11
659.9523828373216
 21
201.2551165541128
 31
0.0000000000005163
  0
LINE
  5
3C5
330
1F
100
AcDbEntity
  8
OBRYS
100
AcDbLine
 10
659.9523828373216
 20
201.2551165541128
 30
0.0000000000005163
 11
660.5068828373217
 21
203.1759610541129
 31
0.0000000000005163
  0
LINE
  5
3C6
330
1F
100
AcDbEntity
  8
OBRYS
100
AcDbLine
 10
660.5068828373217
 20
201.2551165541128
 30
0.0000000000005163
 11
652.5068828373217
 21
201.2551165541128
 31
0.0000000000005163
  0
LINE
  5
3C7
330
1F
100
AcDbEntity
  8
OBRYS
100
AcDbLine
 10
663.0068828373217
 20
181.0215865541128
 30
0.0000000000005163
 11
662.7190218373216
 21
181.0215865541128
 31
0.0000000000005163
  0
LINE
  5
3C8
330
1F
100
AcDbEntity
  8
OBRYS
100
AcDbLine
 10
648.5068828373217
 20
192.2551165541128
 30
0.0000000000005163
 11
664.5068828373217
 21
192.2551165541128
 31
0.0000000000005163
  0
LINE
  5
3C9
330
1F
100
AcDbEntity
  8
OBRYS
100
AcDbLine
 10
656.2190218373216
 20
192.7215865541128
 30
0.0000000000005163
 11
656.7947433373216
 21
192.7215865541128
 31
0.0000000000005163
  0
LINE
  5
3CA
330
1F
100
AcDbEntity
  8
OBRYS
100
AcDbLine
 10
652.5068828373217
 20
203.3551165541128
 30
0.0000000000005163
 11
660.5068828373217
 21
203.3551165541128
 31
0.0000000000005163
  0
LINE
  5
3CB
330
1F
100
AcDbEntity
  8
OBRYS
100
AcDbLine
 10
650.2947433373216
 20
198.2886465541129
 30
0.0000000000005163
 11
650.0068828373217
 21
198.2886465541129
 31
0.0000000000005163
  0
LINE
  5
3CC
330
1F
100
AcDbEntity
  8
OBRYS
100
AcDbLine
 10
649.3068828373216
 20
187.0551165541128
 30
0.0000000000005163
 11
663.7068828373216
 21
187.0551165541128
 31
0.0000000000005163
  0
LINE
  5
3CD
330
1F
100
AcDbEntity
  8
OBRYS
100
AcDbLine
 10
664.5068828373217
 20
190.6551165541129
 30
0.0000000000005163
 11
648.5068828373217
 21
190.6551165541129
 31
0.0000000000005163
  0
LINE
  5
3CE
330
1F
100
AcDbEntity
  8
OBRYS
100
AcDbLine
 10
649.0068828373217
 20
213.8919690541128
 30
0.0000000000005163
 11
649.8816404612901
 21
213.8923071701608
 31
0.0000000000005126
  0
LINE
  5
3CF
330
1F
100
AcDbEntity
  8
OBRYS
100
AcDbLine
 10
663.9068828373215
 20
187.2551165541128
 30
0.0000000000005163
 11
649.1068828373216
 21
187.2551165541128
 31
0.0000000000005163
  0
LINE
  5
3D0
330
1F
100
AcDbEntity
  8
OBRYS
100
AcDbLine
 10
650.0068828373217
 20
181.0215865541128
 30
0.0000000000005163
 11
650.2947433373216
 21
181.0215865541128
 31
0.0000000000005163
  0
LINE
  5
3D1
330
1F
100
AcDbEntity
  8
OBRYS
100
AcDbLine
 10
643.2568828373217
 20
218.1051165541128
 30
0.0000000000005163
 11
669.7568828373217
 21
218.1051165541128
 31
0.0000000000005163
  0
LINE
  5
3D2
330
1F
100
AcDbEntity
  8
OBRYS
100
AcDbLine
 10
663.0068828373217
 20
186.5886465541128
 30
0.0000000000005163
 11
662.7190218373216
 21
186.5886465541128
 31
0.0000000000005163
  0
LINE
  5
3D3
330
1F
100
AcDbEntity
  8
OBRYS
100
AcDbLine
 10
664.5068828373217
 20
189.0551165541128
 30
0.0000000000005163
 11
648.5068828373217
 21
189.0551165541128
 31
0.0000000000005163
  0
LINE
  5
3D4
330
1F
100
AcDbEntity
  8
OBRYS
100
AcDbLine
 10
663.0068828373217
 20
210.7551165541128
 30
0.0000000000005163
 11
650.0068828373217
 21
210.7551165541128
 31
0.0000000000005163
  0
LINE
  5
3D5
330
1F
100
AcDbEntity
  8
OBRYS
100
AcDbLine
 10
649.1068828373216
 20
188.8551165541128
 30
0.0000000000005163
 11
663.9068828373215
 21
188.8551165541128
 31
0.0000000000005163
  0
LINE
  5
3D6
330
1F
100
AcDbEntity
  8
OBRYS
100
AcDbLine
 10
656.2190218373216
 20
181.0215865541128
 30
0.0000000000005163
 11
656.7947433373216
 21
181.0215865541128
 31
0.0000000000005163
  0
LINE
  5
3D7
330
1F
100
AcDbEntity
  8
OBRYS
100
AcDbLine
 10
656.7947433373216
 20
198.2886465541129
 30
0.0000000000005163
 11
656.2190218373216
 21
198.2886465541129
 31
0.0000000000005163
  0
LINE
  5
3D8
330
1F
100
AcDbEntity
  8
OBRYS
100
AcDbLine
 10
650.0068825965028
 20
180.5551166194353
 30
0.0000000000005097
 11
663.0068828373217
 21
180.5551165541128
 31
0.0000000000005163
  0
LINE
  5
3D9
330
1F
100
AcDbEntity
  8
OBRYS
100
AcDbLine
 10
656.7947433373216
 20
186.5886465541128
 30
0.0000000000005163
 11
656.2190218373216
 21
186.5886465541128
 31
0.0000000000005163
  0
LINE
  5
3DA
330
1F
100
AcDbEntity
  8
OBRYS
100
AcDbLine
 10
663.0068828373217
 20
198.2886465541129
 30
0.0000000000005163
 11
662.7190218373216
 21
198.2886465541129
 31
0.0000000000005163
  0
LINE
  5
3DB
330
1F
100
AcDbEntity
  8
OBRYS
100
AcDbLine
 10
663.0068828373217
 20
192.7215865541128
 30
0.0000000000005163
 11
662.7190218373216
 21
192.7215865541128
 31
0.0000000000005163
  0
LINE
  5
3DC
330
1F
100
AcDbEntity
  8
OBRYS
100
AcDbLine
 10
663.1568828373215
 20
213.8919690541128
 30
0.0000000000005163
 11
664.0068828373217
 21
213.8919690541128
 31
0.0000000000005163
  0
LINE
  5
3DD
330
1F
100
AcDbEntity
  8
OBRYS
100
AcDbLine
 10
655.6568828373215
 20
213.8919690541128
 30
0.0000000000005163
 11
657.3568828373216
 21
213.8919690541128
 31
0.0000000000005163
  0
LINE
  5
3DE
330
1F
100
AcDbEntity
  8
OBRYS
100
AcDbLine
 10
663.0068828373217
 20
198.7551165541128
 30
0.0000000000005163
 11
650.0068828373217
 21
198.7551165541128
 31
0.0000000000005163
  0
LINE
  5
3DF
330
1F
100
AcDbEntity
  8
OBRYS
100
AcDbLine
 10
650.0068828373217
 20
192.7215865541128
 30
0.0000000000005163
 11
650.2947433373216
 21
192.7215865541128
 31
0.0000000000005163
  0
LINE
  5
3E0
330
1F
100
AcDbEntity
  8
OBRYS
100
AcDbLine
 10
650.2947433373216
 20
186.5886465541128
 30
0.0000000000005163
 11
650.0068828373217
 21
186.5886465541128
 31
0.0000000000005163
  0
LINE
  5
3E1
330
1F
100
AcDbEntity
  8
OBRYS
100
AcDbLine
 10
663.4354538373216
 20
211.8048980541128
 30
0.0000000000005163
 11
663.4354448373216
 21
211.8049025541129
 31
0.0000000000005163
  0
ARC
  5
3E2
330
1F
100
AcDbEntity
  8
OBRYS
100
AcDbCircle
 10
643.9568828373216
 20
218.1051165541128
 30
0.0000000000005163
 40
0.7
100
AcDbArc
 50
180.0
 51
270.0
  0
ARC
  5
3E3
330
1F
100
AcDbEntity
  8
OBRYS
100
AcDbCircle
 10
-660.9068828373215
 20
203.3551165541128
 30
-0.0000000000005163
 40
0.4
210
0.0
220
0.0
230
-1.0
100
AcDbArc
 50
0.0
 51
90.0
  0
ARC
  5
3E4
330
1F
100
AcDbEntity
  8
OBRYS
100
AcDbCircle
 10
-652.1068828373216
 20
203.3551165541128
 30
-0.0000000000005163
 40
0.4
210
0.0
220
0.0
230
-1.0
100
AcDbArc
 50
90.0
 51
180.0
  0
ARC
  5
3E5
330
1F
100
AcDbEntity
  8
OBRYS
100
AcDbCircle
 10
-647.3068828373216
 20
215.7051165541129
 30
-0.0000000000005163
 40
1.7
210
0.0
220
0.0
230
-1.0
100
AcDbArc
 50
90.0
 51
180.0
  0
ARC
  5
3E6
330
1F
100
AcDbEntity
  8
OBRYS
100
AcDbCircle
 10
-648.5068828373217
 20
210.7551165541128
 30
-0.0000000000005163
 40
1.499999999999972
210
0.0
220
0.0
230
-1.0
100
AcDbArc
 50
135.6148669999969
 51
180.0
  0
ARC
  5
3E7
330
1F
100
AcDbEntity
  8
OBRYS
100
AcDbCircle
 10
649.3068828373216
 20
187.2551165541128
 30
0.0000000000005163
 40
0.2
100
AcDbArc
 50
180.0
 51
270.0
  0
ARC
  5
3E8
330
1F
100
AcDbEntity
  8
OBRYS
100
AcDbCircle
 10
-664.5068828373217
 20
210.7551165541128
 30
-0.0000000000005163
 40
1.499999999999972
210
0.0
220
0.0
230
-1.0
100
AcDbArc
 50
0.0
 51
44.38426099999981
  0
ARC
  5
3E9
330
1F
100
AcDbEntity
  8
OBRYS
100
AcDbCircle
 10
669.0568828373216
 20
218.1051165541128
 30
0.0000000000005163
 40
0.7
100
AcDbArc
 50
270.0
 51
0.0
  0
ARC
  5
3EA
330
1F
100
AcDbEntity
  8
OBRYS
100
AcDbCircle
 10
663.7068828373216
 20
188.8551165541128
 30
0.0000000000005163
 40
0.2
100
AcDbArc
 50
0.0
 51
90.0
  0
ARC
  5
3EB
330
1F
100
AcDbEntity
  8
OBRYS
100
AcDbCircle
 10
663.7068828373216
 20
187.2551165541128
 30
0.0000000000005163
 40
0.2
100
AcDbArc
 50
270.0
 51
0.0
  0
ARC
  5
3EC
330
1F
100
AcDbEntity
  8
OBRYS
100
AcDbCircle
 10
649.3068828373216
 20
188.8551165541128
 30
0.0000000000005163
 40
0.2
100
AcDbArc
 50
90.0
 51
180.0
  0
ARC
  5
3ED
330
1F
100
AcDbEntity
  8
OBRYS
100
AcDbCircle
 10
-665.7068828373216
 20
215.7051165541129
 30
-0.0000000000005163
 40
1.7
210
0.0
220
0.0
230
-1.0
100
AcDbArc
 50
0.0
 51
90.0
  0
ELLIPSE
  5
3EE
330
1F
100
AcDbEntity
  8
OBRYS
100
AcDbEllipse
 10
649.0068828373217
 20
215.7051165541129
 30
0.0000000000005163
 11
0.0
 21
1.7
 31
0.0
210
0.0
220
0.0
230
1.0
 40
0.5
 41
4.71238898038469
 42
6.283185307179586
  0
ELLIPSE
  5
3EF
330
1F
100
AcDbEntity
  8
OBRYS
100
AcDbEllipse
 10
662.0068828373217
 20
213.2046175541128
 30
0.0000000000005163
 11
2.0
 21
0.0
 31
0.0
210
0.0
220
0.0
230
1.0
 40
0.999998
 41
5.507206575526
 42
6.283189385697062
  0
ELLIPSE
  5
3F0
330
1F
100
AcDbEntity
  8
OBRYS
100
AcDbEllipse
 10
654.8068828373216
 20
215.7051165541129
 30
0.0000000000005163
 11
0.0
 21
-1.7
 31
0.0
210
0.0
220
0.0
230
1.0
 40
0.5
 41
1.570796326794897
 42
3.141592653589793
  0
ELLIPSE
  5
3F1
330
1F
100
AcDbEntity
  8
OBRYS
100
AcDbEllipse
 10
658.2068828373216
 20
215.7051165541129
 30
0.0000000000005163
 11
0.0
 21
1.7
 31
0.0
210
0.0
220
0.0
230
1.0
 40
0.5
 41
0.0
 42
1.570796326794897
  0
ELLIPSE
  5
3F2
330
1F
100
AcDbEntity
  8
OBRYS
100
AcDbEllipse
 10
651.0068828373217
 20
213.2046065541128
 30
0.0000000000005163
 11
2.0
 21
0.0
 31
0.0
210
0.0
220
0.0
230
1.0
 40
1.0
 41
3.141592411810501
 42
3.917537124681715
  0
ELLIPSE
  5
3F3
330
1F
100
AcDbEntity
  8
OBRYS
100
AcDbEllipse
 10
664.0068828373217
 20
215.7051165541129
 30
0.0000000000005163
 11
0.0
 21
-1.7
 31
0.0
210
0.0
220
0.0
230
1.0
 40
0.5
 41
3.141592653589793
 42
4.71238898038469
  0
LINE
  5
3F4
330
1F
100
AcDbEntity
  8
OBRYS
100
AcDbLine
 10
650.2947433373216
 20
181.0215865541128
 30
0.0000000000005163
 11
652.6549963723085
 21
180.5551166194353
 31
0.0000000000005208
  0
LINE
  5
3F5
330
1F
100
AcDbEntity
  8
OBRYS
100
AcDbLine
 10
656.2190218373216
 20
181.0215865541128
 30
0.0000000000005163
 11
653.8587688206973
 21
180.5551166194353
 31
0.0000000000005194
  0
LINE
  5
3F6
330
1F
100
AcDbEntity
  8
OBRYS
100
AcDbLine
 10
656.7947433373216
 20
181.0215865541128
 30
0.0000000000005163
 11
659.1549963723085
 21
180.5551166194353
 31
0.0000000000005132
  0
LINE
  5
3F7
330
1F
100
AcDbEntity
  8
OBRYS
100
AcDbLine
 10
662.7190218373216
 20
181.0215865541128
 30
0.0000000000005163
 11
660.3587688206973
 21
180.5551166194353
 31
0.0000000000005118
  0
LINE
  5
3F8
330
1F
100
AcDbEntity
  8
OBRYS
100
AcDbLine
 10
652.6549954502896
 20
187.0551165541128
 30
0.0000000000005163
 11
650.2947433373216
 21
186.5886465541128
 31
0.0000000000005163
  0
LINE
  5
3F9
330
1F
100
AcDbEntity
  8
OBRYS
100
AcDbLine
 10
653.8587697427162
 20
187.0551165541128
 30
0.0000000000005163
 11
656.2190218373216
 21
186.5886465541128
 31
0.0000000000005163
  0
LINE
  5
3FA
330
1F
100
AcDbEntity
  8
OBRYS
100
AcDbLine
 10
659.1549954502896
 20
187.0551165541128
 30
0.0000000000005163
 11
656.7947433373216
 21
186.5886465541128
 31
0.0000000000005163
  0
LINE
  5
3FB
330
1F
100
AcDbEntity
  8
OBRYS
100
AcDbLine
 10
660.3587697427162
 20
187.0551165541128
 30
0.0000000000005163
 11
662.7190218373216
 21
186.5886465541128
 31
0.0000000000005163
  0
LINE
  5
3FC
330
1F
100
AcDbEntity
  8
OBRYS
100
AcDbLine
 10
652.6549963723085
 20
192.2551166194353
 30
0.0000000000005208
 11
650.2947433373216
 21
192.7215865541128
 31
0.0000000000005163
  0
LINE
  5
3FD
330
1F
100
AcDbEntity
  8
OBRYS
100
AcDbLine
 10
653.8587688206973
 20
192.2551166194353
 30
0.0000000000005194
 11
656.2190218373216
 21
192.7215865541128
 31
0.0000000000005163
  0
LINE
  5
3FE
330
1F
100
AcDbEntity
  8
OBRYS
100
AcDbLine
 10
656.7947433373216
 20
192.7215865541128
 30
0.0000000000005163
 11
659.1549963723085
 21
192.2551166194353
 31
0.0000000000005132
  0
LINE
  5
3FF
330
1F
100
AcDbEntity
  8
OBRYS
100
AcDbLine
 10
660.3587688206973
 20
192.2551166194353
 30
0.0000000000005118
 11
662.7190218373216
 21
192.7215865541128
 31
0.0000000000005163
  0
LINE
  5
400
330
1F
100
AcDbEntity
  8
OBRYS
100
AcDbLine
 10
652.6549954502893
 20
198.7551165541128
 30
0.0000000000005163
 11
650.2947433373216
 21
198.2886465541129
 31
0.0000000000005163
  0
LINE
  5
401
330
1F
100
AcDbEntity
  8
OBRYS
100
AcDbLine
 10
653.8587688206992
 20
198.7551166194635
 30
0.0000000000005194
 11
656.2190218373216
 21
198.2886465541129
 31
0.0000000000005163
  0
LINE
  5
402
330
1F
100
AcDbEntity
  8
OBRYS
100
AcDbLine
 10
656.7947433373216
 20
198.2886465541129
 30
0.0000000000005163
 11
659.1549954502893
 21
198.7551165541128
 31
0.0000000000005163
  0
LINE
  5
403
330
1F
100
AcDbEntity
  8
OBRYS
100
AcDbLine
 10
660.3587688206992
 20
198.7551166194635
 30
0.0000000000005118
 11
662.7190218373216
 21
198.2886465541129
 31
0.0000000000005163
  0
ARC
  5
404
330
1F
100
AcDbEntity
  8
OBRYS
100
AcDbCircle
 10
652.7695965320667
 20
219.6121538372345
 30
0.0000000000004622
 40
6.407568662259437
100
AcDbArc
 50
243.2107460540356
 51
296.7825450941961
  0
ARC
  5
405
330
1F
100
AcDbEntity
  8
OBRYS
100
AcDbCircle
 10
660.2568827836255
 20
219.6658832378053
 30
0.0000000000005831
 40
6.461275778761332
100
AcDbArc
 50
243.3315007911521
 51
296.6684978848272
  0
ARC
  5
406
330
1F
100
AcDbEntity
  8
OBRYS
100
AcDbCircle
 10
653.6408776143901
 20
214.7113120305408
 30
0.0000000000019088
 40
3.891969973333687
100
AcDbArc
 50
317.4247395123893
 51
347.2515564305563
  0
ARC
  5
407
330
1F
100
AcDbEntity
  8
OBRYS
100
AcDbCircle
 10
659.3728726463346
 20
214.7113024183257
 30
0.0000000000154724
 40
3.891952474155374
100
AcDbArc
 50
192.7509626116315
 51
222.5753050088322
  0
ARC
  5
408
330
1F
100
AcDbEntity
  8
OBRYS
100
AcDbCircle
 10
653.3488245307099
 20
230.0028803352482
 30
0.0
 40
18.20078654897358
100
AcDbArc
 50
260.0079124766238
 51
279.9920875233766
  0
ARC
  5
409
330
1F
100
AcDbEntity
  8
OBRYS
100
AcDbCircle
 10
659.6649406622715
 20
230.0333852494659
 30
0.0000000004543359
 40
18.23082952459953
100
AcDbArc
 50
260.0245472149002
 51
279.9754527852249
  0
LINE
  5
40A
330
1F
100
AcDbEntity
  8
OBRYS
100
AcDbLine
 10
662.8229987280888
 20
212.0781683360467
 30
0.0000000004543359
 11
663.4343545527541
 21
211.8037904226117
 31
0.0000000000005163
  0
LINE
  5
40B
330
1F
100
AcDbEntity
  8
OBRYS
100
AcDbLine
 10
650.1907664649207
 20
212.0781683360398
 30
0.0000000000005095
 11
649.5783114476077
 21
211.8048980900065
 31
0.0000000000005163
  0
LINE
  5
40C
330
1F
100
AcDbEntity
  8
OBRYS
100
AcDbLine
 10
649.8996574807845
 20
212.5730601353079
 30
0.0000000000005099
 11
650.1907664649207
 21
212.0781683360398
 31
0.0000000000005095
  0
LINE
  5
40D
330
1F
100
AcDbEntity
  8
OBRYS
100
AcDbLine
 10
663.1141077122165
 20
212.5730601352961
 30
0.0000000000005228
 11
662.8229987280889
 21
212.0781683360467
 31
0.0000000004543359
  0
LINE
  5
40E
330
1F
100
AcDbEntity
  8
OBRYS
100
AcDbLine
 10
663.1568828373215
 20
213.8919690541128
 30
0.0000000000005163
 11
663.1141077122165
 21
212.5730601352961
 31
0.0000000000005228
  0
LINE
  5
40F
330
1F
100
AcDbEntity
  8
OBRYS
100
AcDbLine
 10
618.8430528373216
 20
290.3051165541128
 30
0.0000000000005163
 11
607.6430528373216
 21
290.3051165541128
 31
0.0000000000005163
  0
LINE
  5
410
330
1F
100
AcDbEntity
  8
OBRYS
100
AcDbLine
 10
618.8430528373216
 20
280.7051165541128
 30
0.0000000000005163
 11
618.8430528373216
 21
290.3051165541128
 31
0.0000000000005163
  0
LINE
  5
411
330
1F
100
AcDbEntity
  8
OBRYS
100
AcDbLine
 10
607.7430528373216
 20
270.3051165541128
 30
0.0000000000005163
 11
607.7430528373216
 21
255.4508685541128
 31
0.0000000000005163
  0
LINE
  5
412
330
1F
100
AcDbEntity
  8
OBRYS
100
AcDbLine
 10
618.7430528373216
 20
255.4508685541128
 30
0.0000000000005163
 11
618.7430528373216
 21
270.3051165541128
 31
0.0000000000005163
  0
LINE
  5
413
330
1F
100
AcDbEntity
  8
OBRYS
100
AcDbLine
 10
605.7430528373216
 20
241.3051165541128
 30
0.0000000000005163
 11
605.7430528373217
 21
243.8056259419479
 31
0.0000000000005163
  0
LINE
  5
414
330
1F
100
AcDbEntity
  8
OBRYS
100
AcDbLine
 10
605.7430528373216
 20
241.3051165541128
 30
0.0000000000005163
 11
620.7430528373216
 21
241.3051165541128
 31
0.0000000000005163
  0
LINE
  5
415
330
1F
100
AcDbEntity
  8
OBRYS
100
AcDbLine
 10
605.7430528373216
 20
278.0537005541129
 30
0.0000000000005163
 11
605.7430528373216
 21
272.9883985541128
 31
0.0000000000005163
  0
LINE
  5
416
330
1F
100
AcDbEntity
  8
OBRYS
100
AcDbLine
 10
620.7430528373216
 20
272.9883985541128
 30
0.0000000000005163
 11
620.7430528373216
 21
278.0537005541129
 31
0.0000000000005163
  0
LINE
  5
417
330
1F
100
AcDbEntity
  8
OBRYS
100
AcDbLine
 10
614.0930528373216
 20
243.1182645541129
 30
0.0000000000005163
 11
614.0930528373216
 21
241.3051165541128
 31
0.0000000000005163
  0
LINE
  5
418
330
1F
100
AcDbEntity
  8
OBRYS
100
AcDbLine
 10
619.8930528373216
 20
241.3051165541128
 30
0.0000000000005163
 11
619.8930528373216
 21
243.1182645541129
 31
0.0000000000005163
  0
LINE
  5
419
330
1F
100
AcDbEntity
  8
OBRYS
100
AcDbLine
 10
612.3930528373216
 20
241.3051165541128
 30
0.0000000000005163
 11
612.3930528373216
 21
243.1182645541129
 31
0.0000000000005163
  0
LINE
  5
41A
330
1F
100
AcDbEntity
  8
OBRYS
100
AcDbLine
 10
606.7430528373216
 20
252.8051165541128
 30
0.0000000000005163
 11
606.7430528373216
 21
246.2551165541129
 31
0.0000000000005163
  0
LINE
  5
41B
330
1F
100
AcDbEntity
  8
OBRYS
100
AcDbLine
 10
619.7430528373216
 20
246.2551165541129
 30
0.0000000000005163
 11
619.7430528373216
 21
252.8051165541128
 31
0.0000000000005163
  0
LINE
  5
41C
330
1F
100
AcDbEntity
  8
OBRYS
100
AcDbLine
 10
606.5930528373216
 20
243.1182645541129
 30
0.0000000000005163
 11
606.5930528373216
 21
241.3051165541128
 31
0.0000000000005163
  0
LINE
  5
41D
330
1F
100
AcDbEntity
  8
OBRYS
100
AcDbLine
 10
607.6430528373216
 20
290.3051165541128
 30
0.0000000000005163
 11
607.6430528373216
 21
280.7051165541128
 31
0.0000000000005163
  0
LINE
  5
41E
330
1F
100
AcDbEntity
  8
OBRYS
100
AcDbLine
 10
620.7430528373216
 20
243.1182645541129
 30
0.0000000000005163
 11
619.8930528373216
 21
243.1182645541129
 31
0.0000000000005163
  0
LINE
  5
41F
330
1F
100
AcDbEntity
  8
OBRYS
100
AcDbLine
 10
606.5930528373216
 20
243.1182645541129
 30
0.0000000000005163
 11
605.7430528373216
 21
243.1182645541129
 31
0.0000000000005163
  0
LINE
  5
420
330
1F
100
AcDbEntity
  8
OBRYS
100
AcDbLine
 10
600.6930528373216
 20
239.6051165541129
 30
0.0000000000005163
 11
625.7930528373215
 21
239.6051165541129
 31
0.0000000000005163
  0
LINE
  5
421
330
1F
100
AcDbEntity
  8
OBRYS
100
AcDbLine
 10
626.4930528373216
 20
238.9051165541129
 30
0.0000000000005163
 11
599.9930528373216
 21
238.9051165541129
 31
0.0000000000005163
  0
LINE
  5
422
330
1F
100
AcDbEntity
  8
OBRYS
100
AcDbLine
 10
619.7430528373216
 20
246.2551165541129
 30
0.0000000000005163
 11
609.9930528373216
 21
246.2551165541129
 31
0.0000000000005163
  0
LINE
  5
423
330
1F
100
AcDbEntity
  8
OBRYS
100
AcDbLine
 10
609.9930528373216
 20
246.2551165541129
 30
0.0000000000005163
 11
606.7430528373216
 21
246.2551165541129
 31
0.0000000000005163
  0
LINE
  5
424
330
1F
100
AcDbEntity
  8
OBRYS
100
AcDbLine
 10
605.7430528373216
 20
272.9883985541128
 30
0.0000000000005163
 11
620.7430528373216
 21
272.9883985541128
 31
0.0000000000005163
  0
LINE
  5
425
330
1F
100
AcDbEntity
  8
OBRYS
100
AcDbLine
 10
606.6716242571744
 20
271.7425892549624
 30
0.0000000000005163
 11
619.8144828373215
 21
271.7425885541129
 31
0.0000000000005163
  0
LINE
  5
426
330
1F
100
AcDbEntity
  8
OBRYS
100
AcDbLine
 10
620.7430528373216
 20
278.0537005541129
 30
0.0000000000005163
 11
605.7430528373216
 21
278.0537005541129
 31
0.0000000000005163
  0
LINE
  5
427
330
1F
100
AcDbEntity
  8
OBRYS
100
AcDbLine
 10
614.0930528373216
 20
243.1182645541129
 30
0.0000000000005163
 11
612.3930528373216
 21
243.1182645541129
 31
0.0000000000005163
  0
LINE
  5
428
330
1F
100
AcDbEntity
  8
OBRYS
100
AcDbLine
 10
606.625196465777
 20
279.2847160748324
 30
0.0000000000005163
 11
619.8609108373216
 21
279.2847145541128
 31
0.0000000000005163
  0
LINE
  5
429
330
1F
100
AcDbEntity
  8
OBRYS
100
AcDbLine
 10
607.6430528373216
 20
280.7051165541128
 30
0.0000000000005163
 11
618.8430528373216
 21
280.7051165541128
 31
0.0000000000005163
  0
LINE
  5
42A
330
1F
100
AcDbEntity
  8
OBRYS
100
AcDbLine
 10
607.7430528373216
 20
270.3051165541128
 30
0.0000000000005163
 11
618.7430528373216
 21
270.3051165541128
 31
0.0000000000005163
  0
LINE
  5
42B
330
1F
100
AcDbEntity
  8
OBRYS
100
AcDbLine
 10
607.1180528404752
 20
253.7972739882733
 30
0.0000000000005163
 11
619.3680528373216
 21
253.7972725541129
 31
0.0000000000005163
  0
LINE
  5
42C
330
1F
100
AcDbEntity
  8
OBRYS
100
AcDbLine
 10
607.7430528373216
 20
255.4508685541128
 30
0.0000000000005163
 11
618.7430528373216
 21
255.4508685541128
 31
0.0000000000005163
  0
LINE
  5
42D
330
1F
100
AcDbEntity
  8
OBRYS
100
AcDbLine
 10
619.7430528373216
 20
252.8051165541128
 30
0.0000000000005163
 11
606.7430528373216
 21
252.8051165541128
 31
0.0000000000005163
  0
LINE
  5
42E
330
1F
100
AcDbEntity
  8
OBRYS
100
AcDbLine
 10
620.1716248373216
 20
245.2053345541128
 30
0.0000000000005163
 11
620.1716248373216
 21
245.2053345541128
 31
0.0000000000005163
  0
LINE
  5
42F
330
1F
100
AcDbEntity
  8
OBRYS
100
AcDbLine
 10
606.3144828373215
 20
245.2053345541128
 30
0.0000000000005163
 11
606.3144828373215
 21
245.2053345541128
 31
0.0000000000005163
  0
ARC
  5
430
330
1F
100
AcDbEntity
  8
OBRYS
100
AcDbCircle
 10
622.4430528373216
 20
241.3051165541128
 30
0.0000000000005163
 40
1.7
100
AcDbArc
 50
180.0
 51
270.0
  0
ARC
  5
431
330
1F
100
AcDbEntity
  8
OBRYS
100
AcDbCircle
 10
604.0430528373215
 20
241.3051165541128
 30
0.0000000000005163
 40
1.7
100
AcDbArc
 50
270.0
 51
0.0
  0
ARC
  5
432
330
1F
100
AcDbEntity
  8
OBRYS
100
AcDbCircle
 10
625.7930528373215
 20
238.9051165541129
 30
0.0000000000005163
 40
0.7
100
AcDbArc
 50
0.0
 51
90.0
  0
ARC
  5
433
330
1F
100
AcDbEntity
  8
OBRYS
100
AcDbCircle
 10
600.6930528373216
 20
238.9051165541129
 30
0.0000000000005163
 40
0.7
100
AcDbArc
 50
90.0
 51
180.0
  0
ARC
  5
434
330
1F
100
AcDbEntity
  8
OBRYS
100
AcDbCircle
 10
-605.2430528373216
 20
246.2551165541129
 30
-0.0000000000005163
 40
1.499999999999972
210
0.0
220
0.0
230
-1.0
100
AcDbArc
 50
180.0
 51
224.4145999999994
  0
ARC
  5
435
330
1F
100
AcDbEntity
  8
OBRYS
100
AcDbCircle
 10
-621.2430528373216
 20
246.2551165541129
 30
-0.0000000000005163
 40
1.499999999999972
210
0.0
220
0.0
230
-1.0
100
AcDbArc
 50
315.5854029999966
 51
0.0
  0
ARC
  5
436
330
1F
100
AcDbEntity
  8
OBRYS
100
AcDbCircle
 10
607.0430528373216
 20
272.9883985541128
 30
0.0000000000005163
 40
1.299999999999997
100
AcDbArc
 50
180.0
 51
253.3984500000002
  0
ARC
  5
437
330
1F
100
AcDbEntity
  8
OBRYS
100
AcDbCircle
 10
619.4430528373216
 20
272.9883985541128
 30
0.0000000000005163
 40
1.299999999999997
100
AcDbArc
 50
286.6015499999998
 51
0.0
  0
ARC
  5
438
330
1F
100
AcDbEntity
  8
OBRYS
100
AcDbCircle
 10
619.4430528373216
 20
278.0537005541129
 30
0.0000000000005163
 40
1.3
100
AcDbArc
 50
0.0
 51
71.25065899999903
  0
ARC
  5
439
330
1F
100
AcDbEntity
  8
OBRYS
100
AcDbCircle
 10
-606.1430528373216
 20
280.7051165541128
 30
-0.0000000000005163
 40
1.5
210
0.0
220
0.0
230
-1.0
100
AcDbArc
 50
180.0
 51
251.2506590000001
  0
ARC
  5
43A
330
1F
100
AcDbEntity
  8
OBRYS
100
AcDbCircle
 10
607.0430528373216
 20
278.0537005541129
 30
0.0000000000005163
 40
1.3
100
AcDbArc
 50
108.7493410000018
 51
180.0
  0
ARC
  5
43B
330
1F
100
AcDbEntity
  8
OBRYS
100
AcDbCircle
 10
-620.3430528373216
 20
280.7051165541128
 30
-0.0000000000005163
 40
1.5
210
0.0
220
0.0
230
-1.0
100
AcDbArc
 50
288.7493409999999
 51
0.0
  0
ARC
  5
43C
330
1F
100
AcDbEntity
  8
OBRYS
100
AcDbCircle
 10
-606.2430528373216
 20
270.3051165541128
 30
-0.0000000000005163
 40
1.499999999999998
210
0.0
220
0.0
230
-1.0
100
AcDbArc
 50
106.6015500000009
 51
180.0
  0
ARC
  5
43D
330
1F
100
AcDbEntity
  8
OBRYS
100
AcDbCircle
 10
-620.2430528373216
 20
270.3051165541128
 30
-0.0000000000005163
 40
1.499999999999998
210
0.0
220
0.0
230
-1.0
100
AcDbArc
 50
0.0
 51
73.39844999999913
  0
ARC
  5
43E
330
1F
100
AcDbEntity
  8
OBRYS
100
AcDbCircle
 10
608.2430528373216
 20
252.8051165541128
 30
0.0000000000005163
 40
1.5
100
AcDbArc
 50
138.5903780000009
 51
180.0
  0
ARC
  5
43F
330
1F
100
AcDbEntity
  8
OBRYS
100
AcDbCircle
 10
618.2430528373216
 20
252.8051165541128
 30
0.0000000000005163
 40
1.5
100
AcDbArc
 50
0.0
 51
41.4096219999983
  0
ARC
  5
440
330
1F
100
AcDbEntity
  8
OBRYS
100
AcDbCircle
 10
-605.2430528373216
 20
255.4508685541128
 30
-0.0000000000005163
 40
2.5
210
0.0
220
0.0
230
-1.0
100
AcDbArc
 50
180.0
 51
221.4096220000015
  0
ARC
  5
441
330
1F
100
AcDbEntity
  8
OBRYS
100
AcDbCircle
 10
-621.2430528373216
 20
255.4508685541128
 30
-0.0000000000005163
 40
2.5
210
0.0
220
0.0
230
-1.0
100
AcDbArc
 50
318.5903779999979
 51
0.0
  0
ELLIPSE
  5
442
330
1F
100
AcDbEntity
  8
OBRYS
100
AcDbEllipse
 10
607.7430528373216
 20
243.8056265541128
 30
0.0000000000005163
 11
-2.0
 21
2.449293598294706E-16
 31
0.0
210
0.0
220
0.0
230
1.0
 40
1.0
 41
5.507982667701528
 42
6.283185613262047
  0
ELLIPSE
  5
443
330
1F
100
AcDbEntity
  8
OBRYS
100
AcDbEllipse
 10
614.9430528373216
 20
241.3051165541128
 30
0.0000000000005163
 11
2.081899558550500E-16
 21
1.7
 31
0.0
210
0.0
220
0.0
230
1.0
 40
0.5
 41
1.570796326794897
 42
3.141592653589793
  0
ELLIPSE
  5
444
330
1F
100
AcDbEntity
  8
OBRYS
100
AcDbEllipse
 10
620.7430528373216
 20
241.3051165541128
 30
0.0000000000005163
 11
2.081899558550500E-16
 21
1.7
 31
0.0
210
0.0
220
0.0
230
1.0
 40
0.5
 41
1.570796326794897
 42
3.141592653589793
  0
ELLIPSE
  5
445
330
1F
100
AcDbEntity
  8
OBRYS
100
AcDbEllipse
 10
611.5430528373215
 20
241.3051165541128
 30
0.0000000000005163
 11
2.081899558550500E-16
 21
1.7
 31
0.0
210
0.0
220
0.0
230
1.0
 40
0.5
 41
3.141592653589793
 42
4.71238898038469
  0
ELLIPSE
  5
446
330
1F
100
AcDbEntity
  8
OBRYS
100
AcDbEllipse
 10
605.7430528373216
 20
241.3051165541128
 30
0.0000000000005163
 11
2.081899558550500E-16
 21
1.7
 31
0.0
210
0.0
220
0.0
230
1.0
 40
0.5
 41
3.141592653589793
 42
4.71238898038469
  0
LINE
  5
447
330
1F
100
AcDbEntity
  8
OBRYS
100
AcDbLine
 10
620.7430536660647
 20
243.8056246572406
 30
0.0000000000005163
 11
620.1716248373216
 21
245.2053345541128
 31
0.0000000000005163
  0
LINE
  5
448
330
1F
100
AcDbEntity
  8
OBRYS
100
AcDbLine
 10
619.5591697976508
 20
244.9320645466237
 30
0.0000000000005163
 11
620.1716248373216
 21
245.2053345541128
 31
0.0000000000005163
  0
LINE
  5
449
330
1F
100
AcDbEntity
  8
OBRYS
100
AcDbLine
 10
619.8502787817594
 20
244.4371727474231
 30
0.0000000000005163
 11
619.5591697976508
 21
244.9320645466237
 31
0.0000000000005163
  0
LINE
  5
44A
330
1F
100
AcDbEntity
  8
OBRYS
100
AcDbLine
 10
619.8930536660648
 20
243.1182638955722
 30
0.0000000000005163
 11
619.8502787817594
 21
244.4371727474231
 31
0.0000000000005163
  0
ARC
  5
44B
330
1F
100
AcDbEntity
  8
OBRYS
100
AcDbCircle
 10
616.9930532410143
 20
237.3443416160177
 30
0.0000000000005163
 40
6.461283807145376
100
AcDbArc
 50
63.33153200926868
 51
116.6684679907324
  0
ARC
  5
44C
330
1F
100
AcDbEntity
  8
OBRYS
100
AcDbCircle
 10
609.4930528373216
 20
237.3443433163587
 30
0.0000000000005163
 40
6.461282106500882
100
AcDbArc
 50
63.33152844085525
 51
116.6684715591441
  0
LINE
  5
44D
330
1F
100
AcDbEntity
  8
OBRYS
100
AcDbLine
 10
606.9269375344788
 20
244.9320645466255
 30
0.0000000000005163
 11
606.3144943916855
 21
245.2053484865941
 31
0.0000000000005163
  0
LINE
  5
44E
330
1F
100
AcDbEntity
  8
OBRYS
100
AcDbLine
 10
606.9269375344788
 20
244.9320645466255
 30
0.0000000000005163
 11
606.6358285503477
 21
244.4371727473629
 31
0.0000000000005163
  0
LINE
  5
44F
330
1F
100
AcDbEntity
  8
OBRYS
100
AcDbLine
 10
606.6358285503477
 20
244.4371727473629
 30
0.0000000000005163
 11
606.5930528373216
 21
243.1182645541129
 31
0.0000000000005163
  0
ARC
  5
450
330
1F
100
AcDbEntity
  8
OBRYS
100
AcDbCircle
 10
616.4011117318382
 20
226.9768476331383
 30
0.0000000000005163
 40
18.23082952466565
100
AcDbArc
 50
80.02454721482682
 51
99.97545278507883
  0
ARC
  5
451
330
1F
100
AcDbEntity
  8
OBRYS
100
AcDbCircle
 10
610.0849956002787
 20
227.0073525473462
 30
0.0000000000005163
 40
18.20078654904979
100
AcDbArc
 50
80.00791247672815
 51
99.99208752335652
  0
ARC
  5
452
330
1F
100
AcDbEntity
  8
OBRYS
100
AcDbCircle
 10
610.2964269603212
 20
242.2566622392242
 30
0.0000000000005163
 40
3.979998297662947
100
AcDbArc
 50
13.08569991296483
 51
42.23801244263377
  0
ARC
  5
453
330
1F
100
AcDbEntity
  8
OBRYS
100
AcDbCircle
 10
616.1838138032853
 20
242.2607637515325
 30
0.0000000000005163
 40
3.972897950190536
100
AcDbArc
 50
137.748907305527
 51
166.9542713120925
  0
LINE
  5
454
330
1F
100
AcDbEntity
  8
OBRYS
100
AcDbLine
 10
620.7430536660647
 20
243.8056246572406
 30
0.0000000000005163
 11
620.7430536660647
 21
241.3051165541128
 31
0.0000000000005163
  0
LINE
  5
455
330
1F
100
AcDbEntity
  8
OBRYS
100
AcDbLine
 10
618.3430528373217
 20
290.3066785541129
 30
0.0000000000005163
 11
618.3420226175776
 21
296.9354565541129
 31
0.0000000000005163
  0
LINE
  5
456
330
1F
100
AcDbEntity
  8
OBRYS
100
AcDbLine
 10
608.1420226175777
 20
290.3051165541128
 30
0.0000000000005163
 11
608.142261288466
 21
296.9364285579292
 31
0.0000000000005163
  0
ARC
  5
457
330
1F
100
AcDbEntity
  8
OBRYS
100
AcDbCircle
 10
615.7920226175777
 20
299.5525947610743
 30
0.0000000000005163
 40
2.623615742918852
100
AcDbArc
 50
193.6048455376763
 51
346.395154462323
  0
ARC
  5
458
330
1F
100
AcDbEntity
  8
OBRYS
100
AcDbCircle
 10
610.6920226175777
 20
298.3098315541129
 30
0.0000000000005163
 40
2.625624999999946
100
AcDbArc
 50
13.78484624497081
 51
166.2151537550292
  0
ARC
  5
459
330
1F
100
AcDbEntity
  8
OBRYS
100
AcDbCircle
 10
615.7920226175777
 20
297.5525947610743
 30
0.0000000000005163
 40
2.623615742918852
100
AcDbArc
 50
193.6048455376763
 51
346.395154462323
  0
ARC
  5
45A
330
1F
100
AcDbEntity
  8
OBRYS
100
AcDbCircle
 10
610.6920226175777
 20
296.3098315541129
 30
0.0000000000005163
 40
2.625624999999946
100
AcDbArc
 50
13.78484624497081
 51
166.2151537550292
  0
LINE
  5
45B
330
1F
100
AcDbEntity
  8
OBRYS
100
AcDbLine
 10
608.1420226175777
 20
298.9354565541129
 30
0.0000000000005163
 11
608.1420226175777
 21
305.5642345541128
 31
0.0000000000005163
  0
LINE
  5
45C
330
1F
100
AcDbEntity
  8
OBRYS
100
AcDbLine
 10
618.3420226175776
 20
298.9354565541129
 30
0.0000000000005163
 11
618.3420226175776
 21
305.5642345541128
 31
0.0000000000005163
  0
LINE
  5
45D
330
1F
100
AcDbEntity
  8
OBRYS
100
AcDbLine
 10
607.2430529834061
 20
337.064234153734
 30
0.0000000000005163
 11
613.2430528373216
 21
332.5642345541128
 31
0.0000000000005163
  0
LINE
  5
45E
330
1F
100
AcDbEntity
  8
OBRYS
100
AcDbLine
 10
619.2430528373216
 20
337.0642345541128
 30
0.0000000000005163
 11
613.2430528373216
 21
332.5642345541128
 31
0.0000000000005163
  0
ARC
  5
45F
330
1F
100
AcDbEntity
  8
OBRYS
100
AcDbCircle
 10
613.2430528373216
 20
346.5142345541129
 30
0.0000000000005163
 40
11.04999999999992
100
AcDbArc
 50
50.69235188389305
 51
129.3076481161069
  0
LINE
  5
460
330
1F
100
AcDbEntity
  8
OBRYS
100
AcDbLine
 10
606.2430528373216
 20
337.0642345541128
 30
0.0000000000005163
 11
608.2430528373216
 21
332.5642345541128
 31
0.0000000000005163
  0
LINE
  5
461
330
1F
100
AcDbEntity
  8
OBRYS
100
AcDbLine
 10
618.2430528373216
 20
332.5642345541128
 30
0.0000000000005163
 11
620.2430528373216
 21
337.0642345541128
 31
0.0000000000005163
  0
LINE
  5
462
330
1F
100
AcDbEntity
  8
OBRYS
  6
CONTINUOUS
100
AcDbLine
 10
661.9068828373216
 20
305.5642345541128
 30
0.0000000000005163
 11
661.9068828373216
 21
316.8386905541129
 31
0.0000000000005163
  0
LINE
  5
463
330
1F
100
AcDbEntity
  8
OBRYS
  6
CONTINUOUS
100
AcDbLine
 10
662.0568828373216
 20
318.5642345541128
 30
0.0000000000005163
 11
662.0568828373216
 21
330.5642345541128
 31
0.0000000000005163
  0
LINE
  5
464
330
1F
100
AcDbEntity
  8
OBRYS
  6
CONTINUOUS
100
AcDbLine
 10
650.9568828373217
 20
330.5642345541128
 30
0.0000000000005163
 11
650.9568828373217
 21
318.5642345541128
 31
0.0000000000005163
  0
LINE
  5
465
330
1F
100
AcDbEntity
  8
OBRYS
  6
CONTINUOUS
100
AcDbLine
 10
651.1068828373217
 20
316.8386905541129
 30
0.0000000000005163
 11
651.1068828373217
 21
305.5642345541128
 31
0.0000000000005163
  0
LINE
  5
466
330
1F
100
AcDbEntity
  8
OBRYS
  6
CONTINUOUS
100
AcDbLine
 10
651.0363828373216
 20
317.6496965541128
 30
0.0000000000005163
 11
661.9773828373217
 21
317.6496965541128
 31
0.0000000000005163
  0
LINE
  5
467
330
1F
100
AcDbEntity
  8
OBRYS
  6
CONTINUOUS
100
AcDbLine
 10
651.1068828373217
 20
316.8386905541129
 30
0.0000000000005163
 11
661.9068828373216
 21
316.8386905541129
 31
0.0000000000005163
  0
LINE
  5
468
330
1F
100
AcDbEntity
  8
OBRYS
  6
CONTINUOUS
100
AcDbLine
 10
650.9568828373217
 20
318.5642345541128
 30
0.0000000000005163
 11
662.0568828373216
 21
318.5642345541128
 31
0.0000000000005163
  0
LINE
  5
469
330
1F
100
AcDbEntity
  8
OBRYS
  6
CONTINUOUS
100
AcDbLine
 10
651.1068828373217
 20
305.5642345541128
 30
0.0000000000005163
 11
661.9068828373216
 21
305.5642345541128
 31
0.0000000000005163
  0
ARC
  5
46A
330
1F
100
AcDbEntity
  8
OBRYS
  6
CONTINUOUS
100
AcDbCircle
 10
656.2568828373217
 20
318.5642345541128
 30
0.0000000000005163
 40
5.3
100
AcDbArc
 50
180.0
 51
189.9363670000005
  0
ARC
  5
46B
330
1F
100
AcDbEntity
  8
OBRYS
  6
CONTINUOUS
100
AcDbCircle
 10
656.7568828373217
 20
318.5642345541128
 30
0.0000000000005163
 40
5.3
100
AcDbArc
 50
350.0636329999995
 51
0.0
  0
ARC
  5
46C
330
1F
100
AcDbEntity
  8
OBRYS
  6
CONTINUOUS
100
AcDbCircle
 10
-666.6068828373217
 20
316.8386905541129
 30
-0.0000000000005163
 40
4.699999999999999
210
0.0
220
0.0
230
-1.0
100
AcDbArc
 50
0.0
 51
9.936366999999722
  0
ARC
  5
46D
330
1F
100
AcDbEntity
  8
OBRYS
  6
CONTINUOUS
100
AcDbCircle
 10
-646.4068828373216
 20
316.8386905541129
 30
-0.0000000000005163
 40
4.699999999999999
210
0.0
220
0.0
230
-1.0
100
AcDbArc
 50
170.0636330000003
 51
180.0
  0
LINE
  5
46E
330
1F
100
AcDbEntity
  8
OBRYS
100
AcDbLine
 10
662.1068828373216
 20
290.3051165541128
 30
0.0000000000005163
 11
650.9068828373217
 21
290.3051165541128
 31
0.0000000000005163
  0
LINE
  5
46F
330
1F
100
AcDbEntity
  8
OBRYS
100
AcDbLine
 10
662.1068828373216
 20
280.7051165541128
 30
0.0000000000005163
 11
662.1068828373216
 21
290.3051165541128
 31
0.0000000000005163
  0
LINE
  5
470
330
1F
100
AcDbEntity
  8
OBRYS
100
AcDbLine
 10
651.0068828373217
 20
270.3051165541128
 30
0.0000000000005163
 11
651.0068828373217
 21
255.4508685541128
 31
0.0000000000005163
  0
LINE
  5
471
330
1F
100
AcDbEntity
  8
OBRYS
100
AcDbLine
 10
662.0068828373217
 20
255.4508685541128
 30
0.0000000000005163
 11
662.0068828373217
 21
270.3051165541128
 31
0.0000000000005163
  0
LINE
  5
472
330
1F
100
AcDbEntity
  8
OBRYS
100
AcDbLine
 10
649.0068828373217
 20
241.3051165541128
 30
0.0000000000005163
 11
649.0068828373217
 21
243.8056259419479
 31
0.0000000000005163
  0
LINE
  5
473
330
1F
100
AcDbEntity
  8
OBRYS
100
AcDbLine
 10
649.0068828373217
 20
241.3051165541128
 30
0.0000000000005163
 11
664.0068828373217
 21
241.3051165541128
 31
0.0000000000005163
  0
LINE
  5
474
330
1F
100
AcDbEntity
  8
OBRYS
100
AcDbLine
 10
649.0068828373217
 20
278.0537005541129
 30
0.0000000000005163
 11
649.0068828373217
 21
272.9883985541128
 31
0.0000000000005163
  0
LINE
  5
475
330
1F
100
AcDbEntity
  8
OBRYS
100
AcDbLine
 10
664.0068828373217
 20
272.9883985541128
 30
0.0000000000005163
 11
664.0068828373217
 21
278.0537005541129
 31
0.0000000000005163
  0
LINE
  5
476
330
1F
100
AcDbEntity
  8
OBRYS
100
AcDbLine
 10
657.3568828373216
 20
243.1182645541129
 30
0.0000000000005163
 11
657.3568828373216
 21
241.3051165541128
 31
0.0000000000005163
  0
LINE
  5
477
330
1F
100
AcDbEntity
  8
OBRYS
100
AcDbLine
 10
663.1568828373216
 20
241.3051165541128
 30
0.0000000000005163
 11
663.1568828373216
 21
243.1182645541129
 31
0.0000000000005163
  0
LINE
  5
478
330
1F
100
AcDbEntity
  8
OBRYS
100
AcDbLine
 10
655.6568828373216
 20
241.3051165541128
 30
0.0000000000005163
 11
655.6568828373216
 21
243.1182645541129
 31
0.0000000000005163
  0
LINE
  5
479
330
1F
100
AcDbEntity
  8
OBRYS
100
AcDbLine
 10
650.0068828373217
 20
252.8051165541128
 30
0.0000000000005163
 11
650.0068828373217
 21
246.2551165541129
 31
0.0000000000005163
  0
LINE
  5
47A
330
1F
100
AcDbEntity
  8
OBRYS
100
AcDbLine
 10
663.0068828373217
 20
246.2551165541129
 30
0.0000000000005163
 11
663.0068828373217
 21
252.8051165541128
 31
0.0000000000005163
  0
LINE
  5
47B
330
1F
100
AcDbEntity
  8
OBRYS
100
AcDbLine
 10
649.8568828373216
 20
243.1182645541129
 30
0.0000000000005163
 11
649.8568828373216
 21
241.3051165541128
 31
0.0000000000005163
  0
LINE
  5
47C
330
1F
100
AcDbEntity
  8
OBRYS
100
AcDbLine
 10
650.9068828373217
 20
290.3051165541128
 30
0.0000000000005163
 11
650.9068828373217
 21
280.7051165541128
 31
0.0000000000005163
  0
LINE
  5
47D
330
1F
100
AcDbEntity
  8
OBRYS
100
AcDbLine
 10
664.0068828373217
 20
243.1182645541129
 30
0.0000000000005163
 11
663.1568828373216
 21
243.1182645541129
 31
0.0000000000005163
  0
LINE
  5
47E
330
1F
100
AcDbEntity
  8
OBRYS
100
AcDbLine
 10
649.8568828373216
 20
243.1182645541129
 30
0.0000000000005163
 11
649.0068828373217
 21
243.1182645541129
 31
0.0000000000005163
  0
LINE
  5
47F
330
1F
100
AcDbEntity
  8
OBRYS
100
AcDbLine
 10
643.9568828373217
 20
239.6051165541129
 30
0.0000000000005163
 11
669.0568828373216
 21
239.6051165541129
 31
0.0000000000005163
  0
LINE
  5
480
330
1F
100
AcDbEntity
  8
OBRYS
100
AcDbLine
 10
669.7568828373217
 20
238.9051165541129
 30
0.0000000000005163
 11
643.2568828373217
 21
238.9051165541129
 31
0.0000000000005163
  0
LINE
  5
481
330
1F
100
AcDbEntity
  8
OBRYS
100
AcDbLine
 10
663.0068828373217
 20
246.2551165541129
 30
0.0000000000005163
 11
653.2568828373217
 21
246.2551165541129
 31
0.0000000000005163
  0
LINE
  5
482
330
1F
100
AcDbEntity
  8
OBRYS
100
AcDbLine
 10
653.2568828373217
 20
246.2551165541129
 30
0.0000000000005163
 11
650.0068828373217
 21
246.2551165541129
 31
0.0000000000005163
  0
LINE
  5
483
330
1F
100
AcDbEntity
  8
OBRYS
100
AcDbLine
 10
649.0068828373217
 20
272.9883985541128
 30
0.0000000000005163
 11
664.0068828373217
 21
272.9883985541128
 31
0.0000000000005163
  0
LINE
  5
484
330
1F
100
AcDbEntity
  8
OBRYS
100
AcDbLine
 10
649.9354542571743
 20
271.7425892549624
 30
0.0000000000005163
 11
663.0783128373216
 21
271.7425885541129
 31
0.0000000000005163
  0
LINE
  5
485
330
1F
100
AcDbEntity
  8
OBRYS
100
AcDbLine
 10
664.0068828373217
 20
278.0537005541129
 30
0.0000000000005163
 11
649.0068828373217
 21
278.0537005541129
 31
0.0000000000005163
  0
LINE
  5
486
330
1F
100
AcDbEntity
  8
OBRYS
100
AcDbLine
 10
657.3568828373216
 20
243.1182645541129
 30
0.0000000000005163
 11
655.6568828373216
 21
243.1182645541129
 31
0.0000000000005163
  0
LINE
  5
487
330
1F
100
AcDbEntity
  8
OBRYS
100
AcDbLine
 10
649.8890264657771
 20
279.2847160748324
 30
0.0000000000005163
 11
663.1247408373216
 21
279.2847145541128
 31
0.0000000000005163
  0
LINE
  5
488
330
1F
100
AcDbEntity
  8
OBRYS
100
AcDbLine
 10
650.9068828373217
 20
280.7051165541128
 30
0.0000000000005163
 11
662.1068828373216
 21
280.7051165541128
 31
0.0000000000005163
  0
LINE
  5
489
330
1F
100
AcDbEntity
  8
OBRYS
100
AcDbLine
 10
651.0068828373217
 20
270.3051165541128
 30
0.0000000000005163
 11
662.0068828373217
 21
270.3051165541128
 31
0.0000000000005163
  0
LINE
  5
48A
330
1F
100
AcDbEntity
  8
OBRYS
100
AcDbLine
 10
650.3818828404752
 20
253.7972739882733
 30
0.0000000000005163
 11
662.6318828373217
 21
253.7972725541129
 31
0.0000000000005163
  0
LINE
  5
48B
330
1F
100
AcDbEntity
  8
OBRYS
100
AcDbLine
 10
651.0068828373217
 20
255.4508685541128
 30
0.0000000000005163
 11
662.0068828373217
 21
255.4508685541128
 31
0.0000000000005163
  0
LINE
  5
48C
330
1F
100
AcDbEntity
  8
OBRYS
100
AcDbLine
 10
663.0068828373217
 20
252.8051165541128
 30
0.0000000000005163
 11
650.0068828373217
 21
252.8051165541128
 31
0.0000000000005163
  0
LINE
  5
48D
330
1F
100
AcDbEntity
  8
OBRYS
100
AcDbLine
 10
663.4354548373217
 20
245.2053345541128
 30
0.0000000000005163
 11
663.4354548373217
 21
245.2053345541128
 31
0.0000000000005163
  0
LINE
  5
48E
330
1F
100
AcDbEntity
  8
OBRYS
100
AcDbLine
 10
649.5783128373216
 20
245.2053345541128
 30
0.0000000000005163
 11
649.5783128373216
 21
245.2053345541128
 31
0.0000000000005163
  0
ARC
  5
48F
330
1F
100
AcDbEntity
  8
OBRYS
100
AcDbCircle
 10
665.7068828373217
 20
241.3051165541128
 30
0.0000000000005163
 40
1.7
100
AcDbArc
 50
180.0
 51
270.0
  0
ARC
  5
490
330
1F
100
AcDbEntity
  8
OBRYS
100
AcDbCircle
 10
647.3068828373216
 20
241.3051165541128
 30
0.0000000000005163
 40
1.7
100
AcDbArc
 50
270.0
 51
0.0
  0
ARC
  5
491
330
1F
100
AcDbEntity
  8
OBRYS
100
AcDbCircle
 10
669.0568828373216
 20
238.9051165541129
 30
0.0000000000005163
 40
0.7
100
AcDbArc
 50
0.0
 51
90.0
  0
ARC
  5
492
330
1F
100
AcDbEntity
  8
OBRYS
100
AcDbCircle
 10
643.9568828373217
 20
238.9051165541129
 30
0.0000000000005163
 40
0.7
100
AcDbArc
 50
90.0
 51
180.0
  0
ARC
  5
493
330
1F
100
AcDbEntity
  8
OBRYS
100
AcDbCircle
 10
-648.5068828373217
 20
246.2551165541129
 30
-0.0000000000005163
 40
1.499999999999972
210
0.0
220
0.0
230
-1.0
100
AcDbArc
 50
180.0
 51
224.4145999999994
  0
ARC
  5
494
330
1F
100
AcDbEntity
  8
OBRYS
100
AcDbCircle
 10
-664.5068828373217
 20
246.2551165541129
 30
-0.0000000000005163
 40
1.499999999999972
210
0.0
220
0.0
230
-1.0
100
AcDbArc
 50
315.5854029999996
 51
0.0
  0
ARC
  5
495
330
1F
100
AcDbEntity
  8
OBRYS
100
AcDbCircle
 10
650.3068828373216
 20
272.9883985541128
 30
0.0000000000005163
 40
1.299999999999997
100
AcDbArc
 50
180.0
 51
253.3984500000002
  0
ARC
  5
496
330
1F
100
AcDbEntity
  8
OBRYS
100
AcDbCircle
 10
662.7068828373217
 20
272.9883985541128
 30
0.0000000000005163
 40
1.299999999999997
100
AcDbArc
 50
286.6015499999998
 51
0.0
  0
ARC
  5
497
330
1F
100
AcDbEntity
  8
OBRYS
100
AcDbCircle
 10
662.7068828373217
 20
278.0537005541129
 30
0.0000000000005163
 40
1.3
100
AcDbArc
 50
0.0
 51
71.25065900000378
  0
ARC
  5
498
330
1F
100
AcDbEntity
  8
OBRYS
100
AcDbCircle
 10
-649.4068828373217
 20
280.7051165541128
 30
-0.0000000000005163
 40
1.5
210
0.0
220
0.0
230
-1.0
100
AcDbArc
 50
180.0
 51
251.2506590000042
  0
ARC
  5
499
330
1F
100
AcDbEntity
  8
OBRYS
100
AcDbCircle
 10
650.3068828373216
 20
278.0537005541129
 30
0.0000000000005163
 40
1.3
100
AcDbArc
 50
108.7493410000018
 51
180.0
  0
ARC
  5
49A
330
1F
100
AcDbEntity
  8
OBRYS
100
AcDbCircle
 10
-663.6068828373216
 20
280.7051165541128
 30
-0.0000000000005163
 40
1.5
210
0.0
220
0.0
230
-1.0
100
AcDbArc
 50
288.7493409999958
 51
0.0
  0
ARC
  5
49B
330
1F
100
AcDbEntity
  8
OBRYS
100
AcDbCircle
 10
-649.5068828373217
 20
270.3051165541128
 30
-0.0000000000005163
 40
1.499999999999998
210
0.0
220
0.0
230
-1.0
100
AcDbArc
 50
106.6015500000009
 51
180.0
  0
ARC
  5
49C
330
1F
100
AcDbEntity
  8
OBRYS
100
AcDbCircle
 10
-663.5068828373217
 20
270.3051165541128
 30
-0.0000000000005163
 40
1.499999999999998
210
0.0
220
0.0
230
-1.0
100
AcDbArc
 50
0.0
 51
73.39844999999913
  0
ARC
  5
49D
330
1F
100
AcDbEntity
  8
OBRYS
100
AcDbCircle
 10
651.5068828373217
 20
252.8051165541128
 30
0.0000000000005163
 40
1.5
100
AcDbArc
 50
138.5903780000009
 51
180.0
  0
ARC
  5
49E
330
1F
100
AcDbEntity
  8
OBRYS
100
AcDbCircle
 10
661.5068828373217
 20
252.8051165541128
 30
0.0000000000005163
 40
1.5
100
AcDbArc
 50
0.0
 51
41.4096219999983
  0
ARC
  5
49F
330
1F
100
AcDbEntity
  8
OBRYS
100
AcDbCircle
 10
-648.5068828373217
 20
255.4508685541128
 30
-0.0000000000005163
 40
2.5
210
0.0
220
0.0
230
-1.0
100
AcDbArc
 50
180.0
 51
221.4096220000015
  0
ARC
  5
4A0
330
1F
100
AcDbEntity
  8
OBRYS
100
AcDbCircle
 10
-664.5068828373217
 20
255.4508685541128
 30
-0.0000000000005163
 40
2.5
210
0.0
220
0.0
230
-1.0
100
AcDbArc
 50
318.5903779999998
 51
0.0
  0
ELLIPSE
  5
4A1
330
1F
100
AcDbEntity
  8
OBRYS
100
AcDbEllipse
 10
651.0068828373217
 20
243.8056265541128
 30
0.0000000000005163
 11
-2.0
 21
2.449293598294706E-16
 31
0.0
210
0.0
220
0.0
230
1.0
 40
1.0
 41
5.507982667701528
 42
6.283185613262047
  0
ELLIPSE
  5
4A2
330
1F
100
AcDbEntity
  8
OBRYS
100
AcDbEllipse
 10
658.2068828373217
 20
241.3051165541128
 30
0.0000000000005163
 11
2.081899558550500E-16
 21
1.7
 31
0.0
210
0.0
220
0.0
230
1.0
 40
0.5
 41
1.570796326794897
 42
3.141592653589793
  0
ELLIPSE
  5
4A3
330
1F
100
AcDbEntity
  8
OBRYS
100
AcDbEllipse
 10
664.0068828373217
 20
241.3051165541128
 30
0.0000000000005163
 11
2.081899558550500E-16
 21
1.7
 31
0.0
210
0.0
220
0.0
230
1.0
 40
0.5
 41
1.570796326794897
 42
3.141592653589793
  0
ELLIPSE
  5
4A4
330
1F
100
AcDbEntity
  8
OBRYS
100
AcDbEllipse
 10
654.8068828373216
 20
241.3051165541128
 30
0.0000000000005163
 11
2.081899558550500E-16
 21
1.7
 31
0.0
210
0.0
220
0.0
230
1.0
 40
0.5
 41
3.141592653589793
 42
4.71238898038469
  0
ELLIPSE
  5
4A5
330
1F
100
AcDbEntity
  8
OBRYS
100
AcDbEllipse
 10
649.0068828373217
 20
241.3051165541128
 30
0.0000000000005163
 11
2.081899558550500E-16
 21
1.7
 31
0.0
210
0.0
220
0.0
230
1.0
 40
0.5
 41
3.141592653589793
 42
4.71238898038469
  0
LINE
  5
4A6
330
1F
100
AcDbEntity
  8
OBRYS
100
AcDbLine
 10
664.0068836660648
 20
243.8056246572406
 30
0.0000000000005163
 11
663.4354548373217
 21
245.2053345541128
 31
0.0000000000005163
  0
LINE
  5
4A7
330
1F
100
AcDbEntity
  8
OBRYS
100
AcDbLine
 10
662.8229997976508
 20
244.9320645466237
 30
0.0000000000005163
 11
663.4354548373217
 21
245.2053345541128
 31
0.0000000000005163
  0
LINE
  5
4A8
330
1F
100
AcDbEntity
  8
OBRYS
100
AcDbLine
 10
663.1141087817593
 20
244.4371727474231
 30
0.0000000000005163
 11
662.8229997976508
 21
244.9320645466237
 31
0.0000000000005163
  0
LINE
  5
4A9
330
1F
100
AcDbEntity
  8
OBRYS
100
AcDbLine
 10
663.1568836660648
 20
243.1182638955722
 30
0.0000000000005163
 11
663.1141087817593
 21
244.4371727474231
 31
0.0000000000005163
  0
ARC
  5
4AA
330
1F
100
AcDbEntity
  8
OBRYS
100
AcDbCircle
 10
660.2568832410143
 20
237.3443416160177
 30
0.0000000000005163
 40
6.461283807145376
100
AcDbArc
 50
63.3315320092678
 51
116.6684679907324
  0
ARC
  5
4AB
330
1F
100
AcDbEntity
  8
OBRYS
100
AcDbCircle
 10
652.7568828373217
 20
237.3443433163587
 30
0.0000000000005163
 40
6.461282106500882
100
AcDbArc
 50
63.33152844085615
 51
116.668471559145
  0
LINE
  5
4AC
330
1F
100
AcDbEntity
  8
OBRYS
100
AcDbLine
 10
650.1907675344788
 20
244.9320645466255
 30
0.0000000000005163
 11
649.5783243916856
 21
245.2053484865941
 31
0.0000000000005163
  0
LINE
  5
4AD
330
1F
100
AcDbEntity
  8
OBRYS
100
AcDbLine
 10
650.1907675344788
 20
244.9320645466255
 30
0.0000000000005163
 11
649.8996585503478
 21
244.4371727473629
 31
0.0000000000005163
  0
LINE
  5
4AE
330
1F
100
AcDbEntity
  8
OBRYS
100
AcDbLine
 10
649.8996585503478
 20
244.4371727473629
 30
0.0000000000005163
 11
649.8568828373216
 21
243.1182645541129
 31
0.0000000000005163
  0
ARC
  5
4AF
330
1F
100
AcDbEntity
  8
OBRYS
100
AcDbCircle
 10
659.6649417318382
 20
226.9768476331383
 30
0.0000000000005163
 40
18.23082952466565
100
AcDbArc
 50
80.02454721482682
 51
99.97545278507849
  0
ARC
  5
4B0
330
1F
100
AcDbEntity
  8
OBRYS
100
AcDbCircle
 10
653.3488256002788
 20
227.0073525473462
 30
0.0000000000005163
 40
18.20078654904979
100
AcDbArc
 50
80.00791247672815
 51
99.99208752335652
  0
ARC
  5
4B1
330
1F
100
AcDbEntity
  8
OBRYS
100
AcDbCircle
 10
653.5602569603213
 20
242.2566622392242
 30
0.0000000000005163
 40
3.979998297662947
100
AcDbArc
 50
13.0856999129652
 51
42.23801244263377
  0
ARC
  5
4B2
330
1F
100
AcDbEntity
  8
OBRYS
100
AcDbCircle
 10
659.4476438032852
 20
242.2607637515325
 30
0.0000000000005163
 40
3.972897950190536
100
AcDbArc
 50
137.7489073055259
 51
166.9542713120922
  0
LINE
  5
4B3
330
1F
100
AcDbEntity
  8
OBRYS
100
AcDbLine
 10
664.0068836660648
 20
243.8056246572406
 30
0.0000000000005163
 11
664.0068836660648
 21
241.3051165541128
 31
0.0000000000005163
  0
LINE
  5
4B4
330
1F
100
AcDbEntity
  8
OBRYS
100
AcDbLine
 10
661.6068828373217
 20
290.3066785541129
 30
0.0000000000005163
 11
661.6058526175777
 21
296.9354565541129
 31
0.0000000000005163
  0
LINE
  5
4B5
330
1F
100
AcDbEntity
  8
OBRYS
100
AcDbLine
 10
651.4058526175777
 20
290.3051165541128
 30
0.0000000000005163
 11
651.4060912884661
 21
296.9364285579292
 31
0.0000000000005163
  0
ARC
  5
4B6
330
1F
100
AcDbEntity
  8
OBRYS
100
AcDbCircle
 10
659.0558526175777
 20
299.5525947610743
 30
0.0000000000005163
 40
2.623615742918852
100
AcDbArc
 50
193.6048455376763
 51
346.3951544623237
  0
ARC
  5
4B7
330
1F
100
AcDbEntity
  8
OBRYS
100
AcDbCircle
 10
653.9558526175776
 20
298.3098315541129
 30
0.0000000000005163
 40
2.625624999999946
100
AcDbArc
 50
13.78484624497081
 51
166.2151537550286
  0
ARC
  5
4B8
330
1F
100
AcDbEntity
  8
OBRYS
100
AcDbCircle
 10
659.0558526175777
 20
297.5525947610743
 30
0.0000000000005163
 40
2.623615742918852
100
AcDbArc
 50
193.6048455376763
 51
346.3951544623237
  0
ARC
  5
4B9
330
1F
100
AcDbEntity
  8
OBRYS
100
AcDbCircle
 10
653.9558526175776
 20
296.3098315541129
 30
0.0000000000005163
 40
2.625624999999946
100
AcDbArc
 50
13.78484624497081
 51
166.2151537550286
  0
LINE
  5
4BA
330
1F
100
AcDbEntity
  8
OBRYS
100
AcDbLine
 10
651.4058526175777
 20
298.9354565541129
 30
0.0000000000005163
 11
651.4058526175777
 21
305.5642345541128
 31
0.0000000000005163
  0
LINE
  5
4BB
330
1F
100
AcDbEntity
  8
OBRYS
100
AcDbLine
 10
661.6058526175777
 20
298.9354565541129
 30
0.0000000000005163
 11
661.6058526175777
 21
305.5642345541128
 31
0.0000000000005163
  0
LINE
  5
4BC
330
1F
100
AcDbEntity
  8
OBRYS
100
AcDbLine
 10
654.1068828373216
 20
337.0642345541128
 30
0.0000000000005163
 11
661.5068826857515
 21
332.5642341537339
 31
0.0000000000005163
  0
LINE
  5
4BD
330
1F
100
AcDbEntity
  8
OBRYS
100
AcDbLine
 10
653.1068828373216
 20
337.0642345541128
 30
0.0000000000005163
 11
656.5068827615365
 21
332.5642343539234
 31
0.0000000000005163
  0
LINE
  5
4BE
330
1F
100
AcDbEntity
  8
OBRYS
100
AcDbLine
 10
652.5068828373217
 20
337.0642345541128
 30
0.0000000000005163
 11
656.5068827615365
 21
332.5642343539234
 31
0.0000000000005163
  0
LINE
  5
4BF
330
1F
100
AcDbEntity
  8
OBRYS
100
AcDbLine
 10
654.1068828373216
 20
337.0642345541128
 30
0.0000000000005163
 11
651.5068127485962
 21
337.0642442841732
 31
0.0000000000005163
  0
ARC
  5
4C0
330
1F
100
AcDbEntity
  8
OBRYS
100
AcDbCircle
 10
652.4709249712387
 20
356.0652273513304
 30
0.0000000000005163
 40
1.001638431877834
100
AcDbArc
 50
195.7478966998748
 51
272.0573059861873
  0
ARC
  5
4C1
330
1F
100
AcDbEntity
  8
OBRYS
100
AcDbCircle
 10
653.1229021127413
 20
356.0925724368781
 30
0.0000000000005163
 40
1.028462647992146
100
AcDbArc
 50
269.1075281236672
 51
343.0872684089949
  0
DIMENSION
  5
4CB
330
1F
100
AcDbEntity
  8
KOTY
100
AcDbDimension
  2
*D0
 10
626.4930528373216
 20
228.5676165541128
 30
0.0
 11
613.2430528373216
 21
231.9696165541128
 31
0.0
 70
    32
  1
\U+00F8 26,5
  3
STANDARD
100
AcDbAlignedDimension
 13
599.9930528373216
 23
228.5051165541128
 33
0.0000000000005163
 14
626.4930528373216
 24
228.5051165541128
 34
0.0000000000005163
100
AcDbRotatedDimension
1001
ACAD
1000
DSTYLE
1002
{
1070
   271
1070
     1
1070
   278
1070
    44
1070
   140
1040
4.0
1070
    73
1070
     0
1070
    77
1070
     1
1070
   147
1040
1.0
1070
    41
1040
4.0
1002
}
  0
DIMENSION
  5
4DE
330
1F
100
AcDbEntity
  8
KOTY
100
AcDbDimension
  2
*D1
 10
589.772761572855
 20
203.7551165541128
 30
0.0
 11
586.3707615728549
 21
190.2551165541128
 31
0.0
 70
    32
  3
STANDARD
100
AcDbAlignedDimension
 13
609.8430528373217
 23
176.7551165541128
 33
0.0000000000005163
 14
606.7430528373216
 24
203.7551165541128
 34
0.0000000000005163
 50
90.0
100
AcDbRotatedDimension
1001
ACAD
1000
DSTYLE
1002
{
1070
   271
1070
     1
1070
   278
1070
    44
1070
   140
1040
4.0
1070
    73
1070
     0
1070
    77
1070
     1
1070
   147
1040
1.0
1070
    41
1040
4.0
1002
}
  0
DIMENSION
  5
4EE
330
1F
100
AcDbEntity
  8
KOTY
100
AcDbDimension
  2
*D2
 10
617.2430528373216
 20
168.5077045437807
 30
0.0
 11
629.7910528373216
 21
171.5497045437807
 31
0.0
 70
    32
  1
M8
  3
STANDARD
100
AcDbAlignedDimension
 13
609.2430528373216
 23
177.3551165541128
 33
0.0000000000005163
 14
617.2430528373216
 24
177.3551165541128
 34
0.0000000000005163
100
AcDbRotatedDimension
1001
ACAD
1000
DSTYLE
1002
{
1070
   271
1070
     1
1070
   278
1070
    44
1070
   140
1040
4.0
1070
    73
1070
     0
1070
    77
1070
     1
1070
   147
1040
1.0
1070
    41
1040
4.0
1002
}
  0
DIMENSION
  5
4FE
330
1F
100
AcDbEntity
  8
KOTY
100
AcDbDimension
  2
*D3
 10
571.3906685598279
 20
346.5642345541128
 30
0.0
 11
567.9886685598278
 21
261.6596755541128
 31
0.0
 70
    32
  1
306,0
  3
STANDARD
100
AcDbAlignedDimension
 13
609.8430528373217
 23
176.7551165541128
 33
0.0000000000005163
 14
613.2430528373216
 24
346.5642345541128
 34
0.0000000000005163
 50
90.0
100
AcDbRotatedDimension
1001
ACAD
1000
DSTYLE
1002
{
1070
   271
1070
     1
1070
   278
1070
    44
1070
   140
1040
4.0
1070
    73
1070
     0
1070
    77
1070
     1
1070
   147
1040
1.0
1070
    41
1040
4.0
1002
}
  0
DIMENSION
  5
50F
330
1F
100
AcDbEntity
  8
KOTY
100
AcDbDimension
  2
*D4
 10
610.7699324986204
 20
343.1695805525536
 30
0.0000000000005163
 11
626.7028785830726
 21
356.4248961776898
 31
0.0000000000005163
 70
   163
  1
<>
  3
STANDARD
100
AcDbDiametricDimension
 15
615.7161731760227
 25
349.9588885556721
 35
0.0000000000005163
 40
0.0
1001
ACAD_DSTYLE_DIMRADIAL_EXTE
1070
   387
1070
     1
1070
   388
1040
0.0
1070
   390
1040
6.283185307179586
1001
ACAD
1000
DSTYLE
1002
{
1070
   271
1070
     1
1070
   278
1070
    44
1070
   140
1040
4.0
1070
    73
1070
     0
1070
    77
1070
     1
1070
   147
1040
1.0
1070
    41
1040
4.0
1002
}
  0
VIEWPORT
  5
525
330
521
100
AcDbEntity
 67
     1
  8
0
100
AcDbViewport
 10
0.0
 20
0.0
 30
0.0
 40
8.976
 41
6.936000000000001
 68
     1
 69
     1
1001
ACAD
1000
MVIEW
1002
{
1070
    16
1010
0.0
1020
0.0
1030
0.0
1010
0.0
1020
0.0
1030
1.0
1040
0.0
1040
6.936000000000001
1040
5.25
1040
4.0
1040
50.0
1040
0.0
1040
0.0
1070
     0
1070
   100
1070
     0
1070
     3
1070
     0
1070
     0
1070
     0
1070
     0
1040
0.0
1040
0.0
1040
0.0
1040
0.5
1040
0.5
1040
0.0
1040
0.0
1070
     0
1002
{
1002
}
1002
}
  0
VIEWPORT
  5
526
330
521
100
AcDbEntity
 67
     1
  8
0
100
AcDbViewport
 10
5.25
 20
4.0
 30
0.0
 40
8.4
 41
6.4
 68
     2
 69
     2
1001
ACAD
1000
MVIEW
1002
{
1070
    16
1010
0.0
1020
0.0
1030
0.0
1010
0.0
1020
0.0
1030
1.0
1040
0.0
1040
198.2837754665872
1040
617.6677756985748
1040
265.0389670274019
1040
50.0
1040
0.0
1040
0.0
1070
     0
1070
   100
1070
     0
1070
     3
1070
     0
1070
     0
1070
     0
1070
     0
1040
0.0
1040
0.0
1040
0.0
1040
0.5
1040
0.5
1040
0.0
1040
0.0
1070
     0
1002
{
1002
}
1002
}
  0
ENDSEC
  0
SECTION
  2
OBJECTS
  0
DICTIONARY
  5
C
330
0
100
AcDbDictionary
  3
ACAD_DETAILVIEWSTYLE
350
122
  3
ACAD_GROUP
350
D
  3
ACAD_IMAGE_VARS
350
DC
  3
ACAD_MLINESTYLE
350
17
  3
ACAD_SCALELIST
350
529
  3
ACAD_SECTIONVIEWSTYLE
350
123
  3
ACDBVARIABLEDICTIONARY
350
66
  3
APPDATA
350
E1
  3
DWGPROPS
350
56F
  0
DICTIONARY
  5
4C2
330
2
100
AcDbDictionary
280
     1
  3
ACAD_LAYERSTATES
360
4C3
  3
ACLYDICTIONARY
360
4C9
  0
DICTIONARY
  5
122
102
{ACAD_REACTORS
330
C
102
}
330
C
100
AcDbDictionary
  0
DICTIONARY
  5
D
102
{ACAD_REACTORS
330
C
102
}
330
C
100
AcDbDictionary
  0
RASTERVARIABLES
  5
DC
102
{ACAD_REACTORS
330
C
102
}
330
C
100
AcDbRasterVariables
 90
        0
 70
     1
 71
     1
 72
     5
  0
DICTIONARY
  5
17
102
{ACAD_REACTORS
330
C
102
}
330
C
100
AcDbDictionary
  3
STANDARD
350
18
  0
DICTIONARY
  5
529
102
{ACAD_REACTORS
330
C
102
}
330
C
100
AcDbDictionary
  0
DICTIONARY
  5
123
102
{ACAD_REACTORS
330
C
102
}
330
C
100
AcDbDictionary
  0
DICTIONARY
  5
66
102
{ACAD_REACTORS
330
C
102
}
330
C
100
AcDbDictionary
  3
DIMASSOC
350
67
  3
HIDETEXT
350
6B
  0
DICTIONARY
  5
E1
102
{ACAD_REACTORS
330
C
102
}
330
C
100
AcDbDictionary
  0
XRECORD
  5
56F
102
{ACAD_REACTORS
330
C
102
}
330
C
100
AcDbXrecord
  1
DWGPROPS COOKIE
  2

  3

  4

  6

  7

  8
jaromir.podrabsky
  9

300
=
301
=
302
=
303
=
304
=
305
=
306
=
307
=
308
=
309
=
 40
0.0
 41
2452643.063384259
 42
2457042.507619329
  1

 90
        0
  0
DICTIONARY
  5
4C3
102
{ACAD_REACTORS
330
4C2
102
}
330
4C2
100
AcDbDictionary
  0
DICTIONARY
  5
4C9
102
{ACAD_REACTORS
330
4C2
102
}
330
4C2
100
AcDbDictionary
1001
ACAD
1000
<All
  0
MLINESTYLE
  5
18
102
{ACAD_REACTORS
330
17
102
}
330
17
100
AcDbMlineStyle
  2
STANDARD
 70
     0
  3

 62
   256
 51
90.0
 52
90.0
 71
     2
 49
0.5
 62
   256
  6
BYLAYER
 49
-0.5
 62
   256
  6
BYLAYER
  0
DICTIONARYVAR
  5
67
102
{ACAD_REACTORS
330
66
102
}
330
66
100
DictionaryVariables
280
     0
  1
2
  0
DICTIONARYVAR
  5
6B
102
{ACAD_REACTORS
330
66
102
}
330
66
100
DictionaryVariables
280
     0
  1
1
  0
ENDSEC
  0
EOF
