  0
SECTION
  2
HEADER
  9
$ACADVER
  1
AC1027
  9
$ACADMAINTVER
 70
     8
  9
$DWGCODEPAGE
  3
ANSI_1250
  9
$REQUIREDVERSIONS
160
                 0
  9
$LASTSAVEDBY
  1
jaromir.podrabsky
  9
$INSBASE
 10
0.0
 20
0.0
 30
0.0
  9
$EXTMIN
 10
1.000000000000000E+20
 20
1.000000000000000E+20
 30
1.000000000000000E+20
  9
$EXTMAX
 10
-1.000000000000000E+20
 20
-1.000000000000000E+20
 30
-1.000000000000000E+20
  9
$LIMMIN
 10
0.0
 20
0.0
  9
$LIMMAX
 10
12.0
 20
9.0
  9
$ORTHOMODE
 70
     0
  9
$REGENMODE
 70
     1
  9
$FILLMODE
 70
     1
  9
$QTEXTMODE
 70
     0
  9
$MIRRTEXT
 70
     0
  9
$LTSCALE
 40
1.0
  9
$ATTMODE
 70
     1
  9
$TEXTSIZE
 40
0.2
  9
$TRACEWID
 40
0.05
  9
$TEXTSTYLE
  7
Standard
  9
$CLAYER
  8
Koty
  9
$CELTYPE
  6
ByLayer
  9
$CECOLOR
 62
   256
  9
$CELTSCALE
 40
1.0
  9
$DISPSILH
 70
     0
  9
$DIMSCALE
 40
1.0
  9
$DIMASZ
 40
0.18
  9
$DIMEXO
 40
0.0625
  9
$DIMDLI
 40
0.38
  9
$DIMRND
 40
0.0
  9
$DIMDLE
 40
0.0
  9
$DIMEXE
 40
0.18
  9
$DIMTP
 40
0.0
  9
$DIMTM
 40
0.0
  9
$DIMTXT
 40
0.18
  9
$DIMCEN
 40
0.09
  9
$DIMTSZ
 40
0.0
  9
$DIMTOL
 70
     0
  9
$DIMLIM
 70
     0
  9
$DIMTIH
 70
     1
  9
$DIMTOH
 70
     1
  9
$DIMSE1
 70
     0
  9
$DIMSE2
 70
     0
  9
$DIMTAD
 70
     0
  9
$DIMZIN
 70
     0
  9
$DIMBLK
  1

  9
$DIMASO
 70
     1
  9
$DIMSHO
 70
     1
  9
$DIMPOST
  1

  9
$DIMAPOST
  1

  9
$DIMALT
 70
     0
  9
$DIMALTD
 70
     2
  9
$DIMALTF
 40
25.4
  9
$DIMLFAC
 40
1.0
  9
$DIMTOFL
 70
     0
  9
$DIMTVP
 40
0.0
  9
$DIMTIX
 70
     0
  9
$DIMSOXD
 70
     0
  9
$DIMSAH
 70
     0
  9
$DIMBLK1
  1

  9
$DIMBLK2
  1

  9
$DIMSTYLE
  2
Standard
  9
$DIMCLRD
 70
     0
  9
$DIMCLRE
 70
     0
  9
$DIMCLRT
 70
     0
  9
$DIMTFAC
 40
1.0
  9
$DIMGAP
 40
0.09
  9
$DIMJUST
 70
     0
  9
$DIMSD1
 70
     0
  9
$DIMSD2
 70
     0
  9
$DIMTOLJ
 70
     1
  9
$DIMTZIN
 70
     0
  9
$DIMALTZ
 70
     0
  9
$DIMALTTZ
 70
     0
  9
$DIMUPT
 70
     0
  9
$DIMDEC
 70
     4
  9
$DIMTDEC
 70
     4
  9
$DIMALTU
 70
     2
  9
$DIMALTTD
 70
     2
  9
$DIMTXSTY
  7
Standard
  9
$DIMAUNIT
 70
     0
  9
$DIMADEC
 70
     0
  9
$DIMALTRND
 40
0.0
  9
$DIMAZIN
 70
     0
  9
$DIMDSEP
 70
    46
  9
$DIMATFIT
 70
     3
  9
$DIMFRAC
 70
     0
  9
$DIMLDRBLK
  1

  9
$DIMLUNIT
 70
     2
  9
$DIMLWD
 70
    -2
  9
$DIMLWE
 70
    -2
  9
$DIMTMOVE
 70
     0
  9
$DIMFXL
 40
1.0
  9
$DIMFXLON
 70
     0
  9
$DIMJOGANG
 40
0.7853981633974483
  9
$DIMTFILL
 70
     0
  9
$DIMTFILLCLR
 70
     0
  9
$DIMARCSYM
 70
     0
  9
$DIMLTYPE
  6

  9
$DIMLTEX1
  6

  9
$DIMLTEX2
  6

  9
$DIMTXTDIRECTION
 70
     0
  9
$LUNITS
 70
     2
  9
$LUPREC
 70
     4
  9
$SKETCHINC
 40
0.1
  9
$FILLETRAD
 40
0.0
  9
$AUNITS
 70
     0
  9
$AUPREC
 70
     0
  9
$MENU
  1
.
  9
$ELEVATION
 40
0.0
  9
$PELEVATION
 40
0.0
  9
$THICKNESS
 40
0.0
  9
$LIMCHECK
 70
     0
  9
$CHAMFERA
 40
0.0
  9
$CHAMFERB
 40
0.0
  9
$CHAMFERC
 40
0.0
  9
$CHAMFERD
 40
0.0
  9
$SKPOLY
 70
     0
  9
$TDCREATE
 40
2452643.146717604
  9
$TDUCREATE
 40
2452643.063384271
  9
$TDUPDATE
 40
2457606.558828171
  9
$TDUUPDATE
 40
2457606.475494838
  9
$TDINDWG
 40
0.0058040162
  9
$TDUSRTIMER
 40
2457606.475232419
  9
$USRTIMER
 70
     1
  9
$ANGBASE
 50
0.0
  9
$ANGDIR
 70
     0
  9
$PDMODE
 70
     0
  9
$PDSIZE
 40
0.0
  9
$PLINEWID
 40
0.0
  9
$SPLFRAME
 70
     0
  9
$SPLINETYPE
 70
     6
  9
$SPLINESEGS
 70
     8
  9
$HANDSEED
  5
350
  9
$SURFTAB1
 70
     6
  9
$SURFTAB2
 70
     6
  9
$SURFTYPE
 70
     6
  9
$SURFU
 70
     6
  9
$SURFV
 70
     6
  9
$UCSBASE
  2

  9
$UCSNAME
  2

  9
$UCSORG
 10
0.0
 20
0.0
 30
0.0
  9
$UCSXDIR
 10
1.0
 20
0.0
 30
0.0
  9
$UCSYDIR
 10
0.0
 20
1.0
 30
0.0
  9
$UCSORTHOREF
  2

  9
$UCSORTHOVIEW
 70
     0
  9
$UCSORGTOP
 10
0.0
 20
0.0
 30
0.0
  9
$UCSORGBOTTOM
 10
0.0
 20
0.0
 30
0.0
  9
$UCSORGLEFT
 10
0.0
 20
0.0
 30
0.0
  9
$UCSORGRIGHT
 10
0.0
 20
0.0
 30
0.0
  9
$UCSORGFRONT
 10
0.0
 20
0.0
 30
0.0
  9
$UCSORGBACK
 10
0.0
 20
0.0
 30
0.0
  9
$PUCSBASE
  2

  9
$PUCSNAME
  2

  9
$PUCSORG
 10
0.0
 20
0.0
 30
0.0
  9
$PUCSXDIR
 10
1.0
 20
0.0
 30
0.0
  9
$PUCSYDIR
 10
0.0
 20
1.0
 30
0.0
  9
$PUCSORTHOREF
  2

  9
$PUCSORTHOVIEW
 70
     0
  9
$PUCSORGTOP
 10
0.0
 20
0.0
 30
0.0
  9
$PUCSORGBOTTOM
 10
0.0
 20
0.0
 30
0.0
  9
$PUCSORGLEFT
 10
0.0
 20
0.0
 30
0.0
  9
$PUCSORGRIGHT
 10
0.0
 20
0.0
 30
0.0
  9
$PUCSORGFRONT
 10
0.0
 20
0.0
 30
0.0
  9
$PUCSORGBACK
 10
0.0
 20
0.0
 30
0.0
  9
$USERI1
 70
     0
  9
$USERI2
 70
     0
  9
$USERI3
 70
     0
  9
$USERI4
 70
     0
  9
$USERI5
 70
     0
  9
$USERR1
 40
0.0
  9
$USERR2
 40
0.0
  9
$USERR3
 40
0.0
  9
$USERR4
 40
0.0
  9
$USERR5
 40
0.0
  9
$WORLDVIEW
 70
     1
  9
$SHADEDGE
 70
     3
  9
$SHADEDIF
 70
    70
  9
$TILEMODE
 70
     0
  9
$MAXACTVP
 70
    64
  9
$PINSBASE
 10
0.0
 20
0.0
 30
0.0
  9
$PLIMCHECK
 70
     0
  9
$PEXTMIN
 10
1.05
 20
0.6999999999999997
 30
0.0
  9
$PEXTMAX
 10
9.45
 20
6.300000000000001
 30
0.0
  9
$PLIMMIN
 10
-0.25
 20
-0.7499999999999999
  9
$PLIMMAX
 10
10.75
 20
7.75
  9
$UNITMODE
 70
     0
  9
$VISRETAIN
 70
     1
  9
$PLINEGEN
 70
     0
  9
$PSLTSCALE
 70
     1
  9
$TREEDEPTH
 70
  3020
  9
$CMLSTYLE
  2
Standard
  9
$CMLJUST
 70
     0
  9
$CMLSCALE
 40
1.0
  9
$PROXYGRAPHICS
 70
     1
  9
$MEASUREMENT
 70
     0
  9
$CELWEIGHT
370
    -1
  9
$ENDCAPS
280
     0
  9
$JOINSTYLE
280
     0
  9
$LWDISPLAY
290
     0
  9
$INSUNITS
 70
     1
  9
$HYPERLINKBASE
  1

  9
$STYLESHEET
  1

  9
$XEDIT
290
     1
  9
$CEPSNTYPE
380
     0
  9
$PSTYLEMODE
290
     1
  9
$FINGERPRINTGUID
  2
{FDEAD576-A652-11D2-9A35-0060089B3A3F}
  9
$VERSIONGUID
  2
{FBC2AE19-5C5C-49EC-81BC-71B1A3362A02}
  9
$EXTNAMES
290
     1
  9
$PSVPSCALE
 40
0.0
  9
$OLESTARTUP
290
     0
  9
$SORTENTS
280
   127
  9
$INDEXCTL
280
     0
  9
$HIDETEXT
280
     1
  9
$XCLIPFRAME
280
     0
  9
$HALOGAP
280
     0
  9
$OBSCOLOR
 70
   257
  9
$OBSLTYPE
280
     0
  9
$INTERSECTIONDISPLAY
280
     0
  9
$INTERSECTIONCOLOR
 70
   257
  9
$DIMASSOC
280
     2
  9
$PROJECTNAME
  1

  9
$CAMERADISPLAY
290
     0
  9
$LENSLENGTH
 40
50.0
  9
$CAMERAHEIGHT
 40
0.0
  9
$STEPSPERSEC
 40
2.0
  9
$STEPSIZE
 40
6.0
  9
$3DDWFPREC
 40
2.0
  9
$PSOLWIDTH
 40
0.25
  9
$PSOLHEIGHT
 40
4.0
  9
$LOFTANG1
 40
1.570796326794897
  9
$LOFTANG2
 40
1.570796326794897
  9
$LOFTMAG1
 40
0.0
  9
$LOFTMAG2
 40
0.0
  9
$LOFTPARAM
 70
     7
  9
$LOFTNORMALS
280
     1
  9
$LATITUDE
 40
37.795
  9
$LONGITUDE
 40
-122.394
  9
$NORTHDIRECTION
 40
0.0
  9
$TIMEZONE
 70
 -8000
  9
$LIGHTGLYPHDISPLAY
280
     1
  9
$TILEMODELIGHTSYNCH
280
     1
  9
$CMATERIAL
347
96
  9
$SOLIDHIST
280
     1
  9
$SHOWHIST
280
     1
  9
$DWFFRAME
280
     2
  9
$DGNFRAME
280
     0
  9
$REALWORLDSCALE
290
     1
  9
$INTERFERECOLOR
 62
     1
  9
$CSHADOW
280
     0
  9
$SHADOWPLANELOCATION
 40
0.0
  0
ENDSEC
  0
SECTION
  2
CLASSES
  0
CLASS
  1
ACDBDICTIONARYWDFLT
  2
AcDbDictionaryWithDefault
  3
ObjectDBX Classes
 90
        0
 91
        4
280
     0
281
     0
  0
CLASS
  1
ACDBPLACEHOLDER
  2
AcDbPlaceHolder
  3
ObjectDBX Classes
 90
        0
 91
        1
280
     0
281
     0
  0
CLASS
  1
LAYOUT
  2
AcDbLayout
  3
ObjectDBX Classes
 90
        0
 91
        1
280
     0
281
     0
  0
CLASS
  1
DICTIONARYVAR
  2
AcDbDictionaryVar
  3
ObjectDBX Classes
 90
        0
 91
        4
280
     0
281
     0
  0
CLASS
  1
TABLESTYLE
  2
AcDbTableStyle
  3
ObjectDBX Classes
 90
     4095
 91
        4
280
     0
281
     0
  0
CLASS
  1
MATERIAL
  2
AcDbMaterial
  3
ObjectDBX Classes
 90
     1153
 91
        4
280
     0
281
     0
  0
CLASS
  1
VISUALSTYLE
  2
AcDbVisualStyle
  3
ObjectDBX Classes
 90
     4095
 91
        4
280
     0
281
     0
  0
CLASS
  1
SCALE
  2
AcDbScale
  3
ObjectDBX Classes
 90
     1153
 91
        4
280
     0
281
     0
  0
CLASS
  1
CELLSTYLEMAP
  2
AcDbCellStyleMap
  3
ObjectDBX Classes
 90
     1152
 91
        4
280
     0
281
     0
  0
CLASS
  1
RASTERVARIABLES
  2
AcDbRasterVariables
  3
ISM
 90
        0
 91
        4
280
     0
281
     0
  0
CLASS
  1
SUN
  2
AcDbSun
  3
SCENEOE
 90
     1153
 91
        4
280
     0
281
     0
  0
CLASS
  1
MLEADERSTYLE
  2
AcDbMLeaderStyle
  3
ACDB_MLEADERSTYLE_CLASS
 90
     4095
 91
        4
280
     0
281
     0
  0
CLASS
  1
DIMASSOC
  2
AcDbDimAssoc
  3
"AcDbDimAssoc|Product Desc:     AcDim ARX App For Dimension|Company:          Autodesk, Inc.|WEB Address:      www.autodesk.com"
 90
        0
 91
        4
280
     0
281
     0
  0
ENDSEC
  0
SECTION
  2
TABLES
  0
TABLE
  2
VPORT
  5
8
330
0
100
AcDbSymbolTable
 70
     1
  0
VPORT
  5
94
330
8
100
AcDbSymbolTableRecord
100
AcDbViewportTableRecord
  2
*Active
 70
     0
 10
0.0
 20
0.0
 11
1.0
 21
1.0
 12
273.1197252383869
 22
177.4503052769596
 13
0.0
 23
0.0
 14
0.5
 24
0.5
 15
0.5
 25
0.5
 16
0.0
 26
0.0
 36
1.0
 17
-27.66959356598008
 27
-19.538702957862
 37
0.0
 40
391.0015168782722
 41
1.943696450428397
 42
50.0
 43
0.0
 44
0.0
 50
0.0
 51
0.0
 71
    16
 72
  1000
 73
     1
 74
     3
 75
     0
 76
     0
 77
     0
 78
     0
281
     0
 65
     1
110
0.0
120
0.0
130
0.0
111
1.0
121
0.0
131
0.0
112
0.0
122
1.0
132
0.0
 79
     0
146
0.0
348
9F
 60
     2
 61
     5
292
     1
282
     1
141
0.0
142
0.0
 63
   250
421
  3355443
361
ED
  0
ENDTAB
  0
TABLE
  2
LTYPE
  5
5
330
0
100
AcDbSymbolTable
 70
     1
  0
LTYPE
  5
14
330
5
100
AcDbSymbolTableRecord
100
AcDbLinetypeTableRecord
  2
ByBlock
 70
     0
  3

 72
    65
 73
     0
 40
0.0
  0
LTYPE
  5
15
330
5
100
AcDbSymbolTableRecord
100
AcDbLinetypeTableRecord
  2
ByLayer
 70
     0
  3
Solid line
 72
    65
 73
     0
 40
0.0
  0
LTYPE
  5
16
330
5
100
AcDbSymbolTableRecord
100
AcDbLinetypeTableRecord
  2
Continuous
 70
     0
  3
Solid line
 72
    65
 73
     0
 40
0.0
  0
ENDTAB
  0
TABLE
  2
LAYER
  5
2
102
{ACAD_XDICTIONARY
360
2D4
102
}
330
0
100
AcDbSymbolTable
 70
     4
  0
LAYER
  5
10
330
2
100
AcDbSymbolTableRecord
100
AcDbLayerTableRecord
  2
0
 70
     0
 62
     7
  6
Continuous
370
    -3
390
F
347
98
348
0
  0
LAYER
  5
2D7
330
2
100
AcDbSymbolTableRecord
100
AcDbLayerTableRecord
  2
Koty
 70
     0
 62
     1
  6
Continuous
370
     5
390
F
347
98
348
0
1001
AcAecLayerStandard
1000

1000

1001
AcCmTransparency
1071
 33554687
  0
LAYER
  5
2D9
330
2
100
AcDbSymbolTableRecord
100
AcDbLayerTableRecord
  2
Obrys
 70
     0
 62
     5
  6
Continuous
370
    30
390
F
347
98
348
0
1001
AcAecLayerStandard
1000

1000

  0
LAYER
  5
2E3
330
2
100
AcDbSymbolTableRecord
100
AcDbLayerTableRecord
  2
Defpoints
 70
     0
 62
     7
  6
Continuous
290
     0
370
    -3
390
F
347
98
348
0
  0
ENDTAB
  0
TABLE
  2
STYLE
  5
3
330
0
100
AcDbSymbolTable
 70
     1
  0
STYLE
  5
11
330
3
100
AcDbSymbolTableRecord
100
AcDbTextStyleTableRecord
  2
Standard
 70
     0
 40
0.0
 41
1.0
 50
0.0
 71
     0
 42
0.2
  3
arial.ttf
  4

1001
ACAD
1000
Arial
1071
        0
  0
ENDTAB
  0
TABLE
  2
VIEW
  5
6
330
0
100
AcDbSymbolTable
 70
     0
  0
ENDTAB
  0
TABLE
  2
UCS
  5
7
330
0
100
AcDbSymbolTable
 70
     0
  0
ENDTAB
  0
TABLE
  2
APPID
  5
9
330
0
100
AcDbSymbolTable
 70
     4
  0
APPID
  5
12
330
9
100
AcDbSymbolTableRecord
100
AcDbRegAppTableRecord
  2
ACAD
 70
     0
  0
APPID
  5
2D8
330
9
100
AcDbSymbolTableRecord
100
AcDbRegAppTableRecord
  2
AcAecLayerStandard
 70
     0
  0
APPID
  5
2DA
330
9
100
AcDbSymbolTableRecord
100
AcDbRegAppTableRecord
  2
AcCmTransparency
 70
     0
  0
APPID
  5
334
330
9
100
AcDbSymbolTableRecord
100
AcDbRegAppTableRecord
  2
ACAD_DSTYLE_DIMRADIAL_EXTENSION
 70
     0
  0
ENDTAB
  0
TABLE
  2
DIMSTYLE
  5
A
330
0
100
AcDbSymbolTable
 70
     1
100
AcDbDimStyleTable
  0
DIMSTYLE
105
27
102
{ACAD_REACTORS
330
2E4
330
2F4
330
304
330
314
330
324
330
335
102
}
330
A
100
AcDbSymbolTableRecord
100
AcDbDimStyleTableRecord
  2
Standard
 70
     0
178
     0
340
11
  0
ENDTAB
  0
TABLE
  2
BLOCK_RECORD
  5
1
330
0
100
AcDbSymbolTable
 70
     8
  0
BLOCK_RECORD
  5
1F
330
1
100
AcDbSymbolTableRecord
100
AcDbBlockTableRecord
  2
*Model_Space
340
22
 70
     0
280
     1
281
     0
  0
BLOCK_RECORD
  5
58
330
1
100
AcDbSymbolTableRecord
100
AcDbBlockTableRecord
  2
*Paper_Space
340
59
 70
     0
280
     1
281
     0
  0
BLOCK_RECORD
  5
2E7
330
1
100
AcDbSymbolTableRecord
100
AcDbBlockTableRecord
  2
*D2
340
0
 70
     0
280
     1
281
     0
  0
BLOCK_RECORD
  5
2F7
330
1
100
AcDbSymbolTableRecord
100
AcDbBlockTableRecord
  2
*D3
340
0
 70
     0
280
     1
281
     0
  0
BLOCK_RECORD
  5
307
330
1
100
AcDbSymbolTableRecord
100
AcDbBlockTableRecord
  2
*D4
340
0
 70
     0
280
     1
281
     0
  0
BLOCK_RECORD
  5
317
330
1
100
AcDbSymbolTableRecord
100
AcDbBlockTableRecord
  2
*D5
340
0
 70
     0
280
     1
281
     0
  0
BLOCK_RECORD
  5
327
330
1
100
AcDbSymbolTableRecord
100
AcDbBlockTableRecord
  2
*D6
340
0
 70
     0
280
     1
281
     0
  0
BLOCK_RECORD
  5
338
330
1
100
AcDbSymbolTableRecord
100
AcDbBlockTableRecord
  2
*D7
340
0
 70
     0
280
     1
281
     0
  0
ENDTAB
  0
ENDSEC
  0
SECTION
  2
BLOCKS
  0
BLOCK
  5
20
330
1F
100
AcDbEntity
  8
0
100
AcDbBlockBegin
  2
*Model_Space
 70
     0
 10
0.0
 20
0.0
 30
0.0
  3
*Model_Space
  1
*Model_Space
  0
ENDBLK
  5
21
330
1F
100
AcDbEntity
  8
0
100
AcDbBlockEnd
  0
BLOCK
  5
5A
330
58
100
AcDbEntity
 67
     1
  8
0
100
AcDbBlockBegin
  2
*Paper_Space
 70
     0
 10
0.0
 20
0.0
 30
0.0
  3
*Paper_Space
  1
*Paper_Space
  0
ENDBLK
  5
5B
330
58
100
AcDbEntity
 67
     1
  8
0
100
AcDbBlockEnd
  0
BLOCK
  5
2E8
330
2E7
100
AcDbEntity
  8
0
100
AcDbBlockBegin
  2
*D2
 70
     1
 10
0.0
 20
0.0
 30
0.0
  3
*D2
  1
*D2
  0
LINE
  5
2EA
330
2E7
100
AcDbEntity
  8
Koty
 62
     0
370
    -2
100
AcDbLine
 10
201.2259540084872
 20
327.866397524087
 30
0.0
 11
127.8367777720458
 21
327.866397524087
 31
0.0
  0
LINE
  5
2EB
330
2E7
100
AcDbEntity
  8
Koty
 62
     0
370
    -2
100
AcDbLine
 10
197.8259870311548
 20
10.3658884623361
 30
0.0
 11
127.8367777720457
 21
10.36588846233611
 31
0.0
  0
LINE
  5
2EC
330
2E7
100
AcDbEntity
  8
Koty
 62
     0
370
    -2
100
AcDbLine
 10
128.0167777720458
 20
322.866397524087
 30
0.0
 11
128.0167777720457
 21
15.36588846233611
 31
0.0
  0
SOLID
  5
2ED
330
2E7
100
AcDbEntity
  8
Koty
 62
     0
100
AcDbTrace
 10
128.8501111053791
 20
322.866397524087
 30
0.0
 11
127.1834444387124
 21
322.866397524087
 31
0.0
 12
128.0167777720458
 22
327.866397524087
 32
0.0
 13
128.0167777720458
 23
327.866397524087
 33
0.0
  0
SOLID
  5
2EE
330
2E7
100
AcDbEntity
  8
Koty
 62
     0
100
AcDbTrace
 10
127.1834444387124
 20
15.36588846233611
 30
0.0
 11
128.8501111053791
 21
15.36588846233611
 31
0.0
 12
128.0167777720457
 22
10.36588846233611
 32
0.0
 13
128.0167777720457
 23
10.36588846233611
 33
0.0
  0
MTEXT
  5
2EF
330
2E7
100
AcDbEntity
  8
Koty
 62
     0
100
AcDbMText
 10
124.0142777720458
 20
169.1161429932116
 30
0.0
 40
5.0
 41
0.0
 46
0.0
 71
     5
 72
     1
  1
\A1;317,5
 11
8.951705152975440E-17
 21
1.0
 31
0.0
 73
     1
 44
1.0
  0
POINT
  5
2F0
330
2E7
100
AcDbEntity
  8
Defpoints
 62
     0
100
AcDbPoint
 10
201.2884540084872
 20
327.866397524087
 30
0.0
  0
POINT
  5
2F1
330
2E7
100
AcDbEntity
  8
Defpoints
 62
     0
100
AcDbPoint
 10
197.8884870311548
 20
10.3658884623361
 30
0.0
  0
POINT
  5
2F2
330
2E7
100
AcDbEntity
  8
Defpoints
 62
     0
100
AcDbPoint
 10
128.0167777720457
 20
10.36588846233611
 30
0.0
  0
ENDBLK
  5
2E9
330
2E7
100
AcDbEntity
  8
0
100
AcDbBlockEnd
  0
BLOCK
  5
2F8
330
2F7
100
AcDbEntity
  8
0
100
AcDbBlockBegin
  2
*D3
 70
     1
 10
0.0
 20
0.0
 30
0.0
  3
*D3
  1
*D3
  0
LINE
  5
2FA
330
2F7
100
AcDbEntity
  8
Koty
 62
     0
370
    -2
100
AcDbLine
 10
201.2259540084871
 20
316.8662452046895
 30
0.0
 11
155.3381899043487
 21
316.8662452046895
 31
0.0
  0
LINE
  5
2FB
330
2F7
100
AcDbEntity
  8
Koty
 62
     0
370
    -2
100
AcDbLine
 10
181.2257834844164
 20
116.8662625128605
 30
0.0
 11
155.3381899043487
 21
116.8662625128605
 31
0.0
  0
LINE
  5
2FC
330
2F7
100
AcDbEntity
  8
Koty
 62
     0
370
    -2
100
AcDbLine
 10
155.5181899043487
 20
311.8662452046895
 30
0.0
 11
155.5181899043487
 21
121.8662625128605
 31
0.0
  0
SOLID
  5
2FD
330
2F7
100
AcDbEntity
  8
Koty
 62
     0
100
AcDbTrace
 10
156.351523237682
 20
311.8662452046895
 30
0.0
 11
154.6848565710153
 21
311.8662452046895
 31
0.0
 12
155.5181899043487
 22
316.8662452046895
 32
0.0
 13
155.5181899043487
 23
316.8662452046895
 33
0.0
  0
SOLID
  5
2FE
330
2F7
100
AcDbEntity
  8
Koty
 62
     0
100
AcDbTrace
 10
154.6848565710153
 20
121.8662625128605
 30
0.0
 11
156.351523237682
 21
121.8662625128605
 31
0.0
 12
155.5181899043487
 22
116.8662625128605
 32
0.0
 13
155.5181899043487
 23
116.8662625128605
 33
0.0
  0
MTEXT
  5
2FF
330
2F7
100
AcDbEntity
  8
Koty
 62
     0
100
AcDbMText
 10
151.5156899043487
 20
216.866253858775
 30
0.0
 40
5.0
 41
0.0
 46
0.0
 71
     5
 72
     1
  1
\A1;200,0
 11
0.0
 21
1.0
 31
0.0
 73
     1
 44
1.0
  0
POINT
  5
300
330
2F7
100
AcDbEntity
  8
Defpoints
 62
     0
100
AcDbPoint
 10
201.2884540084871
 20
316.8662452046895
 30
0.0
  0
POINT
  5
301
330
2F7
100
AcDbEntity
  8
Defpoints
 62
     0
100
AcDbPoint
 10
181.2882834844164
 20
116.8662625128605
 30
0.0
  0
POINT
  5
302
330
2F7
100
AcDbEntity
  8
Defpoints
 62
     0
100
AcDbPoint
 10
155.5181899043487
 20
116.8662625128605
 30
0.0
  0
ENDBLK
  5
2F9
330
2F7
100
AcDbEntity
  8
0
100
AcDbBlockEnd
  0
BLOCK
  5
308
330
307
100
AcDbEntity
  8
0
100
AcDbBlockBegin
  2
*D4
 70
     1
 10
0.0
 20
0.0
 30
0.0
  3
*D4
  1
*D4
  0
LINE
  5
30A
330
307
100
AcDbEntity
  8
Koty
 62
     0
370
    -2
100
AcDbLine
 10
181.2257834844164
 20
116.8662625128605
 30
0.0
 11
155.3381899043487
 21
116.8662625128605
 31
0.0
  0
LINE
  5
30B
330
307
100
AcDbEntity
  8
Koty
 62
     0
370
    -2
100
AcDbLine
 10
181.2257834844164
 20
43.86601906075558
 30
0.0
 11
155.3381899043487
 21
43.86601906075558
 31
0.0
  0
LINE
  5
30C
330
307
100
AcDbEntity
  8
Koty
 62
     0
370
    -2
100
AcDbLine
 10
155.5181899043487
 20
111.8662625128605
 30
0.0
 11
155.5181899043487
 21
48.86601906075558
 31
0.0
  0
SOLID
  5
30D
330
307
100
AcDbEntity
  8
Koty
 62
     0
100
AcDbTrace
 10
156.351523237682
 20
111.8662625128605
 30
0.0
 11
154.6848565710153
 21
111.8662625128605
 31
0.0
 12
155.5181899043487
 22
116.8662625128605
 32
0.0
 13
155.5181899043487
 23
116.8662625128605
 33
0.0
  0
SOLID
  5
30E
330
307
100
AcDbEntity
  8
Koty
 62
     0
100
AcDbTrace
 10
154.6848565710153
 20
48.86601906075558
 30
0.0
 11
156.351523237682
 21
48.86601906075558
 31
0.0
 12
155.5181899043487
 22
43.86601906075558
 32
0.0
 13
155.5181899043487
 23
43.86601906075558
 33
0.0
  0
MTEXT
  5
30F
330
307
100
AcDbEntity
  8
Koty
 62
     0
100
AcDbMText
 10
151.5156899043487
 20
80.36614078680806
 30
0.0
 40
5.0
 41
0.0
 46
0.0
 71
     5
 72
     1
  1
\A1;73,0
 11
0.0
 21
1.0
 31
0.0
 73
     1
 44
1.0
  0
POINT
  5
310
330
307
100
AcDbEntity
  8
Defpoints
 62
     0
100
AcDbPoint
 10
181.2882834844164
 20
116.8662625128605
 30
0.0
  0
POINT
  5
311
330
307
100
AcDbEntity
  8
Defpoints
 62
     0
100
AcDbPoint
 10
181.2882834844164
 20
43.86601906075558
 30
0.0
  0
POINT
  5
312
330
307
100
AcDbEntity
  8
Defpoints
 62
     0
100
AcDbPoint
 10
155.5181899043487
 20
43.86601906075558
 30
0.0
  0
ENDBLK
  5
309
330
307
100
AcDbEntity
  8
0
100
AcDbBlockEnd
  0
BLOCK
  5
318
330
317
100
AcDbEntity
  8
0
100
AcDbBlockBegin
  2
*D5
 70
     1
 10
0.0
 20
0.0
 30
0.0
  3
*D5
  1
*D5
  0
LINE
  5
31A
330
317
100
AcDbEntity
  8
Koty
 62
     0
370
    -2
100
AcDbLine
 10
181.2882834844164
 20
43.80351906075558
 30
0.0
 11
181.2882834844164
 21
-22.07316117038493
 31
0.0
  0
LINE
  5
31B
330
317
100
AcDbEntity
  8
Koty
 62
     0
370
    -2
100
AcDbLine
 10
221.2882800227822
 20
43.80351906075558
 30
0.0
 11
221.2882800227822
 21
-22.07316117038493
 31
0.0
  0
LINE
  5
31C
330
317
100
AcDbEntity
  8
Koty
 62
     0
370
    -2
100
AcDbLine
 10
186.2882834844164
 20
-21.89316117038493
 30
0.0
 11
216.2882800227822
 21
-21.89316117038493
 31
0.0
  0
SOLID
  5
31D
330
317
100
AcDbEntity
  8
Koty
 62
     0
100
AcDbTrace
 10
186.2882834844164
 20
-21.0598278370516
 30
0.0
 11
186.2882834844164
 21
-22.72649450371826
 31
0.0
 12
181.2882834844164
 22
-21.89316117038493
 32
0.0
 13
181.2882834844164
 23
-21.89316117038493
 33
0.0
  0
SOLID
  5
31E
330
317
100
AcDbEntity
  8
Koty
 62
     0
100
AcDbTrace
 10
216.2882800227822
 20
-22.72649450371826
 30
0.0
 11
216.2882800227822
 21
-21.0598278370516
 31
0.0
 12
221.2882800227822
 22
-21.89316117038493
 32
0.0
 13
221.2882800227822
 23
-21.89316117038493
 33
0.0
  0
MTEXT
  5
31F
330
317
100
AcDbEntity
  8
Koty
 62
     0
100
AcDbMText
 10
201.2882817535993
 20
-17.89066117038493
 30
0.0
 40
5.0
 41
0.0
 46
0.0
 71
     5
 72
     1
  1
\A1;40,0
 73
     1
 44
1.0
  0
POINT
  5
320
330
317
100
AcDbEntity
  8
Defpoints
 62
     0
100
AcDbPoint
 10
181.2882834844164
 20
43.86601906075558
 30
0.0
  0
POINT
  5
321
330
317
100
AcDbEntity
  8
Defpoints
 62
     0
100
AcDbPoint
 10
221.2882800227822
 20
43.86601906075558
 30
0.0
  0
POINT
  5
322
330
317
100
AcDbEntity
  8
Defpoints
 62
     0
100
AcDbPoint
 10
221.2882800227822
 20
-21.89316117038493
 30
0.0
  0
ENDBLK
  5
319
330
317
100
AcDbEntity
  8
0
100
AcDbBlockEnd
  0
BLOCK
  5
328
330
327
100
AcDbEntity
  8
0
100
AcDbBlockBegin
  2
*D6
 70
     1
 10
0.0
 20
0.0
 30
0.0
  3
*D6
  1
*D6
  0
LINE
  5
32A
330
327
100
AcDbEntity
  8
Koty
 62
     0
370
    -2
100
AcDbLine
 10
197.2883510017178
 20
10.90352449177303
 30
0.0
 11
197.2883510017178
 21
0.1041148272278318
 31
0.0
  0
LINE
  5
32B
330
327
100
AcDbEntity
  8
Koty
 62
     0
370
    -2
100
AcDbLine
 10
205.2885570152566
 20
10.90352449177303
 30
0.0
 11
205.2885570152566
 21
0.1041148272278318
 31
0.0
  0
LINE
  5
32C
330
327
100
AcDbEntity
  8
Koty
 62
     0
370
    -2
100
AcDbLine
 10
205.2885570152566
 20
0.2841148272278318
 30
0.0
 11
239.4965532409481
 21
0.2841148272278318
 31
0.0
  0
LINE
  5
32D
330
327
100
AcDbEntity
  8
Koty
 62
     0
370
    -2
100
AcDbLine
 10
192.2883510017178
 20
0.2841148272278318
 30
0.0
 11
187.2883510017178
 21
0.2841148272278318
 31
0.0
  0
LINE
  5
32E
330
327
100
AcDbEntity
  8
Koty
 62
     0
370
    -2
100
AcDbLine
 10
210.2885570152566
 20
0.2841148272278318
 30
0.0
 11
215.2885570152566
 21
0.2841148272278318
 31
0.0
  0
SOLID
  5
32F
330
327
100
AcDbEntity
  8
Koty
 62
     0
100
AcDbTrace
 10
192.2883510017178
 20
-0.5492185061055016
 30
0.0
 11
192.2883510017178
 21
1.117448160561165
 31
0.0
 12
197.2883510017178
 22
0.2841148272278318
 32
0.0
 13
197.2883510017178
 23
0.2841148272278318
 33
0.0
  0
SOLID
  5
330
330
327
100
AcDbEntity
  8
Koty
 62
     0
100
AcDbTrace
 10
210.2885570152566
 20
1.117448160561165
 30
0.0
 11
210.2885570152566
 21
-0.5492185061055016
 31
0.0
 12
205.2885570152566
 22
0.2841148272278318
 32
0.0
 13
205.2885570152566
 23
0.2841148272278318
 33
0.0
  0
MTEXT
  5
331
330
327
100
AcDbEntity
  8
Koty
 62
     0
100
AcDbMText
 10
234.0615532409481
 20
3.836614827227832
 30
0.0
 40
5.0
 41
0.0
 46
0.0
 71
     5
 72
     1
  1
\A1;M8
 73
     1
 44
1.0
  0
POINT
  5
332
330
327
100
AcDbEntity
  8
Defpoints
 62
     0
100
AcDbPoint
 10
197.2883510017178
 20
10.96602449177303
 30
0.0
  0
POINT
  5
333
330
327
100
AcDbEntity
  8
Defpoints
 62
     0
100
AcDbPoint
 10
205.2885570152566
 20
10.96602449177303
 30
0.0
  0
POINT
  5
343
330
327
100
AcDbEntity
  8
Defpoints
 62
     0
100
AcDbPoint
 10
205.2885570152566
 20
0.2841148272278318
 30
0.0
  0
ENDBLK
  5
329
330
327
100
AcDbEntity
  8
0
100
AcDbBlockEnd
  0
BLOCK
  5
339
330
338
100
AcDbEntity
  8
0
100
AcDbBlockBegin
  2
*D7
 70
     1
 10
0.0
 20
0.0
 30
0.0
  3
*D7
  1
*D7
  0
LINE
  5
33B
330
338
100
AcDbEntity
  8
Koty
 62
     0
370
    -2
100
AcDbLine
 10
223.2509775739206
 20
332.3332171364999
 30
0.0
 11
218.2509775739206
 21
332.3332171364999
 31
0.0
  0
LINE
  5
33C
330
338
100
AcDbEntity
  8
Koty
 62
     0
370
    -2
100
AcDbLine
 10
218.2509775739206
 20
332.3332171364999
 30
0.0
 11
208.0865598810007
 21
323.0649757363842
 31
0.0
  0
MTEXT
  5
33D
330
338
100
AcDbEntity
  8
Koty
 62
     0
100
AcDbMText
 10
231.5084775739206
 20
332.3332171364999
 30
0.0
 40
5.0
 41
0.0
 46
0.0
 71
     5
 72
     1
  1
\A1;%%c8,4
 73
     1
 44
1.0
  0
SOLID
  5
33E
330
338
100
AcDbEntity
  8
Koty
 62
     0
100
AcDbTrace
 10
207.5250757029418
 20
323.6807516389933
 30
0.0
 11
208.6480440590595
 21
322.449199833775
 31
0.0
 12
204.3919044653459
 22
319.6960706680313
 32
0.0
 13
204.3919044653459
 23
319.6960706680313
 33
0.0
  0
LINE
  5
33F
330
338
100
AcDbEntity
  8
Koty
 62
     0
100
AcDbLine
 10
201.1984540084871
 20
316.8662452046895
 30
0.0
 11
201.3784540084871
 21
316.8662452046895
 31
0.0
  0
LINE
  5
340
330
338
100
AcDbEntity
  8
Koty
 62
     0
100
AcDbLine
 10
201.2884540084871
 20
316.7762452046895
 30
0.0
 11
201.2884540084871
 21
316.9562452046895
 31
0.0
  0
POINT
  5
341
330
338
100
AcDbEntity
  8
Defpoints
 62
     0
100
AcDbPoint
 10
204.3919044653459
 20
319.6960706680313
 30
0.0
  0
POINT
  5
342
330
338
100
AcDbEntity
  8
Defpoints
 62
     0
100
AcDbPoint
 10
198.1850035516283
 20
314.0364197413477
 30
0.0
  0
ENDBLK
  5
33A
330
338
100
AcDbEntity
  8
0
100
AcDbBlockEnd
  0
ENDSEC
  0
SECTION
  2
ENTITIES
  0
ARC
  5
20F
330
1F
100
AcDbEntity
  8
Obrys
100
AcDbCircle
 10
201.2884540084872
 20
316.8163481108726
 30
0.0
 40
11.05004941321441
100
AcDbArc
 50
50.69193083147201
 51
129.3080691685278
  0
LINE
  5
210
330
1F
100
AcDbEntity
  8
Obrys
100
AcDbLine
 10
194.2883598740848
 20
307.3663881371101
 30
0.0
 11
194.2883598740848
 21
325.3663349029083
 31
0.0
  0
LINE
  5
211
330
1F
100
AcDbEntity
  8
Obrys
100
AcDbLine
 10
208.2885481428896
 20
325.3663349029083
 30
0.0
 11
208.2885481428896
 21
307.3663881371101
 31
0.0
  0
CIRCLE
  5
212
102
{ACAD_REACTORS
330
2F6
330
337
102
}
330
1F
100
AcDbEntity
  8
Obrys
100
AcDbCircle
 10
201.2884540084871
 20
316.8662452046895
 30
0.0
 40
4.199918676731102
  0
LINE
  5
213
330
1F
100
AcDbEntity
  8
Obrys
100
AcDbLine
 10
196.2885836323574
 20
302.8664014456605
 30
0.0
 11
194.2883598740848
 21
307.3663881371101
 31
0.0
  0
LINE
  5
214
330
1F
100
AcDbEntity
  8
Obrys
100
AcDbLine
 10
208.2885481428896
 20
307.3663881371101
 30
0.0
 11
206.288324384617
 21
302.8664014456605
 31
0.0
  0
LINE
  5
215
330
1F
100
AcDbEntity
  8
Obrys
100
AcDbLine
 10
206.288324384617
 20
302.8664014456605
 30
0.0
 11
206.2855683064107
 21
301.3664058818439
 31
0.0
  0
LINE
  5
216
330
1F
100
AcDbEntity
  8
Obrys
100
AcDbLine
 10
196.2885836323574
 20
302.8664014456605
 30
0.0
 11
206.288324384617
 21
302.8664014456605
 31
0.0
  0
LINE
  5
217
330
1F
100
AcDbEntity
  8
Obrys
100
AcDbLine
 10
196.2885836323574
 20
302.8664014456605
 30
0.0
 11
196.2913397105638
 21
301.3664058818439
 31
0.0
  0
LINE
  5
218
330
1F
100
AcDbEntity
  8
Obrys
100
AcDbLine
 10
195.7380570106352
 20
301.3664058818439
 30
0.0
 11
206.8381619867876
 21
301.3664058818439
 31
0.0
  0
LINE
  5
219
330
1F
100
AcDbEntity
  8
Obrys
100
AcDbLine
 10
195.7380570106352
 20
301.3664058818439
 30
0.0
 11
195.7380570106352
 21
289.3664413713119
 31
0.0
  0
LINE
  5
21A
330
1F
100
AcDbEntity
  8
Obrys
100
AcDbLine
 10
206.8381619867876
 20
301.3664058818439
 30
0.0
 11
206.8381619867876
 21
289.3664413713119
 31
0.0
  0
LINE
  5
21B
330
1F
100
AcDbEntity
  8
Obrys
100
AcDbLine
 10
195.7380570106352
 20
289.3664413713119
 30
0.0
 11
206.8381619867876
 21
289.3664413713119
 31
0.0
  0
LINE
  5
21C
330
1F
100
AcDbEntity
  8
Obrys
100
AcDbLine
 10
195.8179832786198
 20
288.4517679165731
 30
0.0
 11
206.7589247383546
 21
288.4517679165731
 31
0.0
  0
LINE
  5
21D
330
1F
100
AcDbEntity
  8
Obrys
100
AcDbLine
 10
195.8882632728822
 20
287.6407919043489
 30
0.0
 11
206.6886447440922
 21
287.6407919043489
 31
0.0
  0
ARC
  5
21E
330
1F
100
AcDbEntity
  8
Obrys
100
AcDbCircle
 10
201.0258302260818
 20
289.3676703459749
 30
0.0
 40
5.287773358264606
100
AcDbArc
 50
180.0133165809463
 51
189.9745872510094
  0
ARC
  5
21F
330
1F
100
AcDbEntity
  8
Obrys
100
AcDbCircle
 10
191.1827536487454
 20
287.641540996311
 30
0.0
 40
4.705509683762545
100
AcDbArc
 50
359.9908788184577
 51
9.914991915639963
  0
ARC
  5
220
330
1F
100
AcDbEntity
  8
Obrys
100
AcDbCircle
 10
201.5510860135212
 20
289.363686636515
 30
0.0
 40
5.287076690918571
100
AcDbArc
 50
350.0679160263294
 51
0.0298529213611754
  0
ARC
  5
221
330
1F
100
AcDbEntity
  8
Obrys
100
AcDbCircle
 10
211.3927782190491
 20
287.6416602547786
 30
0.0
 40
4.704133555102701
100
AcDbArc
 50
170.0835528623081
 51
180.0105764035941
  0
LINE
  5
222
330
1F
100
AcDbEntity
  8
Obrys
100
AcDbLine
 10
206.6886447440922
 20
287.6407919043489
 30
0.0
 11
206.6886447440922
 21
276.3663649816433
 31
0.0
  0
LINE
  5
223
330
1F
100
AcDbEntity
  8
Obrys
100
AcDbLine
 10
195.8882632728822
 20
287.6407919043489
 30
0.0
 11
195.8882632728822
 21
276.3663649816433
 31
0.0
  0
LINE
  5
224
330
1F
100
AcDbEntity
  8
Obrys
100
AcDbLine
 10
195.8882632728822
 20
276.3663649816433
 30
0.0
 11
206.6886447440922
 21
276.3663649816433
 31
0.0
  0
LINE
  5
225
330
1F
100
AcDbEntity
  8
Obrys
100
AcDbLine
 10
196.1879867778248
 20
276.3653314523161
 30
0.0
 11
196.1879867778248
 21
116.8662625128605
 31
0.0
  0
LINE
  5
226
330
1F
100
AcDbEntity
  8
Obrys
100
AcDbLine
 10
206.3882322195978
 20
276.3653314523161
 30
0.0
 11
206.4654024093762
 21
116.8662625128605
 31
0.0
  0
LINE
  5
227
330
1F
100
AcDbEntity
  8
Obrys
100
AcDbLine
 10
181.2882834844164
 20
116.8662625128605
 30
0.0
 11
221.2882800227822
 21
116.8662625128605
 31
0.0
  0
LINE
  5
228
330
1F
100
AcDbEntity
  8
Obrys
100
AcDbLine
 10
221.2882800227822
 20
116.8662625128605
 30
0.0
 11
221.2882800227822
 21
43.86601906075558
 31
0.0
  0
LINE
  5
229
102
{ACAD_REACTORS
330
2F6
330
306
102
}
330
1F
100
AcDbEntity
  8
Obrys
100
AcDbLine
 10
181.2882834844164
 20
43.86601906075558
 30
0.0
 11
181.2882834844164
 21
116.8662625128605
 31
0.0
  0
LINE
  5
22A
102
{ACAD_REACTORS
330
306
330
316
102
}
330
1F
100
AcDbEntity
  8
Obrys
100
AcDbLine
 10
181.2882834844164
 20
43.86601906075558
 30
0.0
 11
221.2882800227822
 21
43.86601906075558
 31
0.0
  0
LINE
  5
22B
330
1F
100
AcDbEntity
  8
Obrys
100
AcDbLine
 10
195.2881272434454
 20
37.66622113552771
 30
0.0
 11
195.2881272434454
 21
43.86601906075558
 31
0.0
  0
LINE
  5
22C
330
1F
100
AcDbEntity
  8
Obrys
100
AcDbLine
 10
207.2880917539774
 20
37.66622113552771
 30
0.0
 11
207.2880917539774
 21
43.86601906075558
 31
0.0
  0
LINE
  5
22D
330
1F
100
AcDbEntity
  8
Obrys
100
AcDbLine
 10
195.2881272434454
 20
37.66622113552771
 30
0.0
 11
195.5885397679396
 21
37.36580861103343
 31
0.0
  0
LINE
  5
22E
330
1F
100
AcDbEntity
  8
Obrys
100
AcDbLine
 10
207.2880917539774
 20
37.66622113552771
 30
0.0
 11
206.9883682490348
 21
37.36580861103343
 31
0.0
  0
LINE
  5
22F
330
1F
100
AcDbEntity
  8
Obrys
100
AcDbLine
 10
195.2881272434454
 20
37.66622113552771
 30
0.0
 11
207.2880917539774
 21
37.66622113552771
 31
0.0
  0
ARC
  5
230
330
1F
100
AcDbEntity
  8
Obrys
100
AcDbCircle
 10
196.8887260223464
 20
36.96618423661087
 30
0.0
 40
0.3996249794321041
100
AcDbArc
 50
359.9990013291708
 51
90.0996993863247
  0
ARC
  5
231
330
1F
100
AcDbEntity
  8
Obrys
100
AcDbCircle
 10
205.6880340826993
 20
36.96633154359071
 30
0.0
 40
0.3994770972316581
100
AcDbArc
 50
89.97787316890803
 51
180.0221268311205
  0
LINE
  5
232
330
1F
100
AcDbEntity
  8
Obrys
100
AcDbLine
 10
197.2883510017178
 20
36.96617727110987
 30
0.0
 11
205.2885570152566
 21
36.96617727110987
 31
0.0
  0
LINE
  5
233
330
1F
100
AcDbEntity
  8
Obrys
100
AcDbLine
 10
197.2883510017178
 20
36.96617727110987
 30
0.0
 11
197.2669913956184
 21
32.36628274467944
 31
0.0
  0
LINE
  5
234
330
1F
100
AcDbEntity
  8
Obrys
100
AcDbLine
 10
205.2885570152566
 20
36.96617727110987
 30
0.0
 11
205.3099166213558
 21
32.36628274467944
 31
0.0
  0
LINE
  5
235
330
1F
100
AcDbEntity
  8
Obrys
100
AcDbLine
 10
194.7513810127548
 20
32.36628274467944
 30
0.0
 11
207.8255270042194
 21
32.36628274467944
 31
0.0
  0
LINE
  5
236
330
1F
100
AcDbEntity
  8
Obrys
100
AcDbLine
 10
193.943161078737
 20
31.89981650825143
 30
0.0
 11
194.7513810127548
 21
32.36628274467944
 31
0.0
  0
LINE
  5
237
330
1F
100
AcDbEntity
  8
Obrys
100
AcDbLine
 10
197.3696553088058
 20
31.89981650825143
 30
0.0
 11
197.867816444607
 21
31.89981650825143
 31
0.0
  0
LINE
  5
238
330
1F
100
AcDbEntity
  8
Obrys
100
AcDbLine
 10
204.7084025528158
 20
31.89981650825143
 30
0.0
 11
205.2072527081686
 21
31.89981650825143
 31
0.0
  0
LINE
  5
239
330
1F
100
AcDbEntity
  8
Obrys
100
AcDbLine
 10
207.8255270042194
 20
32.36628274467944
 30
0.0
 11
208.6330579186858
 21
31.89981650825143
 31
0.0
  0
LINE
  5
23A
330
1F
100
AcDbEntity
  8
Obrys
100
AcDbLine
 10
197.3696553088058
 20
31.89981650825143
 30
0.0
 11
197.3696553088058
 21
26.33253853138535
 31
0.0
  0
LINE
  5
23B
330
1F
100
AcDbEntity
  8
Obrys
100
AcDbLine
 10
197.867816444607
 20
26.33253853138535
 30
0.0
 11
197.867816444607
 21
31.89981650825143
 31
0.0
  0
LINE
  5
23C
330
1F
100
AcDbEntity
  8
Obrys
100
AcDbLine
 10
204.7084025528158
 20
31.89981650825143
 30
0.0
 11
204.7084025528158
 21
26.33253853138535
 31
0.0
  0
LINE
  5
23D
330
1F
100
AcDbEntity
  8
Obrys
100
AcDbLine
 10
205.2072527081686
 20
26.33253853138535
 30
0.0
 11
205.2072527081686
 21
31.89981650825143
 31
0.0
  0
LINE
  5
23E
330
1F
100
AcDbEntity
  8
Obrys
100
AcDbLine
 10
208.6330579186858
 20
26.33253853138535
 30
0.0
 11
208.3450477461202
 21
26.1657957999
 31
0.0
  0
LINE
  5
23F
330
1F
100
AcDbEntity
  8
Obrys
100
AcDbLine
 10
208.6330579186858
 20
26.33253853138535
 30
0.0
 11
208.2903779487842
 21
26.1657957999
 31
0.0
  0
LINE
  5
240
330
1F
100
AcDbEntity
  8
Obrys
100
AcDbLine
 10
205.2072527081686
 20
26.33253853138535
 30
0.0
 11
205.5441832688972
 21
26.1664848194516
 31
0.0
  0
LINE
  5
241
330
1F
100
AcDbEntity
  8
Obrys
100
AcDbLine
 10
205.2072527081686
 20
26.33253853138535
 30
0.0
 11
204.7084025528158
 21
26.33253853138535
 31
0.0
  0
LINE
  5
242
330
1F
100
AcDbEntity
  8
Obrys
100
AcDbLine
 10
204.7084025528158
 20
26.33253853138535
 30
0.0
 11
204.03523045091
 21
26.1657957999
 31
0.0
  0
LINE
  5
243
330
1F
100
AcDbEntity
  8
Obrys
100
AcDbLine
 10
198.5416775660644
 20
26.1664848194516
 30
0.0
 11
197.867816444607
 21
26.33253853138535
 31
0.0
  0
LINE
  5
244
330
1F
100
AcDbEntity
  8
Obrys
100
AcDbLine
 10
197.867816444607
 20
26.33253853138535
 30
0.0
 11
197.3696553088058
 21
26.33253853138535
 31
0.0
  0
LINE
  5
245
330
1F
100
AcDbEntity
  8
Obrys
100
AcDbLine
 10
197.3696553088058
 20
26.33253853138535
 30
0.0
 11
197.0327664459894
 21
26.1657957999
 31
0.0
  0
LINE
  5
246
330
1F
100
AcDbEntity
  8
Obrys
100
AcDbLine
 10
194.2856037958784
 20
26.1664848194516
 30
0.0
 11
193.943161078737
 21
26.33253853138535
 31
0.0
  0
LINE
  5
247
330
1F
100
AcDbEntity
  8
Obrys
100
AcDbLine
 10
193.943161078737
 20
26.33253853138535
 30
0.0
 11
194.2318602708542
 21
26.1657957999
 31
0.0
  0
LINE
  5
248
330
1F
100
AcDbEntity
  8
Obrys
100
AcDbLine
 10
209.28831551225
 20
26.1657957999
 30
0.0
 11
193.2885925047244
 21
26.1657957999
 31
0.0
  0
LINE
  5
249
330
1F
100
AcDbEntity
  8
Obrys
100
AcDbLine
 10
193.2885925047244
 20
26.1657957999
 30
0.0
 11
193.2885925047244
 21
22.96598900230518
 31
0.0
  0
LINE
  5
24A
330
1F
100
AcDbEntity
  8
Obrys
100
AcDbLine
 10
193.2885925047244
 20
24.56589240110259
 30
0.0
 11
209.28831551225
 21
24.56589240110259
 31
0.0
  0
LINE
  5
24B
330
1F
100
AcDbEntity
  8
Obrys
100
AcDbLine
 10
209.28831551225
 20
22.96598900230518
 30
0.0
 11
209.28831551225
 21
26.1657957999
 31
0.0
  0
LINE
  5
24C
330
1F
100
AcDbEntity
  8
Obrys
100
AcDbLine
 10
193.2885925047244
 20
22.96598900230518
 30
0.0
 11
209.28831551225
 21
22.96598900230518
 31
0.0
  0
ARC
  5
24D
330
1F
100
AcDbEntity
  8
Obrys
100
AcDbCircle
 10
194.0880969693653
 20
22.7659319017738
 30
0.0
 40
0.2000576004353347
100
AcDbArc
 50
89.87191346212809
 51
179.9308551336614
  0
ARC
  5
24E
330
1F
100
AcDbEntity
  8
Obrys
100
AcDbCircle
 10
194.0881045425191
 20
21.16651896338368
 30
0.0
 40
0.2000651828984581
100
AcDbArc
 50
180.0713185680341
 51
270.1259128361596
  0
ARC
  5
24F
330
1F
100
AcDbEntity
  8
Obrys
100
AcDbCircle
 10
208.4882202671114
 20
21.16641347928575
 30
0.0
 40
0.1999592672254959
100
AcDbArc
 50
270.0411312058025
 51
359.9588687942464
  0
ARC
  5
250
330
1F
100
AcDbEntity
  8
Obrys
100
AcDbCircle
 10
208.4882361691213
 20
22.7660456886135
 30
0.0
 40
0.1999433544355248
100
AcDbArc
 50
0.0365775973031666
 51
89.96342240264796
  0
LINE
  5
251
330
1F
100
AcDbEntity
  8
Obrys
100
AcDbLine
 10
193.8880395146098
 20
22.76617333234341
 30
0.0
 11
208.688179482813
 21
22.76617333234341
 31
0.0
  0
LINE
  5
252
330
1F
100
AcDbEntity
  8
Obrys
100
AcDbLine
 10
208.688179482813
 20
21.16626993354598
 30
0.0
 11
193.8880395146098
 21
21.16626993354598
 31
0.0
  0
LINE
  5
253
330
1F
100
AcDbEntity
  8
Obrys
100
AcDbLine
 10
194.088544204123
 20
20.96645426358418
 30
0.0
 11
208.4883638128514
 21
20.96645426358421
 31
0.0
  0
LINE
  5
254
330
1F
100
AcDbEntity
  8
Obrys
100
AcDbLine
 10
193.943161078737
 20
20.49998802715621
 30
0.0
 11
194.7513810127548
 21
20.96645426358421
 31
0.0
  0
LINE
  5
255
330
1F
100
AcDbEntity
  8
Obrys
100
AcDbLine
 10
197.867816444607
 20
20.49998802715621
 30
0.0
 11
197.3696553088058
 21
20.49998802715621
 31
0.0
  0
LINE
  5
256
330
1F
100
AcDbEntity
  8
Obrys
100
AcDbLine
 10
204.7084025528158
 20
20.49998802715621
 30
0.0
 11
205.2072527081686
 21
20.49998802715621
 31
0.0
  0
LINE
  5
257
330
1F
100
AcDbEntity
  8
Obrys
100
AcDbLine
 10
207.8255270042194
 20
20.96645426358421
 30
0.0
 11
208.6330579186858
 21
20.49998802715621
 31
0.0
  0
LINE
  5
258
330
1F
100
AcDbEntity
  8
Obrys
100
AcDbLine
 10
208.6330579186858
 20
31.89981650825143
 30
0.0
 11
208.6330579186858
 21
26.33253853138535
 31
0.0
  0
LINE
  5
259
330
1F
100
AcDbEntity
  8
Obrys
100
AcDbLine
 10
193.943161078737
 20
31.89981650825143
 30
0.0
 11
193.943161078737
 21
26.33253853138535
 31
0.0
  0
LINE
  5
25A
330
1F
100
AcDbEntity
  8
Obrys
100
AcDbLine
 10
193.943161078737
 20
20.49998802715621
 30
0.0
 11
193.943161078737
 21
14.9327100502901
 31
0.0
  0
LINE
  5
25B
330
1F
100
AcDbEntity
  8
Obrys
100
AcDbLine
 10
197.3696553088058
 20
20.49998802715621
 30
0.0
 11
197.3696553088058
 21
14.9327100502901
 31
0.0
  0
LINE
  5
25C
330
1F
100
AcDbEntity
  8
Obrys
100
AcDbLine
 10
197.867816444607
 20
20.49998802715621
 30
0.0
 11
197.867816444607
 21
14.9327100502901
 31
0.0
  0
LINE
  5
25D
330
1F
100
AcDbEntity
  8
Obrys
100
AcDbLine
 10
204.7084025528158
 20
20.49998802715621
 30
0.0
 11
204.7084025528158
 21
14.9327100502901
 31
0.0
  0
LINE
  5
25E
330
1F
100
AcDbEntity
  8
Obrys
100
AcDbLine
 10
205.2072527081686
 20
20.49998802715621
 30
0.0
 11
205.2072527081686
 21
14.9327100502901
 31
0.0
  0
LINE
  5
25F
330
1F
100
AcDbEntity
  8
Obrys
100
AcDbLine
 10
208.6330579186858
 20
20.49998802715621
 30
0.0
 11
208.6330579186858
 21
14.9327100502901
 31
0.0
  0
LINE
  5
260
330
1F
100
AcDbEntity
  8
Obrys
100
AcDbLine
 10
193.943161078737
 20
14.9327100502901
 30
0.0
 11
194.7513810127548
 21
14.46624381386209
 31
0.0
  0
LINE
  5
261
330
1F
100
AcDbEntity
  8
Obrys
100
AcDbLine
 10
197.867816444607
 20
14.9327100502901
 30
0.0
 11
197.3696553088058
 21
14.9327100502901
 31
0.0
  0
LINE
  5
262
330
1F
100
AcDbEntity
  8
Obrys
100
AcDbLine
 10
205.2072527081686
 20
14.9327100502901
 30
0.0
 11
204.7084025528158
 21
14.9327100502901
 31
0.0
  0
LINE
  5
263
330
1F
100
AcDbEntity
  8
Obrys
100
AcDbLine
 10
194.7513810127548
 20
14.46624381386209
 30
0.0
 11
207.8255270042194
 21
14.46624381386209
 31
0.0
  0
LINE
  5
264
330
1F
100
AcDbEntity
  8
Obrys
100
AcDbLine
 10
197.2883510017178
 20
10.96602449177303
 30
0.0
 11
197.2883510017178
 21
14.46624381386209
 31
0.0
  0
LINE
  5
265
330
1F
100
AcDbEntity
  8
Obrys
100
AcDbLine
 10
205.2885570152566
 20
10.96602449177303
 30
0.0
 11
205.2885570152566
 21
14.46624381386209
 31
0.0
  0
LINE
  5
266
102
{ACAD_REACTORS
330
326
102
}
330
1F
100
AcDbEntity
  8
Obrys
100
AcDbLine
 10
197.2883510017178
 20
10.96602449177303
 30
0.0
 11
197.8884870311548
 21
10.3658884623361
 31
0.0
  0
LINE
  5
267
102
{ACAD_REACTORS
330
326
102
}
330
1F
100
AcDbEntity
  8
Obrys
100
AcDbLine
 10
205.2885570152566
 20
10.96602449177303
 30
0.0
 11
204.6884209858196
 21
10.3658884623361
 31
0.0
  0
LINE
  5
268
102
{ACAD_REACTORS
330
2E6
102
}
330
1F
100
AcDbEntity
  8
Obrys
100
AcDbLine
 10
197.8884870311548
 20
10.3658884623361
 30
0.0
 11
204.6884209858196
 21
10.3658884623361
 31
0.0
  0
LINE
  5
269
330
1F
100
AcDbEntity
  8
Obrys
100
AcDbLine
 10
195.5885397679396
 20
37.36580861103343
 30
0.0
 11
206.9883682490348
 21
37.36580861103343
 31
0.0
  0
LINE
  5
26A
330
1F
100
AcDbEntity
  8
Obrys
100
AcDbLine
 10
193.8880395146098
 20
22.76617333234341
 30
0.0
 11
193.8880395146098
 21
21.16626993354598
 31
0.0
  0
LINE
  5
26B
330
1F
100
AcDbEntity
  8
Obrys
100
AcDbLine
 10
208.688179482813
 20
22.76617333234341
 30
0.0
 11
208.688179482813
 21
21.16626993354598
 31
0.0
  0
LINE
  5
26C
330
1F
100
AcDbEntity
  8
Obrys
100
AcDbLine
 10
208.6330579186858
 20
14.9327100502901
 30
0.0
 11
207.8255270042194
 21
14.46624381386209
 31
0.0
  0
LINE
  5
26D
330
1F
100
AcDbEntity
  8
Obrys
100
AcDbLine
 10
286.7382472285384
 20
327.8664423458611
 30
0.0
 11
284.1385764603804
 21
327.8664423458611
 31
0.0
  0
LINE
  5
26E
330
1F
100
AcDbEntity
  8
Obrys
100
AcDbLine
 10
284.1385764603804
 20
327.8664423458611
 30
0.0
 11
284.1385764603804
 21
301.3664058818439
 31
0.0
  0
LINE
  5
26F
330
1F
100
AcDbEntity
  8
Obrys
100
AcDbLine
 10
294.13831721264
 20
302.8664014456605
 30
0.0
 11
284.1385764603804
 21
302.8664014456605
 31
0.0
  0
LINE
  5
270
330
1F
100
AcDbEntity
  8
Obrys
100
AcDbLine
 10
294.13831721264
 20
302.8664014456605
 30
0.0
 11
294.13831721264
 21
301.3664058818439
 31
0.0
  0
LINE
  5
271
330
1F
100
AcDbEntity
  8
Obrys
100
AcDbLine
 10
286.7382472285384
 20
307.3663881371101
 30
0.0
 11
294.13831721264
 21
302.8664014456605
 31
0.0
  0
LINE
  5
272
330
1F
100
AcDbEntity
  8
Obrys
100
AcDbLine
 10
286.7382472285384
 20
327.8664423458611
 30
0.0
 11
286.7382472285384
 21
307.3663881371101
 31
0.0
  0
LINE
  5
273
330
1F
100
AcDbEntity
  8
Obrys
100
AcDbLine
 10
283.5852937604518
 20
301.3664058818439
 30
0.0
 11
283.5852937604518
 21
289.3664413713119
 31
0.0
  0
LINE
  5
274
330
1F
100
AcDbEntity
  8
Obrys
100
AcDbLine
 10
294.6853987366042
 20
301.3664058818439
 30
0.0
 11
294.6853987366042
 21
289.3664413713119
 31
0.0
  0
LINE
  5
275
330
1F
100
AcDbEntity
  8
Obrys
100
AcDbLine
 10
283.5852937604518
 20
289.3664413713119
 30
0.0
 11
294.6853987366042
 21
289.3664413713119
 31
0.0
  0
LINE
  5
276
330
1F
100
AcDbEntity
  8
Obrys
100
AcDbLine
 10
283.6652200284364
 20
288.4517679165731
 30
0.0
 11
294.6061614881712
 21
288.4517679165731
 31
0.0
  0
LINE
  5
277
330
1F
100
AcDbEntity
  8
Obrys
100
AcDbLine
 10
283.7355000226988
 20
287.6407919043489
 30
0.0
 11
294.5358814939088
 21
287.6407919043489
 31
0.0
  0
ARC
  5
278
330
1F
100
AcDbEntity
  8
Obrys
100
AcDbCircle
 10
288.8730669758984
 20
289.3676703459749
 30
0.0
 40
5.287773358264606
100
AcDbArc
 50
180.0133165809463
 51
189.9745872510094
  0
ARC
  5
279
330
1F
100
AcDbEntity
  8
Obrys
100
AcDbCircle
 10
279.029990398562
 20
287.641540996311
 30
0.0
 40
4.705509683762545
100
AcDbArc
 50
359.9908788184577
 51
9.914991915639963
  0
ARC
  5
27A
330
1F
100
AcDbEntity
  8
Obrys
100
AcDbCircle
 10
289.3983227633378
 20
289.363686636515
 30
0.0
 40
5.287076690918571
100
AcDbArc
 50
350.0679160263294
 51
0.0298529213611754
  0
ARC
  5
27B
330
1F
100
AcDbEntity
  8
Obrys
100
AcDbCircle
 10
299.2400149688658
 20
287.6416602547786
 30
0.0
 40
4.704133555102701
100
AcDbArc
 50
170.0835528623081
 51
180.0105764035941
  0
LINE
  5
27C
330
1F
100
AcDbEntity
  8
Obrys
100
AcDbLine
 10
294.5358814939088
 20
287.6407919043489
 30
0.0
 11
294.5358814939088
 21
276.3663649816433
 31
0.0
  0
LINE
  5
27D
330
1F
100
AcDbEntity
  8
Obrys
100
AcDbLine
 10
283.7355000226988
 20
287.6407919043489
 30
0.0
 11
283.7355000226988
 21
276.3663649816433
 31
0.0
  0
LINE
  5
27E
330
1F
100
AcDbEntity
  8
Obrys
100
AcDbLine
 10
283.7355000226988
 20
276.3663649816433
 30
0.0
 11
294.5358814939088
 21
276.3663649816433
 31
0.0
  0
LINE
  5
27F
330
1F
100
AcDbEntity
  8
Obrys
100
AcDbLine
 10
284.0352235276414
 20
276.3653314523161
 30
0.0
 11
284.0352235276414
 21
116.8662625128605
 31
0.0
  0
LINE
  5
280
330
1F
100
AcDbEntity
  8
Obrys
100
AcDbLine
 10
294.2354689694144
 20
276.3653314523161
 30
0.0
 11
294.3126391591928
 21
116.8662625128605
 31
0.0
  0
LINE
  5
281
330
1F
100
AcDbEntity
  8
Obrys
100
AcDbLine
 10
283.5852937604518
 20
301.3664058818439
 30
0.0
 11
294.6853987366042
 21
301.3664058818439
 31
0.0
  0
LINE
  5
282
330
1F
100
AcDbEntity
  8
Obrys
100
AcDbLine
 10
269.3653082546892
 20
116.8662625128605
 30
0.0
 11
309.365304793055
 21
116.8662625128605
 31
0.0
  0
LINE
  5
283
330
1F
100
AcDbEntity
  8
Obrys
100
AcDbLine
 10
309.365304793055
 20
116.8662625128605
 30
0.0
 11
309.365304793055
 21
43.86601906075558
 31
0.0
  0
LINE
  5
284
330
1F
100
AcDbEntity
  8
Obrys
100
AcDbLine
 10
269.3653082546892
 20
43.86601906075558
 30
0.0
 11
309.365304793055
 21
43.86601906075558
 31
0.0
  0
LINE
  5
285
330
1F
100
AcDbEntity
  8
Obrys
100
AcDbLine
 10
269.3653082546892
 20
43.86601906075558
 30
0.0
 11
269.3653082546892
 21
116.8662625128605
 31
0.0
  0
LINE
  5
286
330
1F
100
AcDbEntity
  8
Obrys
100
AcDbLine
 10
283.1381200714684
 20
37.66622113552771
 30
0.0
 11
283.1381200714684
 21
43.86601906075558
 31
0.0
  0
LINE
  5
287
330
1F
100
AcDbEntity
  8
Obrys
100
AcDbLine
 10
295.1380845820004
 20
37.66622113552771
 30
0.0
 11
295.1380845820004
 21
43.86601906075558
 31
0.0
  0
LINE
  5
288
330
1F
100
AcDbEntity
  8
Obrys
100
AcDbLine
 10
283.1381200714684
 20
37.66622113552771
 30
0.0
 11
283.4385325959626
 21
37.36580861103343
 31
0.0
  0
LINE
  5
289
330
1F
100
AcDbEntity
  8
Obrys
100
AcDbLine
 10
295.1380845820004
 20
37.66622113552771
 30
0.0
 11
294.8383610770578
 21
37.36580861103343
 31
0.0
  0
LINE
  5
28A
330
1F
100
AcDbEntity
  8
Obrys
100
AcDbLine
 10
283.1381200714684
 20
37.66622113552771
 30
0.0
 11
295.1380845820004
 21
37.66622113552771
 31
0.0
  0
ARC
  5
28B
330
1F
100
AcDbEntity
  8
Obrys
100
AcDbCircle
 10
284.7387188503694
 20
36.96618423661087
 30
0.0
 40
0.3996249794321041
100
AcDbArc
 50
359.9990013291708
 51
90.0996993863247
  0
ARC
  5
28C
330
1F
100
AcDbEntity
  8
Obrys
100
AcDbCircle
 10
293.5380269107224
 20
36.96633154359071
 30
0.0
 40
0.3994770972316581
100
AcDbArc
 50
89.97787316890803
 51
180.0221268311205
  0
LINE
  5
28D
330
1F
100
AcDbEntity
  8
Obrys
100
AcDbLine
 10
285.1383438297408
 20
36.96617727110987
 30
0.0
 11
293.1385498432796
 21
36.96617727110987
 31
0.0
  0
LINE
  5
28E
330
1F
100
AcDbEntity
  8
Obrys
100
AcDbLine
 10
285.1383438297408
 20
36.96617727110987
 30
0.0
 11
285.1169842236414
 21
32.36628274467944
 31
0.0
  0
LINE
  5
28F
330
1F
100
AcDbEntity
  8
Obrys
100
AcDbLine
 10
293.1385498432796
 20
36.96617727110987
 30
0.0
 11
293.1599094493788
 21
32.36628274467944
 31
0.0
  0
LINE
  5
290
330
1F
100
AcDbEntity
  8
Obrys
100
AcDbLine
 10
282.6378918770124
 20
32.36628274467944
 30
0.0
 11
295.6755198322424
 21
32.36628274467944
 31
0.0
  0
LINE
  5
291
330
1F
100
AcDbEntity
  8
Obrys
100
AcDbLine
 10
297.138308340273
 20
26.1657957999
 30
0.0
 11
281.1385853327474
 21
26.1657957999
 31
0.0
  0
LINE
  5
292
330
1F
100
AcDbEntity
  8
Obrys
100
AcDbLine
 10
281.1385853327474
 20
26.1657957999
 30
0.0
 11
281.1385853327474
 21
22.96598900230518
 31
0.0
  0
LINE
  5
293
330
1F
100
AcDbEntity
  8
Obrys
100
AcDbLine
 10
281.1385853327474
 20
24.56589240110259
 30
0.0
 11
297.138308340273
 21
24.56589240110259
 31
0.0
  0
LINE
  5
294
330
1F
100
AcDbEntity
  8
Obrys
100
AcDbLine
 10
297.138308340273
 20
22.96598900230518
 30
0.0
 11
297.138308340273
 21
26.1657957999
 31
0.0
  0
LINE
  5
295
330
1F
100
AcDbEntity
  8
Obrys
100
AcDbLine
 10
281.1385853327474
 20
22.96598900230518
 30
0.0
 11
297.138308340273
 21
22.96598900230518
 31
0.0
  0
ARC
  5
296
330
1F
100
AcDbEntity
  8
Obrys
100
AcDbCircle
 10
281.9380897973883
 20
22.7659319017738
 30
0.0
 40
0.2000576004353347
100
AcDbArc
 50
89.87191346212809
 51
179.9308551336614
  0
ARC
  5
297
330
1F
100
AcDbEntity
  8
Obrys
100
AcDbCircle
 10
281.9380973705421
 20
21.16651896338368
 30
0.0
 40
0.2000651828984581
100
AcDbArc
 50
180.0713185680341
 51
270.1259128361596
  0
ARC
  5
298
330
1F
100
AcDbEntity
  8
Obrys
100
AcDbCircle
 10
296.3382130951344
 20
21.16641347928575
 30
0.0
 40
0.1999592672254959
100
AcDbArc
 50
270.0411312058025
 51
359.9588687942464
  0
ARC
  5
299
330
1F
100
AcDbEntity
  8
Obrys
100
AcDbCircle
 10
296.3382289971443
 20
22.7660456886135
 30
0.0
 40
0.1999433544355248
100
AcDbArc
 50
0.0365775973031666
 51
89.96342240264796
  0
LINE
  5
29A
330
1F
100
AcDbEntity
  8
Obrys
100
AcDbLine
 10
281.7380323426328
 20
22.76617333234341
 30
0.0
 11
296.538172310836
 21
22.76617333234341
 31
0.0
  0
LINE
  5
29B
330
1F
100
AcDbEntity
  8
Obrys
100
AcDbLine
 10
296.538172310836
 20
21.16626993354598
 30
0.0
 11
281.7380323426328
 21
21.16626993354598
 31
0.0
  0
LINE
  5
29C
330
1F
100
AcDbEntity
  8
Obrys
100
AcDbLine
 10
281.938537032146
 20
20.96645426358418
 30
0.0
 11
296.3383566408744
 21
20.96645426358421
 31
0.0
  0
LINE
  5
29D
330
1F
100
AcDbEntity
  8
Obrys
100
AcDbLine
 10
295.6383127764566
 20
32.36628274467944
 30
0.0
 11
295.6383127764566
 21
26.1657957999
 31
0.0
  0
LINE
  5
29E
330
1F
100
AcDbEntity
  8
Obrys
100
AcDbLine
 10
282.6378918770124
 20
32.36628274467944
 30
0.0
 11
282.6378918770124
 21
26.1657957999
 31
0.0
  0
LINE
  5
29F
330
1F
100
AcDbEntity
  8
Obrys
100
AcDbLine
 10
282.6378918770124
 20
20.96645426358418
 30
0.0
 11
282.6378918770124
 21
14.46624381386209
 31
0.0
  0
LINE
  5
2A0
330
1F
100
AcDbEntity
  8
Obrys
100
AcDbLine
 10
295.6383127764566
 20
20.96645426358421
 30
0.0
 11
295.6383127764566
 21
14.46624381386209
 31
0.0
  0
LINE
  5
2A1
330
1F
100
AcDbEntity
  8
Obrys
100
AcDbLine
 10
282.6378918770124
 20
14.46624381386209
 30
0.0
 11
295.6383127764566
 21
14.46624381386209
 31
0.0
  0
LINE
  5
2A2
330
1F
100
AcDbEntity
  8
Obrys
100
AcDbLine
 10
285.1383438297408
 20
10.96602449177303
 30
0.0
 11
285.1383438297408
 21
14.46624381386209
 31
0.0
  0
LINE
  5
2A3
330
1F
100
AcDbEntity
  8
Obrys
100
AcDbLine
 10
293.1385498432796
 20
10.96602449177303
 30
0.0
 11
293.1385498432796
 21
14.46624381386209
 31
0.0
  0
LINE
  5
2A4
330
1F
100
AcDbEntity
  8
Obrys
100
AcDbLine
 10
285.1383438297408
 20
10.96602449177303
 30
0.0
 11
285.7384798591778
 21
10.3658884623361
 31
0.0
  0
LINE
  5
2A5
330
1F
100
AcDbEntity
  8
Obrys
100
AcDbLine
 10
293.1385498432796
 20
10.96602449177303
 30
0.0
 11
292.5384138138426
 21
10.3658884623361
 31
0.0
  0
LINE
  5
2A6
330
1F
100
AcDbEntity
  8
Obrys
100
AcDbLine
 10
285.7384798591778
 20
10.3658884623361
 30
0.0
 11
292.5384138138426
 21
10.3658884623361
 31
0.0
  0
LINE
  5
2A7
330
1F
100
AcDbEntity
  8
Obrys
100
AcDbLine
 10
283.4385325959626
 20
37.36580861103343
 30
0.0
 11
294.8383610770578
 21
37.36580861103343
 31
0.0
  0
LINE
  5
2A8
330
1F
100
AcDbEntity
  8
Obrys
100
AcDbLine
 10
281.7380323426328
 20
22.76617333234341
 30
0.0
 11
281.7380323426328
 21
21.16626993354598
 31
0.0
  0
LINE
  5
2A9
330
1F
100
AcDbEntity
  8
Obrys
100
AcDbLine
 10
296.538172310836
 20
22.76617333234341
 30
0.0
 11
296.538172310836
 21
21.16626993354598
 31
0.0
  0
LINE
  5
2AA
330
1F
100
AcDbEntity
  8
Obrys
100
AcDbLine
 10
294.7667030436922
 20
26.1657957999
 30
0.0
 11
295.350302603891
 21
26.33253853138535
 31
0.0
  0
LINE
  5
2AB
330
1F
100
AcDbEntity
  8
Obrys
100
AcDbLine
 10
288.2671816135218
 20
26.1657957999
 30
0.0
 11
288.8500921541688
 21
26.33253853138535
 31
0.0
  0
LINE
  5
2AC
330
1F
100
AcDbEntity
  8
Obrys
100
AcDbLine
 10
289.4261124993
 20
26.33253853138535
 30
0.0
 11
290.0090230399472
 21
26.1664848194516
 31
0.0
  0
LINE
  5
2AD
330
1F
100
AcDbEntity
  8
Obrys
100
AcDbLine
 10
282.925902049578
 20
26.33253853138535
 30
0.0
 11
283.5095016097766
 21
26.1664848194516
 31
0.0
  0
ARC
  5
2AE
330
1F
100
AcDbEntity
  8
Obrys
100
AcDbCircle
 10
285.8879971018734
 20
11.32845997120603
 30
0.0
 40
9.637994292378183
100
AcDbArc
 50
72.10128863747464
 51
107.8987113625254
  0
ARC
  5
2AF
330
1F
100
AcDbEntity
  8
Obrys
100
AcDbCircle
 10
292.3882075515954
 20
11.32845997120603
 30
0.0
 40
9.637994292378183
100
AcDbArc
 50
72.10128863747464
 51
107.8987113625254
  0
ARC
  5
2B0
330
1F
100
AcDbEntity
  8
Obrys
100
AcDbCircle
 10
285.8879971018734
 20
22.72828845230123
 30
0.0
 40
9.637994292378183
100
AcDbArc
 50
72.10128863747468
 51
107.8987113625253
  0
ARC
  5
2B1
330
1F
100
AcDbEntity
  8
Obrys
100
AcDbCircle
 10
292.3882075515954
 20
22.72828845230123
 30
0.0
 40
9.637994292378183
100
AcDbArc
 50
72.10128863747468
 51
107.8987113625253
  0
LINE
  5
2B2
330
1F
100
AcDbEntity
  8
Obrys
100
AcDbLine
 10
282.925902049578
 20
14.46624381386209
 30
0.0
 11
288.8500921541688
 21
14.46624381386209
 31
0.0
  0
ARC
  5
2B3
330
1F
100
AcDbEntity
  8
Obrys
100
AcDbCircle
 10
285.8879971018734
 20
24.03946831539517
 30
0.0
 40
9.576379963111973
100
AcDbArc
 50
251.9821901087614
 51
288.0178098912385
  0
ARC
  5
2B4
330
1F
100
AcDbEntity
  8
Obrys
100
AcDbCircle
 10
292.3882075515954
 20
24.03946831539517
 30
0.0
 40
9.576379963111973
100
AcDbArc
 50
251.9821901087614
 51
288.0178098912385
  0
ARC
  5
2B5
330
1F
100
AcDbEntity
  8
Obrys
100
AcDbCircle
 10
195.6564081937714
 20
17.84570215477419
 30
0.0
 40
3.379458340912081
100
AcDbArc
 50
239.5385125097001
 51
300.4614874902999
  0
ARC
  5
2B6
330
1F
100
AcDbEntity
  8
Obrys
100
AcDbCircle
 10
195.6564081937714
 20
17.586995922672
 30
0.0
 40
3.37945834091219
100
AcDbArc
 50
59.53851250970106
 51
120.4614874902989
  0
LINE
  5
2B7
330
1F
100
AcDbEntity
  8
Obrys
100
AcDbLine
 10
197.8681609543828
 20
20.96645426358418
 30
0.0
 11
204.7087470625916
 21
20.96645426358418
 31
0.0
  0
ARC
  5
2B8
330
1F
100
AcDbEntity
  8
Obrys
100
AcDbCircle
 10
201.2881094987114
 20
8.193830784719694
 30
0.0
 40
12.77262348351062
100
AcDbArc
 50
74.46760753364723
 51
105.5323924663525
  0
LINE
  5
2B9
330
1F
100
AcDbEntity
  8
Obrys
100
AcDbLine
 10
197.8681609543827
 20
14.46624381386209
 30
0.0
 11
204.7087470625915
 21
14.46624381386209
 31
0.0
  0
ARC
  5
2BA
330
1F
100
AcDbEntity
  8
Obrys
100
AcDbCircle
 10
201.2881094987114
 20
27.23886729272581
 30
0.0
 40
12.77262348350988
100
AcDbArc
 50
254.4676075336463
 51
285.5323924663535
  0
ARC
  5
2BB
330
1F
100
AcDbEntity
  8
Obrys
100
AcDbCircle
 10
206.920499823203
 20
17.586995922672
 30
0.0
 40
3.37945834091219
100
AcDbArc
 50
59.53851250970106
 51
120.4614874902989
  0
ARC
  5
2BC
330
1F
100
AcDbEntity
  8
Obrys
100
AcDbCircle
 10
195.6564081937714
 20
28.98682440376723
 30
0.0
 40
3.37945834091219
100
AcDbArc
 50
59.53851250970106
 51
120.4614874902989
  0
ARC
  5
2BD
330
1F
100
AcDbEntity
  8
Obrys
100
AcDbCircle
 10
206.920499823203
 20
28.98682440376723
 30
0.0
 40
3.37945834091219
100
AcDbArc
 50
59.53851250970106
 51
120.4614874902989
  0
ARC
  5
2BE
330
1F
100
AcDbEntity
  8
Obrys
100
AcDbCircle
 10
206.920499823203
 20
17.84570215477419
 30
0.0
 40
3.379458340912081
100
AcDbArc
 50
239.5385125097001
 51
300.4614874902999
  0
ARC
  5
2BF
330
1F
100
AcDbEntity
  8
Obrys
100
AcDbCircle
 10
201.2881094987114
 20
19.59365926581492
 30
0.0
 40
12.77262348351062
100
AcDbArc
 50
74.46760753364723
 51
105.5323924663525
  0
LINE
  5
2C0
330
1F
100
AcDbEntity
  8
Obrys
100
AcDbLine
 10
282.925902049578
 20
14.9327100502901
 30
0.0
 11
282.6378918770124
 21
14.9327100502901
 31
0.0
  0
LINE
  5
2C1
330
1F
100
AcDbEntity
  8
Obrys
100
AcDbLine
 10
282.925902049578
 20
20.49998802715621
 30
0.0
 11
282.925902049578
 21
14.9327100502901
 31
0.0
  0
LINE
  5
2C2
330
1F
100
AcDbEntity
  8
Obrys
100
AcDbLine
 10
282.925902049578
 20
20.49998802715621
 30
0.0
 11
282.6378918770124
 21
20.49998802715621
 31
0.0
  0
LINE
  5
2C3
330
1F
100
AcDbEntity
  8
Obrys
100
AcDbLine
 10
289.4261124993
 20
14.9327100502901
 30
0.0
 11
288.8500921541688
 21
14.9327100502901
 31
0.0
  0
LINE
  5
2C4
330
1F
100
AcDbEntity
  8
Obrys
100
AcDbLine
 10
288.8500921541688
 20
14.9327100502901
 30
0.0
 11
288.8500921541688
 21
20.49998802715621
 31
0.0
  0
LINE
  5
2C5
330
1F
100
AcDbEntity
  8
Obrys
100
AcDbLine
 10
288.8500921541688
 20
20.49998802715621
 30
0.0
 11
289.4261124993
 21
20.49998802715621
 31
0.0
  0
LINE
  5
2C6
330
1F
100
AcDbEntity
  8
Obrys
100
AcDbLine
 10
289.4261124993
 20
20.49998802715621
 30
0.0
 11
289.4261124993
 21
14.9327100502901
 31
0.0
  0
LINE
  5
2C7
330
1F
100
AcDbEntity
  8
Obrys
100
AcDbLine
 10
295.3503026038908
 20
20.49998802715621
 30
0.0
 11
295.6383127764566
 21
20.49998802715621
 31
0.0
  0
LINE
  5
2C8
330
1F
100
AcDbEntity
  8
Obrys
100
AcDbLine
 10
295.3503026038908
 20
20.49998802715621
 30
0.0
 11
295.3503026038908
 21
14.9327100502901
 31
0.0
  0
LINE
  5
2C9
330
1F
100
AcDbEntity
  8
Obrys
100
AcDbLine
 10
295.3503026038908
 20
14.9327100502901
 30
0.0
 11
295.6383127764566
 21
14.9327100502901
 31
0.0
  0
LINE
  5
2CA
330
1F
100
AcDbEntity
  8
Obrys
100
AcDbLine
 10
282.925902049578
 20
31.89981650825143
 30
0.0
 11
282.6378918770124
 21
31.89981650825143
 31
0.0
  0
LINE
  5
2CB
330
1F
100
AcDbEntity
  8
Obrys
100
AcDbLine
 10
282.925902049578
 20
31.89981650825143
 30
0.0
 11
282.925902049578
 21
26.33253853138535
 31
0.0
  0
LINE
  5
2CC
330
1F
100
AcDbEntity
  8
Obrys
100
AcDbLine
 10
282.925902049578
 20
26.33253853138535
 30
0.0
 11
282.6378918770124
 21
26.33253853138535
 31
0.0
  0
LINE
  5
2CD
330
1F
100
AcDbEntity
  8
Obrys
100
AcDbLine
 10
289.4261124993
 20
26.33253853138535
 30
0.0
 11
288.8500921541688
 21
26.33253853138535
 31
0.0
  0
LINE
  5
2CE
330
1F
100
AcDbEntity
  8
Obrys
100
AcDbLine
 10
288.8500921541688
 20
26.33253853138535
 30
0.0
 11
288.8500921541688
 21
31.89981650825143
 31
0.0
  0
LINE
  5
2CF
330
1F
100
AcDbEntity
  8
Obrys
100
AcDbLine
 10
288.8500921541688
 20
31.89981650825143
 30
0.0
 11
289.4261124993
 21
31.89981650825143
 31
0.0
  0
LINE
  5
2D0
330
1F
100
AcDbEntity
  8
Obrys
100
AcDbLine
 10
289.4261124993
 20
31.89981650825143
 30
0.0
 11
289.4261124993
 21
26.33253853138535
 31
0.0
  0
LINE
  5
2D1
330
1F
100
AcDbEntity
  8
Obrys
100
AcDbLine
 10
295.3503026038908
 20
31.89981650825143
 30
0.0
 11
295.6383127764566
 21
31.89981650825143
 31
0.0
  0
LINE
  5
2D2
330
1F
100
AcDbEntity
  8
Obrys
100
AcDbLine
 10
295.3503026038908
 20
31.89981650825143
 30
0.0
 11
295.350302603891
 21
26.33253853138535
 31
0.0
  0
LINE
  5
2D3
330
1F
100
AcDbEntity
  8
Obrys
100
AcDbLine
 10
295.350302603891
 20
26.33253853138535
 30
0.0
 11
295.6383127764566
 21
26.33253853138535
 31
0.0
  0
DIMENSION
  5
2E4
102
{ACAD_REACTORS
330
2E6
102
}
102
{ACAD_XDICTIONARY
360
2E5
102
}
330
1F
100
AcDbEntity
  8
Koty
100
AcDbDimension
280
     0
  2
*D2
 10
128.0167777720457
 20
10.36588846233611
 30
0.0
 11
124.0142777720458
 21
169.1161429932116
 31
0.0
 70
    32
 71
     5
 42
317.5005090617509
 73
     0
 74
     0
 75
     0
  3
Standard
100
AcDbAlignedDimension
 13
201.2884540084872
 23
327.866397524087
 33
0.0
 14
197.8884870311548
 24
10.3658884623361
 34
0.0
 50
90.0
100
AcDbRotatedDimension
1001
ACAD
1000
DSTYLE
1002
{
1070
   271
1070
     1
1070
    77
1070
     1
1070
    73
1070
     0
1070
   278
1070
    44
1070
   140
1040
5.0
1070
   147
1040
1.0
1070
    41
1040
5.0
1002
}
  0
DIMENSION
  5
2F4
102
{ACAD_REACTORS
330
2F6
102
}
102
{ACAD_XDICTIONARY
360
2F5
102
}
330
1F
100
AcDbEntity
  8
Koty
100
AcDbDimension
280
     0
  2
*D3
 10
155.5181899043487
 20
116.8662625128605
 30
0.0
 11
151.5156899043487
 21
216.866253858775
 31
0.0
 70
    32
 71
     5
 42
199.999982691829
 73
     0
 74
     0
 75
     0
  3
Standard
100
AcDbAlignedDimension
 13
201.2884540084871
 23
316.8662452046895
 33
0.0
 14
181.2882834844164
 24
116.8662625128605
 34
0.0
 50
90.0
100
AcDbRotatedDimension
1001
ACAD
1000
DSTYLE
1002
{
1070
   271
1070
     1
1070
    77
1070
     1
1070
    73
1070
     0
1070
   278
1070
    44
1070
   140
1040
5.0
1070
   147
1040
1.0
1070
    41
1040
5.0
1002
}
  0
DIMENSION
  5
304
102
{ACAD_REACTORS
330
306
102
}
102
{ACAD_XDICTIONARY
360
305
102
}
330
1F
100
AcDbEntity
  8
Koty
100
AcDbDimension
280
     0
  2
*D4
 10
155.5181899043487
 20
43.86601906075558
 30
0.0
 11
151.5156899043487
 21
80.36614078680806
 31
0.0
 70
    32
 71
     5
 42
73.00024345210497
 73
     0
 74
     0
 75
     0
  3
Standard
100
AcDbAlignedDimension
 13
181.2882834844164
 23
116.8662625128605
 33
0.0
 14
181.2882834844164
 24
43.86601906075558
 34
0.0
 50
90.0
100
AcDbRotatedDimension
1001
ACAD
1000
DSTYLE
1002
{
1070
   271
1070
     1
1070
    77
1070
     1
1070
    73
1070
     0
1070
   278
1070
    44
1070
   140
1040
5.0
1070
   147
1040
1.0
1070
    41
1040
5.0
1002
}
  0
DIMENSION
  5
314
102
{ACAD_REACTORS
330
316
102
}
102
{ACAD_XDICTIONARY
360
315
102
}
330
1F
100
AcDbEntity
  8
Koty
100
AcDbDimension
280
     0
  2
*D5
 10
221.2882800227822
 20
-21.89316117038493
 30
0.0
 11
201.2882817535993
 21
-17.89066117038493
 31
0.0
 70
    32
 71
     5
 42
39.99999653836579
 73
     0
 74
     0
 75
     0
  3
Standard
100
AcDbAlignedDimension
 13
181.2882834844164
 23
43.86601906075558
 33
0.0
 14
221.2882800227822
 24
43.86601906075558
 34
0.0
100
AcDbRotatedDimension
1001
ACAD
1000
DSTYLE
1002
{
1070
   271
1070
     1
1070
    77
1070
     1
1070
    73
1070
     0
1070
   278
1070
    44
1070
   140
1040
5.0
1070
   147
1040
1.0
1070
    41
1040
5.0
1002
}
  0
DIMENSION
  5
324
102
{ACAD_REACTORS
330
326
102
}
102
{ACAD_XDICTIONARY
360
325
102
}
330
1F
100
AcDbEntity
  8
Koty
100
AcDbDimension
280
     0
  2
*D6
 10
205.2885570152566
 20
0.2841148272278318
 30
0.0
 11
234.0615532409481
 21
0.2841148272278318
 31
0.0
 70
   160
  1
M8
 71
     5
 42
8.000206013538843
 73
     0
 74
     0
 75
     0
  3
Standard
100
AcDbAlignedDimension
 13
197.2883510017178
 23
10.96602449177303
 33
0.0
 14
205.2885570152566
 24
10.96602449177303
 34
0.0
100
AcDbRotatedDimension
1001
ACAD
1000
DSTYLE
1002
{
1070
   271
1070
     1
1070
    77
1070
     1
1070
    73
1070
     0
1070
   278
1070
    44
1070
   140
1040
5.0
1070
   147
1040
1.0
1070
    41
1040
5.0
1002
}
  0
DIMENSION
  5
335
102
{ACAD_REACTORS
330
337
102
}
102
{ACAD_XDICTIONARY
360
336
102
}
330
1F
100
AcDbEntity
  8
Koty
100
AcDbDimension
280
     0
  2
*D7
 10
198.1850035516283
 20
314.0364197413477
 30
0.0
 11
231.5084775739206
 21
332.3332171364999
 31
0.0
 70
   163
  1
<>
 71
     5
 42
8.399837353462242
 73
     0
 74
     0
 75
     0
  3
Standard
100
AcDbDiametricDimension
 15
204.3919044653459
 25
319.6960706680313
 35
0.0
 40
0.0
1001
ACAD_DSTYLE_DIMRADIAL_EXTENSION
1070
   387
1070
     1
1070
   388
1040
0.0
1070
   390
1040
6.283185307179586
1001
ACAD
1000
DSTYLE
1002
{
1070
   271
1070
     1
1070
   278
1070
    44
1070
   140
1040
5.0
1070
   147
1040
1.0
1070
    41
1040
5.0
1002
}
  0
VIEWPORT
  5
344
330
58
100
AcDbEntity
 67
     1
  8
0
100
AcDbViewport
 10
5.25
 20
3.5
 30
0.0
 40
12.6
 41
8.4
 68
     1
 69
     1
 12
5.25
 22
3.5
 13
0.0
 23
0.0
 14
0.5
 24
0.5
 15
0.0
 25
0.0
 16
0.0
 26
0.0
 36
1.0
 17
0.0
 27
0.0
 37
0.0
 42
50.0
 43
0.0
 44
0.0
 45
8.4
 50
0.0
 51
0.0
 72
   100
 90
   557152
  1

281
     0
 71
     1
 74
     0
110
0.0
120
0.0
130
0.0
111
1.0
121
0.0
131
0.0
112
0.0
122
1.0
132
0.0
 79
     0
146
0.0
170
     0
 61
     5
292
     1
282
     1
141
0.0
142
0.0
 63
   256
361
346
  0
VIEWPORT
  5
345
330
58
100
AcDbEntity
 67
     1
  8
0
100
AcDbViewport
 10
5.25
 20
3.5
 30
0.0
 40
8.4
 41
5.600000000000001
 68
     2
 69
     2
 12
215.1835412825504
 22
156.3896113163908
 13
0.0
 23
0.0
 14
0.5
 24
0.5
 15
0.0
 25
0.0
 16
0.0
 26
0.0
 36
1.0
 17
0.0
 27
0.0
 37
0.0
 42
50.0
 43
0.0
 44
0.0
 45
365.3968558730225
 50
0.0
 51
0.0
 72
   100
 90
   557152
  1

281
     0
 71
     1
 74
     0
110
0.0
120
0.0
130
0.0
111
1.0
121
0.0
131
0.0
112
0.0
122
1.0
132
0.0
 79
     0
146
0.0
170
     0
 61
     5
292
     1
282
     1
141
0.0
142
0.0
 63
   256
  0
ENDSEC
  0
SECTION
  2
OBJECTS
  0
DICTIONARY
  5
C
330
0
100
AcDbDictionary
281
     1
  3
ACAD_COLOR
350
73
  3
ACAD_DETAILVIEWSTYLE
350
122
  3
ACAD_GROUP
350
D
  3
ACAD_IMAGE_VARS
350
DC
  3
ACAD_LAYOUT
350
1A
  3
ACAD_MATERIAL
350
72
  3
ACAD_MLEADERSTYLE
350
B5
  3
ACAD_MLINESTYLE
350
17
  3
ACAD_PLOTSETTINGS
350
19
  3
ACAD_PLOTSTYLENAME
350
E
  3
ACAD_SCALELIST
350
B6
  3
ACAD_SECTIONVIEWSTYLE
350
123
  3
ACAD_TABLESTYLE
350
86
  3
ACAD_VISUALSTYLE
350
99
  3
ACDB_RECOMPOSE_DATA
350
34F
  3
AcDbVariableDictionary
350
66
  3
APPDATA
350
E1
  0
SUN
  5
ED
330
94
100
AcDbSun
 90
        1
290
     0
 63
     7
421
 16777215
 40
1.0
291
     1
 91
  2455826
 92
 54000000
292
     0
 70
     2
 71
   256
280
     1
  0
DICTIONARY
  5
2D4
330
2
100
AcDbDictionary
280
     1
281
     1
  3
ACAD_LAYERSTATES
360
2D5
  3
ACLYDICTIONARY
360
2E2
  0
DICTIONARY
  5
2E5
330
2E4
100
AcDbDictionary
280
     1
281
     1
  3
ACAD_DIMASSOC
360
2E6
  0
DICTIONARY
  5
2F5
330
2F4
100
AcDbDictionary
280
     1
281
     1
  3
ACAD_DIMASSOC
360
2F6
  0
DICTIONARY
  5
305
330
304
100
AcDbDictionary
280
     1
281
     1
  3
ACAD_DIMASSOC
360
306
  0
DICTIONARY
  5
315
330
314
100
AcDbDictionary
280
     1
281
     1
  3
ACAD_DIMASSOC
360
316
  0
DICTIONARY
  5
325
330
324
100
AcDbDictionary
280
     1
281
     1
  3
ACAD_DIMASSOC
360
326
  0
DICTIONARY
  5
336
330
335
100
AcDbDictionary
280
     1
281
     1
  3
ACAD_DIMASSOC
360
337
  0
SUN
  5
346
330
344
100
AcDbSun
 90
        1
290
     0
 63
     7
421
 16777215
 40
1.0
291
     1
 91
  2455826
 92
 54000000
292
     0
 70
     2
 71
   256
280
     1
  0
DICTIONARY
  5
73
102
{ACAD_REACTORS
330
C
102
}
330
C
100
AcDbDictionary
281
     1
  0
DICTIONARY
  5
122
102
{ACAD_REACTORS
330
C
102
}
330
C
100
AcDbDictionary
281
     1
  0
DICTIONARY
  5
D
102
{ACAD_REACTORS
330
C
102
}
330
C
100
AcDbDictionary
281
     1
  0
RASTERVARIABLES
  5
DC
102
{ACAD_REACTORS
330
C
102
}
330
C
100
AcDbRasterVariables
 90
        0
 70
     1
 71
     1
 72
     5
  0
DICTIONARY
  5
1A
102
{ACAD_REACTORS
330
C
102
}
330
C
100
AcDbDictionary
281
     1
  3
Model
350
22
  3
Sheet1
350
59
  0
DICTIONARY
  5
72
102
{ACAD_REACTORS
330
C
102
}
330
C
100
AcDbDictionary
281
     1
  3
ByBlock
350
E2
  3
ByLayer
350
96
  3
Global
350
98
  0
DICTIONARY
  5
B5
102
{ACAD_REACTORS
330
C
102
}
330
C
100
AcDbDictionary
281
     1
  3
Standard
350
124
  0
DICTIONARY
  5
17
102
{ACAD_REACTORS
330
C
102
}
330
C
100
AcDbDictionary
281
     1
  3
Standard
350
18
  0
DICTIONARY
  5
19
102
{ACAD_REACTORS
330
C
102
}
330
C
100
AcDbDictionary
281
     1
  0
ACDBDICTIONARYWDFLT
  5
E
102
{ACAD_REACTORS
330
C
102
}
330
C
100
AcDbDictionary
281
     1
  3
Normal
350
F
100
AcDbDictionaryWithDefault
340
F
  0
DICTIONARY
  5
B6
102
{ACAD_REACTORS
330
C
102
}
330
C
100
AcDbDictionary
281
     1
  3
A0
350
B7
  3
A1
350
B8
  3
A2
350
B9
  3
A3
350
BA
  3
A4
350
BB
  3
A5
350
BC
  3
A6
350
BD
  3
A7
350
BE
  3
A8
350
BF
  3
A9
350
C0
  3
B0
350
C1
  3
B1
350
C2
  3
B2
350
C3
  3
B3
350
C4
  3
B4
350
C5
  3
B5
350
C6
  3
B6
350
C7
  3
B7
350
C8
  3
B8
350
C9
  3
B9
350
CA
  3
C0
350
CB
  3
C1
350
CC
  3
C2
350
CD
  3
C3
350
CE
  3
C4
350
CF
  3
C5
350
D0
  3
C6
350
D1
  3
C7
350
D2
  3
C8
350
D3
  3
C9
350
D4
  3
D0
350
D5
  3
D1
350
D6
  3
D2
350
D7
  0
DICTIONARY
  5
123
102
{ACAD_REACTORS
330
C
102
}
330
C
100
AcDbDictionary
281
     1
  0
DICTIONARY
  5
86
102
{ACAD_REACTORS
330
C
102
}
330
C
100
AcDbDictionary
281
     1
  3
Standard
350
87
  0
DICTIONARY
  5
99
102
{ACAD_REACTORS
330
C
102
}
330
C
100
AcDbDictionary
281
     1
  3
2dWireframe
350
9F
  3
3D Hidden
350
A1
  3
3dWireframe
350
A0
  3
Basic
350
9E
  3
Brighten
350
A5
  3
ColorChange
350
A9
  3
Conceptual
350
A2
  3
Dim
350
A4
  3
EdgeColorOff
350
E7
  3
Facepattern
350
A8
  3
Flat
350
9A
  3
FlatWithEdges
350
9B
  3
Gouraud
350
9C
  3
GouraudWithEdges
350
9D
  3
Hidden
350
E4
  3
JitterOff
350
E5
  3
Linepattern
350
A7
  3
OverhangOff
350
E6
  3
Realistic
350
A3
  3
Shaded
350
EC
  3
Shaded with edges
350
EB
  3
Shades of Gray
350
E8
  3
Sketchy
350
E9
  3
Thicken
350
A6
  3
Wireframe
350
E3
  3
X-Ray
350
EA
  0
XRECORD
  5
34F
102
{ACAD_REACTORS
330
C
102
}
330
C
100
AcDbXrecord
280
     1
 90
        1
330
87
  0
DICTIONARY
  5
66
102
{ACAD_REACTORS
330
C
102
}
330
C
100
AcDbDictionary
281
     1
  3
CANNOSCALE
350
D8
  3
CMLEADERSTYLE
350
2DC
  3
CTABLESTYLE
350
89
  3
DIMASSOC
350
67
  3
HIDETEXT
350
6B
  3
LIGHTSINBLOCKS
350
DF
  3
XCLIPFRAME
350
E0
  0
DICTIONARY
  5
E1
102
{ACAD_REACTORS
330
C
102
}
330
C
100
AcDbDictionary
281
     1
  0
DICTIONARY
  5
2D5
102
{ACAD_REACTORS
330
2D4
102
}
330
2D4
100
AcDbDictionary
281
     1
  3
ARGON_LAYERP_3
350
2E1
  0
DICTIONARY
  5
2E2
102
{ACAD_REACTORS
330
2D4
102
}
330
2D4
100
AcDbDictionary
281
     1
1001
ACAD
1000
<All
  0
DIMASSOC
  5
2E6
102
{ACAD_REACTORS
330
2E5
102
}
330
2E5
100
AcDbDimAssoc
330
2E4
 90
        2
 70
     0
 71
     1
  1
AcDbOsnapPointRef
 72
    13
331
268
 73
     0
 91
        0
 40
0.0
 10
0.0
 20
0.0
 30
0.0
 75
     0
  0
DIMASSOC
  5
2F6
102
{ACAD_REACTORS
330
2F5
102
}
330
2F5
100
AcDbDimAssoc
330
2F4
 90
        3
 70
     0
 71
     1
  1
AcDbOsnapPointRef
 72
     3
331
212
 73
     0
 91
        0
 40
0.0
 10
0.0
 20
0.0
 30
0.0
 75
     0
  1
AcDbOsnapPointRef
 72
     1
331
229
 73
     0
 91
        0
 40
0.0
 10
0.0
 20
0.0
 30
0.0
 75
     0
  0
DIMASSOC
  5
306
102
{ACAD_REACTORS
330
305
102
}
330
305
100
AcDbDimAssoc
330
304
 90
        3
 70
     0
 71
     1
  1
AcDbOsnapPointRef
 72
     1
331
229
 73
     0
 91
        0
 40
0.0
 10
0.0
 20
0.0
 30
0.0
 75
     0
  1
AcDbOsnapPointRef
 72
    13
331
22A
 73
     0
 91
        0
 40
0.0
 10
0.0
 20
0.0
 30
0.0
 75
     0
  0
DIMASSOC
  5
316
102
{ACAD_REACTORS
330
315
102
}
330
315
100
AcDbDimAssoc
330
314
 90
        3
 70
     0
 71
     1
  1
AcDbOsnapPointRef
 72
    13
331
22A
 73
     0
 91
        0
 40
0.0
 10
0.0
 20
0.0
 30
0.0
 75
     0
  1
AcDbOsnapPointRef
 72
     1
331
22A
 73
     0
 91
        0
 40
0.0
 10
0.0
 20
0.0
 30
0.0
 75
     0
  0
DIMASSOC
  5
326
102
{ACAD_REACTORS
330
325
102
}
330
325
100
AcDbDimAssoc
330
324
 90
        3
 70
     0
 71
     1
  1
AcDbOsnapPointRef
 72
    13
331
266
 73
     0
 91
        0
 40
0.0
 10
0.0
 20
0.0
 30
0.0
 75
     0
  1
AcDbOsnapPointRef
 72
    13
331
267
 73
     0
 91
        0
 40
0.0
 10
0.0
 20
0.0
 30
0.0
 75
     0
  0
DIMASSOC
  5
337
102
{ACAD_REACTORS
330
336
102
}
330
336
100
AcDbDimAssoc
330
335
 90
        2
 70
     0
 71
     1
  1
AcDbOsnapPointRef
 72
     3
331
212
 73
     0
 91
        0
 40
0.0
 10
0.0
 20
0.0
 30
0.0
 75
     0
  0
LAYOUT
  5
22
102
{ACAD_REACTORS
330
1A
102
}
330
1A
100
AcDbPlotSettings
  1

  2
none_device
  4
ANSI_A_(8.50_x_11.00_Inches)
  6

 40
6.35
 41
19.05
 42
6.35
 43
19.05
 44
215.9
 45
279.4
 46
11.11250000000003
 47
0.0000000000000142
 48
0.0
 49
0.0
140
0.0
141
0.0
142
1.0
143
1.263157894736842
 70
 11444
 72
     0
 73
     1
 74
     1
  7
monochrome.ctb
 75
     0
 76
     0
 77
     2
 78
   300
147
0.7916666666666665
148
-702.8076765758875
149
-496.2830551296954
100
AcDbLayout
  1
Model
 70
     1
 71
     0
 10
0.0
 20
0.0
 11
12.0
 21
9.0
 12
0.0
 22
0.0
 32
0.0
 14
1.000000000000000E+20
 24
1.000000000000000E+20
 34
1.000000000000000E+20
 15
-1.000000000000000E+20
 25
-1.000000000000000E+20
 35
-1.000000000000000E+20
146
0.0
 13
0.0
 23
0.0
 33
0.0
 16
1.0
 26
0.0
 36
0.0
 17
0.0
 27
1.0
 37
0.0
 76
     0
330
1F
331
94
  0
LAYOUT
  5
59
102
{ACAD_REACTORS
330
1A
102
}
330
1A
100
AcDbPlotSettings
  1

  2
none_device
  4
ANSI_A_(11.00_x_8.50_Inches)
  6

 40
6.35
 41
19.05
 42
6.35
 43
19.05
 44
279.4
 45
215.9
 46
0.0
 47
0.0
 48
0.0
 49
0.0
140
0.0
141
0.0
142
1.0
143
1.0
 70
   688
 72
     0
 73
     0
 74
     5
  7

 75
    16
 76
     0
 77
     2
 78
   300
147
1.0
148
0.0
149
0.0
100
AcDbLayout
  1
Sheet1
 70
     1
 71
     1
 10
0.0
 20
0.0
 11
10.75
 21
7.75
 12
0.0
 22
0.0
 32
0.0
 14
1.05
 24
0.6999999999999997
 34
0.0
 15
9.45
 25
6.300000000000001
 35
0.0
146
0.0
 13
0.0
 23
0.0
 33
0.0
 16
1.0
 26
0.0
 36
0.0
 17
0.0
 27
1.0
 37
0.0
 76
     0
330
58
331
344
  0
MATERIAL
  5
E2
102
{ACAD_REACTORS
330
72
102
}
330
72
100
AcDbMaterial
  1
ByBlock
 72
     1
 94
      127
  0
MATERIAL
  5
96
102
{ACAD_REACTORS
330
72
102
}
330
72
100
AcDbMaterial
  1
ByLayer
 72
     1
 94
       63
  0
MATERIAL
  5
98
102
{ACAD_REACTORS
330
72
102
}
330
72
100
AcDbMaterial
  1
Global
 72
     1
 94
       63
  0
MLEADERSTYLE
  5
124
102
{ACAD_REACTORS
330
B5
102
}
330
B5
100
AcDbMLeaderStyle
179
     2
170
     2
171
     1
172
     0
 90
        2
 40
0.0
 41
0.0
173
     1
 91
-1056964608
340
14
 92
       -2
290
     1
 42
0.09
291
     1
 43
0.36
  3
Standard
341
0
 44
0.18
300

342
11
174
     1
178
     6
175
     1
176
     0
 93
-1056964608
 45
0.18
292
     0
297
     0
 46
0.18
343
0
 94
-1056964608
 47
1.0
 49
1.0
140
1.0
293
     1
141
0.0
294
     1
177
     0
142
1.0
295
     0
296
     0
143
0.125
271
     0
272
     9
273
     9
298
     0
  0
MLINESTYLE
  5
18
102
{ACAD_REACTORS
330
17
102
}
330
17
100
AcDbMlineStyle
  2
STANDARD
 70
     0
  3

 62
   256
 51
90.0
 52
90.0
 71
     2
 49
0.5
 62
   256
  6
BYLAYER
 49
-0.5
 62
   256
  6
BYLAYER
  0
ACDBPLACEHOLDER
  5
F
102
{ACAD_REACTORS
330
E
102
}
330
E
  0
SCALE
  5
B7
102
{ACAD_REACTORS
330
B6
102
}
330
B6
100
AcDbScale
 70
     0
300
1:1
140
1.0
141
1.0
290
     1
  0
SCALE
  5
B8
102
{ACAD_REACTORS
330
B6
102
}
330
B6
100
AcDbScale
 70
     0
300
1:2
140
1.0
141
2.0
290
     0
  0
SCALE
  5
B9
102
{ACAD_REACTORS
330
B6
102
}
330
B6
100
AcDbScale
 70
     0
300
1:4
140
1.0
141
4.0
290
     0
  0
SCALE
  5
BA
102
{ACAD_REACTORS
330
B6
102
}
330
B6
100
AcDbScale
 70
     0
300
1:5
140
1.0
141
5.0
290
     0
  0
SCALE
  5
BB
102
{ACAD_REACTORS
330
B6
102
}
330
B6
100
AcDbScale
 70
     0
300
1:8
140
1.0
141
8.0
290
     0
  0
SCALE
  5
BC
102
{ACAD_REACTORS
330
B6
102
}
330
B6
100
AcDbScale
 70
     0
300
1:10
140
1.0
141
10.0
290
     0
  0
SCALE
  5
BD
102
{ACAD_REACTORS
330
B6
102
}
330
B6
100
AcDbScale
 70
     0
300
1:16
140
1.0
141
16.0
290
     0
  0
SCALE
  5
BE
102
{ACAD_REACTORS
330
B6
102
}
330
B6
100
AcDbScale
 70
     0
300
1:20
140
1.0
141
20.0
290
     0
  0
SCALE
  5
BF
102
{ACAD_REACTORS
330
B6
102
}
330
B6
100
AcDbScale
 70
     0
300
1:30
140
1.0
141
30.0
290
     0
  0
SCALE
  5
C0
102
{ACAD_REACTORS
330
B6
102
}
330
B6
100
AcDbScale
 70
     0
300
1:40
140
1.0
141
40.0
290
     0
  0
SCALE
  5
C1
102
{ACAD_REACTORS
330
B6
102
}
330
B6
100
AcDbScale
 70
     0
300
1:50
140
1.0
141
50.0
290
     0
  0
SCALE
  5
C2
102
{ACAD_REACTORS
330
B6
102
}
330
B6
100
AcDbScale
 70
     0
300
1:100
140
1.0
141
100.0
290
     0
  0
SCALE
  5
C3
102
{ACAD_REACTORS
330
B6
102
}
330
B6
100
AcDbScale
 70
     0
300
2:1
140
2.0
141
1.0
290
     0
  0
SCALE
  5
C4
102
{ACAD_REACTORS
330
B6
102
}
330
B6
100
AcDbScale
 70
     0
300
4:1
140
4.0
141
1.0
290
     0
  0
SCALE
  5
C5
102
{ACAD_REACTORS
330
B6
102
}
330
B6
100
AcDbScale
 70
     0
300
8:1
140
8.0
141
1.0
290
     0
  0
SCALE
  5
C6
102
{ACAD_REACTORS
330
B6
102
}
330
B6
100
AcDbScale
 70
     0
300
10:1
140
10.0
141
1.0
290
     0
  0
SCALE
  5
C7
102
{ACAD_REACTORS
330
B6
102
}
330
B6
100
AcDbScale
 70
     0
300
100:1
140
100.0
141
1.0
290
     0
  0
SCALE
  5
C8
102
{ACAD_REACTORS
330
B6
102
}
330
B6
100
AcDbScale
 70
     0
300
1/128" = 1'-0"
140
0.0078125
141
12.0
290
     0
  0
SCALE
  5
C9
102
{ACAD_REACTORS
330
B6
102
}
330
B6
100
AcDbScale
 70
     0
300
1/64" = 1'-0"
140
0.015625
141
12.0
290
     0
  0
SCALE
  5
CA
102
{ACAD_REACTORS
330
B6
102
}
330
B6
100
AcDbScale
 70
     0
300
1/32" = 1'-0"
140
0.03125
141
12.0
290
     0
  0
SCALE
  5
CB
102
{ACAD_REACTORS
330
B6
102
}
330
B6
100
AcDbScale
 70
     0
300
1/16" = 1'-0"
140
0.0625
141
12.0
290
     0
  0
SCALE
  5
CC
102
{ACAD_REACTORS
330
B6
102
}
330
B6
100
AcDbScale
 70
     0
300
3/32" = 1'-0"
140
0.09375
141
12.0
290
     0
  0
SCALE
  5
CD
102
{ACAD_REACTORS
330
B6
102
}
330
B6
100
AcDbScale
 70
     0
300
1/8" = 1'-0"
140
0.125
141
12.0
290
     0
  0
SCALE
  5
CE
102
{ACAD_REACTORS
330
B6
102
}
330
B6
100
AcDbScale
 70
     0
300
3/16" = 1'-0"
140
0.1875
141
12.0
290
     0
  0
SCALE
  5
CF
102
{ACAD_REACTORS
330
B6
102
}
330
B6
100
AcDbScale
 70
     0
300
1/4" = 1'-0"
140
0.25
141
12.0
290
     0
  0
SCALE
  5
D0
102
{ACAD_REACTORS
330
B6
102
}
330
B6
100
AcDbScale
 70
     0
300
3/8" = 1'-0"
140
0.375
141
12.0
290
     0
  0
SCALE
  5
D1
102
{ACAD_REACTORS
330
B6
102
}
330
B6
100
AcDbScale
 70
     0
300
1/2" = 1'-0"
140
0.5
141
12.0
290
     0
  0
SCALE
  5
D2
102
{ACAD_REACTORS
330
B6
102
}
330
B6
100
AcDbScale
 70
     0
300
3/4" = 1'-0"
140
0.75
141
12.0
290
     0
  0
SCALE
  5
D3
102
{ACAD_REACTORS
330
B6
102
}
330
B6
100
AcDbScale
 70
     0
300
1" = 1'-0"
140
1.0
141
12.0
290
     0
  0
SCALE
  5
D4
102
{ACAD_REACTORS
330
B6
102
}
330
B6
100
AcDbScale
 70
     0
300
1-1/2" = 1'-0"
140
1.5
141
12.0
290
     0
  0
SCALE
  5
D5
102
{ACAD_REACTORS
330
B6
102
}
330
B6
100
AcDbScale
 70
     0
300
3" = 1'-0"
140
3.0
141
12.0
290
     0
  0
SCALE
  5
D6
102
{ACAD_REACTORS
330
B6
102
}
330
B6
100
AcDbScale
 70
     0
300
6" = 1'-0"
140
6.0
141
12.0
290
     0
  0
SCALE
  5
D7
102
{ACAD_REACTORS
330
B6
102
}
330
B6
100
AcDbScale
 70
     0
300
1'-0" = 1'-0"
140
12.0
141
12.0
290
     0
  0
TABLESTYLE
  5
87
102
{ACAD_REACTORS
330
86
102
}
102
{ACAD_XDICTIONARY
360
34D
102
}
330
86
100
AcDbTableStyle
  3
Standard
 70
     0
 71
     0
 40
0.06
 41
0.06
280
     0
281
     0
  7
Standard
140
0.18
170
     2
 62
     0
 63
   257
283
     0
 90
      512
 91
        0
  1

274
    -2
284
     1
 64
     0
275
    -2
285
     1
 65
     0
276
    -2
286
     1
 66
     0
277
    -2
287
     1
 67
     0
278
    -2
288
     1
 68
     0
279
    -2
289
     1
 69
     0
  7
Standard
140
0.25
170
     5
 62
     0
 63
   257
283
     0
 90
      512
 91
        0
  1

274
    -2
284
     1
 64
     0
275
    -2
285
     1
 65
     0
276
    -2
286
     1
 66
     0
277
    -2
287
     1
 67
     0
278
    -2
288
     1
 68
     0
279
    -2
289
     1
 69
     0
  7
Standard
140
0.18
170
     5
 62
     0
 63
   257
283
     0
 90
      512
 91
        0
  1

274
    -2
284
     1
 64
     0
275
    -2
285
     1
 65
     0
276
    -2
286
     1
 66
     0
277
    -2
287
     1
 67
     0
278
    -2
288
     1
 68
     0
279
    -2
289
     1
 69
     0
  0
VISUALSTYLE
  5
9F
102
{ACAD_REACTORS
330
99
102
}
330
99
100
AcDbVisualStyle
  2
2dWireframe
 70
     4
177
     3
291
     0
 70
    58
 90
        0
176
     1
 90
        2
176
     1
 90
        1
176
     1
 90
        0
176
     1
 40
-0.6
176
     1
 40
-30.0
176
     1
 62
     7
420
 16777215
176
     1
 90
        1
176
     1
 90
        4
176
     1
 62
     7
176
     1
 62
   257
176
     1
 90
        1
176
     1
 90
        1
176
     1
 40
1.0
176
     1
 90
        0
176
     1
 62
   257
176
     1
 40
1.0
176
     1
 90
        1
176
     1
 90
        6
176
     1
 90
        2
176
     1
 62
     7
176
     1
 90
        5
176
     1
 90
        0
176
     1
 90
        0
176
     1
290
     0
176
     1
 90
        1
176
     1
 40
0.0
176
     1
 90
        0
176
     1
290
     1
176
     1
290
     1
176
     1
290
     0
176
     1
290
     0
176
     1
290
     0
176
     1
290
     0
176
     1
290
     0
176
     1
290
     0
176
     1
290
     0
176
     1
 90
       50
176
     1
 40
0.0
176
     1
 40
1.0
176
     1
 90
        0
176
     1
 62
    18
420
        0
176
     1
 90
       50
176
     1
 90
        3
176
     1
 62
     5
420
      255
176
     1
290
     0
176
     1
 90
       50
176
     1
 90
       50
176
     1
 90
       50
176
     1
290
     0
176
     1
 90
       50
176
     1
 62
   256
176
     0
 40
1.0
176
     0
 90
        2
176
     1
  1
strokes_ogs.tif
176
     1
290
     0
176
     1
 40
1.0
176
     1
 40
1.0
176
     1
  0
VISUALSTYLE
  5
A1
102
{ACAD_REACTORS
330
99
102
}
330
99
100
AcDbVisualStyle
  2
3D Hidden
 70
     6
177
     3
291
     0
 70
    58
 90
        1
176
     1
 90
        2
176
     1
 90
        2
176
     1
 90
        0
176
     1
 40
-0.6
176
     1
 40
-30.0
176
     1
 62
     7
420
 16777215
176
     1
 90
        2
176
     1
 90
        2
176
     1
 62
     7
176
     1
 62
   257
176
     1
 90
        2
176
     1
 90
        1
176
     1
 40
40.0
176
     1
 90
        0
176
     1
 62
   257
176
     1
 40
1.0
176
     1
 90
        1
176
     1
 90
        6
176
     1
 90
        2
176
     1
 62
     7
176
     1
 90
        3
176
     1
 90
        0
176
     1
 90
        0
176
     1
290
     0
176
     1
 90
        1
176
     1
 40
0.0
176
     1
 90
        0
176
     1
290
     0
176
     1
290
     1
176
     1
290
     1
176
     1
290
     0
176
     1
290
     0
176
     1
290
     0
176
     1
290
     0
176
     1
290
     0
176
     1
290
     0
176
     1
 90
       50
176
     1
 40
0.0
176
     1
 40
1.0
176
     1
 90
        0
176
     1
 62
    18
420
        0
176
     1
 90
       50
176
     1
 90
        3
176
     1
 62
     5
420
      255
176
     1
290
     0
176
     1
 90
       50
176
     1
 90
       50
176
     1
 90
       50
176
     1
290
     0
176
     1
 90
       50
176
     1
 62
   256
176
     0
 40
1.0
176
     0
 90
        2
176
     1
  1
strokes_ogs.tif
176
     1
290
     0
176
     1
 40
1.0
176
     1
 40
1.0
176
     1
  0
VISUALSTYLE
  5
A0
102
{ACAD_REACTORS
330
99
102
}
330
99
100
AcDbVisualStyle
  2
3dWireframe
 70
     5
177
     3
291
     0
 70
    58
 90
        0
176
     1
 90
        2
176
     1
 90
        1
176
     1
 90
        0
176
     1
 40
-0.6
176
     1
 40
-30.0
176
     1
 62
     7
420
 16777215
176
     1
 90
        1
176
     1
 90
        4
176
     1
 62
     7
176
     1
 62
   257
176
     1
 90
        1
176
     1
 90
        1
176
     1
 40
1.0
176
     1
 90
        0
176
     1
 62
   257
176
     1
 40
1.0
176
     1
 90
        1
176
     1
 90
        6
176
     1
 90
        2
176
     1
 62
     7
176
     1
 90
        5
176
     1
 90
        0
176
     1
 90
        0
176
     1
290
     0
176
     1
 90
        1
176
     1
 40
0.0
176
     1
 90
        0
176
     1
290
     0
176
     1
290
     1
176
     1
290
     1
176
     1
290
     0
176
     1
290
     0
176
     1
290
     0
176
     1
290
     0
176
     1
290
     0
176
     1
290
     0
176
     1
 90
       50
176
     1
 40
0.0
176
     1
 40
1.0
176
     1
 90
        0
176
     1
 62
    18
420
        0
176
     1
 90
       50
176
     1
 90
        3
176
     1
 62
     5
420
      255
176
     1
290
     0
176
     1
 90
       50
176
     1
 90
       50
176
     1
 90
       50
176
     1
290
     0
176
     1
 90
       50
176
     1
 62
   256
176
     0
 40
1.0
176
     0
 90
        2
176
     1
  1
strokes_ogs.tif
176
     1
290
     0
176
     1
 40
1.0
176
     1
 40
1.0
176
     1
  0
VISUALSTYLE
  5
9E
102
{ACAD_REACTORS
330
99
102
}
330
99
100
AcDbVisualStyle
  2
Basic
 70
     7
177
     3
291
     1
 70
    58
 90
        1
176
     1
 90
        0
176
     1
 90
        1
176
     1
 90
        0
176
     1
 40
-0.6
176
     1
 40
-30.0
176
     1
 62
     7
420
 16777215
176
     1
 90
        0
176
     1
 90
        4
176
     1
 62
     7
176
     1
 62
   257
176
     1
 90
        1
176
     1
 90
        1
176
     1
 40
1.0
176
     1
 90
        8
176
     1
 62
     7
176
     1
 40
1.0
176
     1
 90
        1
176
     1
 90
        6
176
     1
 90
        2
176
     1
 62
     7
176
     1
 90
        5
176
     1
 90
        0
176
     1
 90
        0
176
     1
290
     0
176
     1
 90
        1
176
     1
 40
0.0
176
     1
 90
        0
176
     1
290
     0
176
     1
290
     1
176
     1
290
     1
176
     1
290
     0
176
     1
290
     0
176
     1
290
     0
176
     1
290
     0
176
     1
290
     0
176
     1
290
     0
176
     1
 90
       50
176
     1
 40
0.0
176
     1
 40
1.0
176
     1
 90
        0
176
     1
 62
    18
420
        0
176
     1
 90
       50
176
     1
 90
        3
176
     1
 62
     5
420
      255
176
     1
290
     0
176
     1
 90
       50
176
     1
 90
       50
176
     1
 90
       50
176
     1
290
     0
176
     1
 90
       50
176
     1
 62
   256
176
     0
 40
1.0
176
     0
 90
        2
176
     1
  1
strokes_ogs.tif
176
     1
290
     0
176
     1
 40
1.0
176
     1
 40
1.0
176
     1
  0
VISUALSTYLE
  5
A5
102
{ACAD_REACTORS
330
99
102
}
330
99
100
AcDbVisualStyle
  2
Brighten
 70
    12
177
     3
291
     1
 70
    58
 90
        2
176
     1
 90
        2
176
     1
 90
        1
176
     1
 90
        0
176
     1
 40
-0.6
176
     1
 40
-30.0
176
     1
 62
     7
420
 16777215
176
     1
 90
        1
176
     1
 90
        4
176
     1
 62
     7
176
     1
 62
   257
176
     1
 90
        1
176
     1
 90
        1
176
     1
 40
1.0
176
     1
 90
        8
176
     1
 62
     7
176
     1
 40
1.0
176
     1
 90
        1
176
     1
 90
        6
176
     1
 90
        2
176
     1
 62
     7
176
     1
 90
        5
176
     1
 90
        0
176
     1
 90
        0
176
     1
290
     0
176
     1
 90
        1
176
     1
 40
50.0
176
     1
 90
        0
176
     1
290
     0
176
     1
290
     1
176
     1
290
     1
176
     1
290
     0
176
     1
290
     0
176
     1
290
     0
176
     1
290
     0
176
     1
290
     0
176
     1
290
     0
176
     1
 90
       50
176
     1
 40
0.0
176
     1
 40
1.0
176
     1
 90
        0
176
     1
 62
    18
420
        0
176
     1
 90
       50
176
     1
 90
        3
176
     1
 62
     5
420
      255
176
     1
290
     0
176
     1
 90
       50
176
     1
 90
       50
176
     1
 90
       50
176
     1
290
     0
176
     1
 90
       50
176
     1
 62
   256
176
     0
 40
1.0
176
     0
 90
        2
176
     1
  1
strokes_ogs.tif
176
     1
290
     0
176
     1
 40
1.0
176
     1
 40
1.0
176
     1
  0
VISUALSTYLE
  5
A9
102
{ACAD_REACTORS
330
99
102
}
330
99
100
AcDbVisualStyle
  2
ColorChange
 70
    16
177
     3
291
     1
 70
    58
 90
        2
176
     1
 90
        2
176
     1
 90
        3
176
     1
 90
        0
176
     1
 40
-0.6
176
     1
 40
-30.0
176
     1
 62
     8
420
  8421504
176
     1
 90
        1
176
     1
 90
        4
176
     1
 62
     7
176
     1
 62
   257
176
     1
 90
        1
176
     1
 90
        1
176
     1
 40
1.0
176
     1
 90
        8
176
     1
 62
     8
420
  8421504
176
     1
 40
1.0
176
     1
 90
        1
176
     1
 90
        6
176
     1
 90
        2
176
     1
 62
     7
176
     1
 90
        5
176
     1
 90
        0
176
     1
 90
        0
176
     1
290
     0
176
     1
 90
        1
176
     1
 40
0.0
176
     1
 90
        0
176
     1
290
     0
176
     1
290
     1
176
     1
290
     1
176
     1
290
     0
176
     1
290
     0
176
     1
290
     0
176
     1
290
     0
176
     1
290
     0
176
     1
290
     0
176
     1
 90
       50
176
     1
 40
0.0
176
     1
 40
1.0
176
     1
 90
        0
176
     1
 62
    18
420
        0
176
     1
 90
       50
176
     1
 90
        3
176
     1
 62
     5
420
      255
176
     1
290
     0
176
     1
 90
       50
176
     1
 90
       50
176
     1
 90
       50
176
     1
290
     0
176
     1
 90
       50
176
     1
 62
   256
176
     0
 40
1.0
176
     0
 90
        2
176
     1
  1
strokes_ogs.tif
176
     1
290
     0
176
     1
 40
1.0
176
     1
 40
1.0
176
     1
  0
VISUALSTYLE
  5
A2
102
{ACAD_REACTORS
330
99
102
}
330
99
100
AcDbVisualStyle
  2
Conceptual
 70
     9
177
     3
291
     0
 70
    58
 90
        3
176
     1
 90
        2
176
     1
 90
        1
176
     1
 90
        0
176
     1
 40
-0.6
176
     1
 40
-30.0
176
     1
 62
     7
420
 16777215
176
     1
 90
        2
176
     1
 90
        2
176
     1
 62
     7
176
     1
 62
   257
176
     1
 90
        1
176
     1
 90
        1
176
     1
 40
40.0
176
     1
 90
        8
176
     1
 62
     7
176
     1
 40
1.0
176
     1
 90
        1
176
     1
 90
        6
176
     1
 90
        2
176
     1
 62
     7
176
     1
 90
        3
176
     1
 90
        0
176
     1
 90
        0
176
     1
290
     0
176
     1
 90
        1
176
     1
 40
0.0
176
     1
 90
        0
176
     1
290
     0
176
     1
290
     1
176
     1
290
     1
176
     1
290
     0
176
     1
290
     0
176
     1
290
     0
176
     1
290
     0
176
     1
290
     0
176
     1
290
     0
176
     1
 90
       50
176
     1
 40
0.0
176
     1
 40
1.0
176
     1
 90
        0
176
     1
 62
    18
420
        0
176
     1
 90
       50
176
     1
 90
        3
176
     1
 62
     5
420
      255
176
     1
290
     0
176
     1
 90
       50
176
     1
 90
       50
176
     1
 90
       50
176
     1
290
     0
176
     1
 90
       50
176
     1
 62
   256
176
     0
 40
1.0
176
     0
 90
        2
176
     1
  1
strokes_ogs.tif
176
     1
290
     0
176
     1
 40
1.0
176
     1
 40
1.0
176
     1
  0
VISUALSTYLE
  5
A4
102
{ACAD_REACTORS
330
99
102
}
330
99
100
AcDbVisualStyle
  2
Dim
 70
    11
177
     3
291
     1
 70
    58
 90
        2
176
     1
 90
        2
176
     1
 90
        1
176
     1
 90
        0
176
     1
 40
-0.6
176
     1
 40
-30.0
176
     1
 62
     7
420
 16777215
176
     1
 90
        1
176
     1
 90
        4
176
     1
 62
     7
176
     1
 62
   257
176
     1
 90
        1
176
     1
 90
        1
176
     1
 40
1.0
176
     1
 90
        8
176
     1
 62
     7
176
     1
 40
1.0
176
     1
 90
        1
176
     1
 90
        6
176
     1
 90
        2
176
     1
 62
     7
176
     1
 90
        5
176
     1
 90
        0
176
     1
 90
        0
176
     1
290
     0
176
     1
 90
        1
176
     1
 40
-50.0
176
     1
 90
        0
176
     1
290
     0
176
     1
290
     1
176
     1
290
     1
176
     1
290
     0
176
     1
290
     0
176
     1
290
     0
176
     1
290
     0
176
     1
290
     0
176
     1
290
     0
176
     1
 90
       50
176
     1
 40
0.0
176
     1
 40
1.0
176
     1
 90
        0
176
     1
 62
    18
420
        0
176
     1
 90
       50
176
     1
 90
        3
176
     1
 62
     5
420
      255
176
     1
290
     0
176
     1
 90
       50
176
     1
 90
       50
176
     1
 90
       50
176
     1
290
     0
176
     1
 90
       50
176
     1
 62
   256
176
     0
 40
1.0
176
     0
 90
        2
176
     1
  1
strokes_ogs.tif
176
     1
290
     0
176
     1
 40
1.0
176
     1
 40
1.0
176
     1
  0
VISUALSTYLE
  5
E7
102
{ACAD_REACTORS
330
99
102
}
330
99
100
AcDbVisualStyle
  2
EdgeColorOff
 70
    22
177
     3
291
     1
 70
    58
 90
        2
176
     0
 90
        2
176
     0
 90
        0
176
     0
 90
        0
176
     0
 40
0.6
176
     0
 40
30.0
176
     0
 62
     7
420
 16777215
176
     0
 90
        1
176
     0
 90
        4
176
     0
 62
     7
176
     0
 62
   257
176
     0
 90
        1
176
     0
 90
        1
176
     0
 40
1.0
176
     0
 90
        8
176
     2
 62
     7
176
     0
 40
1.0
176
     0
 90
        1
176
     0
 90
        6
176
     0
 90
        2
176
     0
 62
     7
176
     0
 90
        5
176
     0
 90
        0
176
     0
 90
        0
176
     0
290
     0
176
     0
 90
        1
176
     0
 40
0.0
176
     0
 90
        0
176
     0
290
     0
176
     0
290
     1
176
     0
290
     1
176
     0
290
     0
176
     0
290
     0
176
     0
290
     0
176
     0
290
     0
176
     0
290
     0
176
     0
290
     0
176
     0
 90
       50
176
     0
 40
0.0
176
     0
 40
1.0
176
     0
 90
        0
176
     0
 62
    18
420
        0
176
     0
 90
       50
176
     0
 90
        3
176
     0
 62
     5
420
      255
176
     0
290
     0
176
     0
 90
       50
176
     0
 90
       50
176
     0
 90
       50
176
     0
290
     0
176
     0
 90
       50
176
     0
 62
   256
176
     0
 40
1.0
176
     0
 90
        2
176
     0
  1
strokes_ogs.tif
176
     0
290
     0
176
     0
 40
1.0
176
     0
 40
1.0
176
     0
  0
VISUALSTYLE
  5
A8
102
{ACAD_REACTORS
330
99
102
}
330
99
100
AcDbVisualStyle
  2
Facepattern
 70
    15
177
     3
291
     1
 70
    58
 90
        2
176
     1
 90
        2
176
     1
 90
        1
176
     1
 90
        0
176
     1
 40
-0.6
176
     1
 40
-30.0
176
     1
 62
     7
420
 16777215
176
     1
 90
        1
176
     1
 90
        4
176
     1
 62
     7
176
     1
 62
   257
176
     1
 90
        1
176
     1
 90
        1
176
     1
 40
1.0
176
     1
 90
        8
176
     1
 62
     7
176
     1
 40
1.0
176
     1
 90
        1
176
     1
 90
        6
176
     1
 90
        2
176
     1
 62
     7
176
     1
 90
        5
176
     1
 90
        0
176
     1
 90
        0
176
     1
290
     0
176
     1
 90
        1
176
     1
 40
0.0
176
     1
 90
        0
176
     1
290
     0
176
     1
290
     1
176
     1
290
     1
176
     1
290
     0
176
     1
290
     0
176
     1
290
     0
176
     1
290
     0
176
     1
290
     0
176
     1
290
     0
176
     1
 90
       50
176
     1
 40
0.0
176
     1
 40
1.0
176
     1
 90
        0
176
     1
 62
    18
420
        0
176
     1
 90
       50
176
     1
 90
        3
176
     1
 62
     5
420
      255
176
     1
290
     0
176
     1
 90
       50
176
     1
 90
       50
176
     1
 90
       50
176
     1
290
     0
176
     1
 90
       50
176
     1
 62
   256
176
     0
 40
1.0
176
     0
 90
        2
176
     1
  1
strokes_ogs.tif
176
     1
290
     0
176
     1
 40
1.0
176
     1
 40
1.0
176
     1
  0
VISUALSTYLE
  5
9A
102
{ACAD_REACTORS
330
99
102
}
330
99
100
AcDbVisualStyle
  2
Flat
 70
     0
177
     3
291
     1
 70
    58
 90
        2
176
     1
 90
        1
176
     1
 90
        1
176
     1
 90
        2
176
     1
 40
-0.6
176
     1
 40
30.0
176
     1
 62
     7
420
 16777215
176
     1
 90
        0
176
     1
 90
        4
176
     1
 62
     7
176
     1
 62
   257
176
     1
 90
        1
176
     1
 90
        1
176
     1
 40
1.0
176
     1
 90
        8
176
     1
 62
     7
176
     1
 40
1.0
176
     1
 90
        1
176
     1
 90
        6
176
     1
 90
        2
176
     1
 62
     7
176
     1
 90
        5
176
     1
 90
        0
176
     1
 90
        0
176
     1
290
     0
176
     1
 90
        1
176
     1
 40
0.0
176
     1
 90
        0
176
     1
290
     0
176
     1
290
     1
176
     1
290
     1
176
     1
290
     0
176
     1
290
     0
176
     1
290
     0
176
     1
290
     0
176
     1
290
     0
176
     1
290
     0
176
     1
 90
       50
176
     1
 40
0.0
176
     1
 40
1.0
176
     1
 90
        0
176
     1
 62
    18
420
        0
176
     1
 90
       50
176
     1
 90
        3
176
     1
 62
     5
420
      255
176
     1
290
     0
176
     1
 90
       50
176
     1
 90
       50
176
     1
 90
       50
176
     1
290
     0
176
     1
 90
       50
176
     1
 62
   256
176
     0
 40
1.0
176
     0
 90
        2
176
     1
  1
strokes_ogs.tif
176
     1
290
     0
176
     1
 40
1.0
176
     1
 40
1.0
176
     1
  0
VISUALSTYLE
  5
9B
102
{ACAD_REACTORS
330
99
102
}
330
99
100
AcDbVisualStyle
  2
FlatWithEdges
 70
     1
177
     3
291
     1
 70
    58
 90
        2
176
     1
 90
        1
176
     1
 90
        1
176
     1
 90
        2
176
     1
 40
-0.6
176
     1
 40
30.0
176
     1
 62
     7
420
 16777215
176
     1
 90
        1
176
     1
 90
        4
176
     1
 62
     7
176
     1
 62
   257
176
     1
 90
        1
176
     1
 90
        1
176
     1
 40
1.0
176
     1
 90
        0
176
     1
 62
   257
176
     1
 40
1.0
176
     1
 90
        1
176
     1
 90
        6
176
     1
 90
        2
176
     1
 62
     7
176
     1
 90
        5
176
     1
 90
        0
176
     1
 90
        0
176
     1
290
     0
176
     1
 90
        1
176
     1
 40
0.0
176
     1
 90
        0
176
     1
290
     0
176
     1
290
     1
176
     1
290
     1
176
     1
290
     0
176
     1
290
     0
176
     1
290
     0
176
     1
290
     0
176
     1
290
     0
176
     1
290
     0
176
     1
 90
       50
176
     1
 40
0.0
176
     1
 40
1.0
176
     1
 90
        0
176
     1
 62
    18
420
        0
176
     1
 90
       50
176
     1
 90
        3
176
     1
 62
     5
420
      255
176
     1
290
     0
176
     1
 90
       50
176
     1
 90
       50
176
     1
 90
       50
176
     1
290
     0
176
     1
 90
       50
176
     1
 62
   256
176
     0
 40
1.0
176
     0
 90
        2
176
     1
  1
strokes_ogs.tif
176
     1
290
     0
176
     1
 40
1.0
176
     1
 40
1.0
176
     1
  0
VISUALSTYLE
  5
9C
102
{ACAD_REACTORS
330
99
102
}
330
99
100
AcDbVisualStyle
  2
Gouraud
 70
     2
177
     3
291
     1
 70
    58
 90
        2
176
     1
 90
        2
176
     1
 90
        1
176
     1
 90
        2
176
     1
 40
-0.6
176
     1
 40
30.0
176
     1
 62
     7
420
 16777215
176
     1
 90
        0
176
     1
 90
        4
176
     1
 62
     7
176
     1
 62
   257
176
     1
 90
        1
176
     1
 90
        1
176
     1
 40
1.0
176
     1
 90
        0
176
     1
 62
     7
176
     1
 40
1.0
176
     1
 90
        1
176
     1
 90
        6
176
     1
 90
        2
176
     1
 62
     7
176
     1
 90
        5
176
     1
 90
        0
176
     1
 90
        0
176
     1
290
     0
176
     1
 90
        1
176
     1
 40
0.0
176
     1
 90
        0
176
     1
290
     0
176
     1
290
     1
176
     1
290
     1
176
     1
290
     0
176
     1
290
     0
176
     1
290
     0
176
     1
290
     0
176
     1
290
     0
176
     1
290
     0
176
     1
 90
       50
176
     1
 40
0.0
176
     1
 40
1.0
176
     1
 90
        0
176
     1
 62
    18
420
        0
176
     1
 90
       50
176
     1
 90
        3
176
     1
 62
     5
420
      255
176
     1
290
     0
176
     1
 90
       50
176
     1
 90
       50
176
     1
 90
       50
176
     1
290
     0
176
     1
 90
       50
176
     1
 62
   256
176
     0
 40
1.0
176
     0
 90
        2
176
     1
  1
strokes_ogs.tif
176
     1
290
     0
176
     1
 40
1.0
176
     1
 40
1.0
176
     1
  0
VISUALSTYLE
  5
9D
102
{ACAD_REACTORS
330
99
102
}
330
99
100
AcDbVisualStyle
  2
GouraudWithEdges
 70
     3
177
     3
291
     1
 70
    58
 90
        2
176
     1
 90
        2
176
     1
 90
        1
176
     1
 90
        2
176
     1
 40
-0.6
176
     1
 40
30.0
176
     1
 62
     7
420
 16777215
176
     1
 90
        1
176
     1
 90
        4
176
     1
 62
     7
176
     1
 62
   257
176
     1
 90
        1
176
     1
 90
        1
176
     1
 40
1.0
176
     1
 90
        0
176
     1
 62
   257
176
     1
 40
1.0
176
     1
 90
        1
176
     1
 90
        6
176
     1
 90
        2
176
     1
 62
     7
176
     1
 90
        5
176
     1
 90
        0
176
     1
 90
        0
176
     1
290
     0
176
     1
 90
        1
176
     1
 40
0.0
176
     1
 90
        0
176
     1
290
     0
176
     1
290
     1
176
     1
290
     1
176
     1
290
     0
176
     1
290
     0
176
     1
290
     0
176
     1
290
     0
176
     1
290
     0
176
     1
290
     0
176
     1
 90
       50
176
     1
 40
0.0
176
     1
 40
1.0
176
     1
 90
        0
176
     1
 62
    18
420
        0
176
     1
 90
       50
176
     1
 90
        3
176
     1
 62
     5
420
      255
176
     1
290
     0
176
     1
 90
       50
176
     1
 90
       50
176
     1
 90
       50
176
     1
290
     0
176
     1
 90
       50
176
     1
 62
   256
176
     0
 40
1.0
176
     0
 90
        2
176
     1
  1
strokes_ogs.tif
176
     1
290
     0
176
     1
 40
1.0
176
     1
 40
1.0
176
     1
  0
VISUALSTYLE
  5
E4
102
{ACAD_REACTORS
330
99
102
}
330
99
100
AcDbVisualStyle
  2
Hidden
 70
     6
177
     3
291
     0
 70
    58
 90
        1
176
     1
 90
        2
176
     1
 90
        2
176
     1
 90
        0
176
     1
 40
0.6
176
     1
 40
30.0
176
     1
 62
     7
420
 16777215
176
     1
 90
        2
176
     1
 90
        2
176
     1
 62
     7
176
     1
 62
   257
176
     1
 90
        2
176
     1
 90
        1
176
     1
 40
40.0
176
     1
 90
        0
176
     1
 62
   257
176
     1
 40
1.0
176
     1
 90
        1
176
     1
 90
        6
176
     1
 90
        2
176
     1
 62
     7
176
     1
 90
        3
176
     1
 90
        0
176
     1
 90
        0
176
     1
290
     0
176
     1
 90
        1
176
     1
 40
0.0
176
     1
 90
        0
176
     1
290
     0
176
     1
290
     1
176
     1
290
     1
176
     1
290
     0
176
     1
290
     0
176
     1
290
     0
176
     1
290
     0
176
     1
290
     0
176
     1
290
     0
176
     1
 90
       50
176
     1
 40
0.0
176
     1
 40
1.0
176
     1
 90
        0
176
     1
 62
    18
420
        0
176
     1
 90
       50
176
     1
 90
        3
176
     1
 62
     5
420
      255
176
     1
290
     0
176
     1
 90
       50
176
     1
 90
       50
176
     1
 90
       50
176
     1
290
     0
176
     1
 90
       50
176
     1
 62
   256
176
     0
 40
1.0
176
     0
 90
        2
176
     1
  1
strokes_ogs.tif
176
     1
290
     0
176
     1
 40
1.0
176
     1
 40
1.0
176
     1
  0
VISUALSTYLE
  5
E5
102
{ACAD_REACTORS
330
99
102
}
330
99
100
AcDbVisualStyle
  2
JitterOff
 70
    20
177
     3
291
     1
 70
    58
 90
        2
176
     0
 90
        2
176
     0
 90
        0
176
     0
 90
        0
176
     0
 40
0.6
176
     0
 40
30.0
176
     0
 62
     7
420
 16777215
176
     0
 90
        1
176
     0
 90
        4
176
     0
 62
     7
176
     0
 62
   257
176
     0
 90
        1
176
     0
 90
        1
176
     0
 40
1.0
176
     0
 90
       10
176
     2
 62
     7
176
     0
 40
1.0
176
     0
 90
        1
176
     0
 90
        6
176
     0
 90
        2
176
     0
 62
     7
176
     0
 90
        5
176
     0
 90
        0
176
     0
 90
        0
176
     0
290
     0
176
     0
 90
        1
176
     0
 40
0.0
176
     0
 90
        0
176
     0
290
     0
176
     0
290
     1
176
     0
290
     1
176
     0
290
     0
176
     0
290
     0
176
     0
290
     0
176
     0
290
     0
176
     0
290
     0
176
     0
290
     0
176
     0
 90
       50
176
     0
 40
0.0
176
     0
 40
1.0
176
     0
 90
        0
176
     0
 62
    18
420
        0
176
     0
 90
       50
176
     0
 90
        3
176
     0
 62
     5
420
      255
176
     0
290
     0
176
     0
 90
       50
176
     0
 90
       50
176
     0
 90
       50
176
     0
290
     0
176
     0
 90
       50
176
     0
 62
   256
176
     0
 40
1.0
176
     0
 90
        2
176
     0
  1
strokes_ogs.tif
176
     0
290
     0
176
     0
 40
1.0
176
     0
 40
1.0
176
     0
  0
VISUALSTYLE
  5
A7
102
{ACAD_REACTORS
330
99
102
}
330
99
100
AcDbVisualStyle
  2
Linepattern
 70
    14
177
     3
291
     1
 70
    58
 90
        2
176
     1
 90
        2
176
     1
 90
        1
176
     1
 90
        0
176
     1
 40
-0.6
176
     1
 40
-30.0
176
     1
 62
     7
420
 16777215
176
     1
 90
        1
176
     1
 90
        4
176
     1
 62
     7
176
     1
 62
   257
176
     1
 90
        7
176
     1
 90
        7
176
     1
 40
1.0
176
     1
 90
        8
176
     1
 62
     7
176
     1
 40
1.0
176
     1
 90
        1
176
     1
 90
        6
176
     1
 90
        2
176
     1
 62
     7
176
     1
 90
        5
176
     1
 90
        0
176
     1
 90
        0
176
     1
290
     0
176
     1
 90
        1
176
     1
 40
0.0
176
     1
 90
        0
176
     1
290
     0
176
     1
290
     1
176
     1
290
     1
176
     1
290
     0
176
     1
290
     0
176
     1
290
     0
176
     1
290
     0
176
     1
290
     0
176
     1
290
     0
176
     1
 90
       50
176
     1
 40
0.0
176
     1
 40
1.0
176
     1
 90
        0
176
     1
 62
    18
420
        0
176
     1
 90
       50
176
     1
 90
        3
176
     1
 62
     5
420
      255
176
     1
290
     0
176
     1
 90
       50
176
     1
 90
       50
176
     1
 90
       50
176
     1
290
     0
176
     1
 90
       50
176
     1
 62
   256
176
     0
 40
1.0
176
     0
 90
        2
176
     1
  1
strokes_ogs.tif
176
     1
290
     0
176
     1
 40
1.0
176
     1
 40
1.0
176
     1
  0
VISUALSTYLE
  5
E6
102
{ACAD_REACTORS
330
99
102
}
330
99
100
AcDbVisualStyle
  2
OverhangOff
 70
    21
177
     3
291
     1
 70
    58
 90
        2
176
     0
 90
        2
176
     0
 90
        0
176
     0
 90
        0
176
     0
 40
0.6
176
     0
 40
30.0
176
     0
 62
     7
420
 16777215
176
     0
 90
        1
176
     0
 90
        4
176
     0
 62
     7
176
     0
 62
   257
176
     0
 90
        1
176
     0
 90
        1
176
     0
 40
1.0
176
     0
 90
        9
176
     2
 62
     7
176
     0
 40
1.0
176
     0
 90
        1
176
     0
 90
        6
176
     0
 90
        2
176
     0
 62
     7
176
     0
 90
        5
176
     0
 90
        0
176
     0
 90
        0
176
     0
290
     0
176
     0
 90
        1
176
     0
 40
0.0
176
     0
 90
        0
176
     0
290
     0
176
     0
290
     1
176
     0
290
     1
176
     0
290
     0
176
     0
290
     0
176
     0
290
     0
176
     0
290
     0
176
     0
290
     0
176
     0
290
     0
176
     0
 90
       50
176
     0
 40
0.0
176
     0
 40
1.0
176
     0
 90
        0
176
     0
 62
    18
420
        0
176
     0
 90
       50
176
     0
 90
        3
176
     0
 62
     5
420
      255
176
     0
290
     0
176
     0
 90
       50
176
     0
 90
       50
176
     0
 90
       50
176
     0
290
     0
176
     0
 90
       50
176
     0
 62
   256
176
     0
 40
1.0
176
     0
 90
        2
176
     0
  1
strokes_ogs.tif
176
     0
290
     0
176
     0
 40
1.0
176
     0
 40
1.0
176
     0
  0
VISUALSTYLE
  5
A3
102
{ACAD_REACTORS
330
99
102
}
330
99
100
AcDbVisualStyle
  2
Realistic
 70
     8
177
     3
291
     0
 70
    58
 90
        2
176
     1
 90
        2
176
     1
 90
        1
176
     1
 90
        0
176
     1
 40
-0.6
176
     1
 40
-30.0
176
     1
 62
     7
420
 16777215
176
     1
 90
        1
176
     1
 90
        0
176
     1
 62
     7
176
     1
 62
   257
176
     1
 90
        1
176
     1
 90
        1
176
     1
 40
1.0
176
     1
 90
        8
176
     1
 62
     8
420
  7895160
176
     1
 40
1.0
176
     1
 90
        1
176
     1
 90
        6
176
     1
 90
        2
176
     1
 62
     7
176
     1
 90
        5
176
     1
 90
        0
176
     1
 90
        0
176
     1
290
     0
176
     1
 90
       13
176
     1
 40
0.0
176
     1
 90
        0
176
     1
290
     0
176
     1
290
     1
176
     1
290
     1
176
     1
290
     0
176
     1
290
     0
176
     1
290
     0
176
     1
290
     0
176
     1
290
     0
176
     1
290
     0
176
     1
 90
       50
176
     1
 40
0.0
176
     1
 40
1.0
176
     1
 90
        0
176
     1
 62
    18
420
        0
176
     1
 90
       50
176
     1
 90
        3
176
     1
 62
     5
420
      255
176
     1
290
     0
176
     1
 90
       50
176
     1
 90
       50
176
     1
 90
       50
176
     1
290
     0
176
     1
 90
       50
176
     1
 62
   256
176
     0
 40
1.0
176
     0
 90
        2
176
     1
  1
strokes_ogs.tif
176
     1
290
     0
176
     1
 40
1.0
176
     1
 40
1.0
176
     1
  0
VISUALSTYLE
  5
EC
102
{ACAD_REACTORS
330
99
102
}
330
99
100
AcDbVisualStyle
  2
Shaded
 70
    27
177
     3
291
     0
 70
    58
 90
        2
176
     1
 90
        2
176
     1
 90
        1
176
     1
 90
        2
176
     1
 40
0.6
176
     1
 40
30.0
176
     1
 62
     7
420
 16777215
176
     1
 90
        0
176
     1
 90
        4
176
     1
 62
     7
176
     1
 62
   257
176
     1
 90
        1
176
     1
 90
        1
176
     1
 40
1.0
176
     1
 90
        8
176
     1
 62
   257
176
     1
 40
1.0
176
     1
 90
        1
176
     1
 90
        6
176
     1
 90
        2
176
     1
 62
     8
420
  7895160
176
     1
 90
        3
176
     1
 90
        0
176
     1
 90
        0
176
     1
290
     0
176
     1
 90
        5
176
     1
 40
0.0
176
     1
 90
        0
176
     1
290
     0
176
     1
290
     1
176
     1
290
     1
176
     1
290
     0
176
     1
290
     0
176
     1
290
     0
176
     1
290
     0
176
     1
290
     0
176
     1
290
     0
176
     1
 90
       50
176
     1
 40
0.0
176
     1
 40
1.0
176
     1
 90
        0
176
     1
 62
    18
420
        0
176
     1
 90
       50
176
     1
 90
        3
176
     1
 62
     5
420
      255
176
     1
290
     0
176
     1
 90
       50
176
     1
 90
       50
176
     1
 90
       50
176
     1
290
     0
176
     1
 90
       50
176
     1
 62
   256
176
     0
 40
1.0
176
     0
 90
        2
176
     1
  1
strokes_ogs.tif
176
     1
290
     0
176
     1
 40
1.0
176
     1
 40
1.0
176
     1
  0
VISUALSTYLE
  5
EB
102
{ACAD_REACTORS
330
99
102
}
330
99
100
AcDbVisualStyle
  2
Shaded with edges
 70
    26
177
     3
291
     0
 70
    58
 90
        2
176
     1
 90
        2
176
     1
 90
        1
176
     1
 90
        2
176
     1
 40
0.6
176
     1
 40
30.0
176
     1
 62
     7
420
 16777215
176
     1
 90
        1
176
     1
 90
       10
176
     1
 62
     7
176
     1
 62
   257
176
     1
 90
        2
176
     1
 90
        1
176
     1
 40
1.0
176
     1
 90
        8
176
     1
 62
   257
176
     1
 40
1.0
176
     1
 90
        1
176
     1
 90
        6
176
     1
 90
        2
176
     1
 62
     7
176
     1
 90
        3
176
     1
 90
        0
176
     1
 90
        0
176
     1
290
     0
176
     1
 90
        5
176
     1
 40
0.0
176
     1
 90
        0
176
     1
290
     0
176
     1
290
     1
176
     1
290
     1
176
     1
290
     0
176
     1
290
     0
176
     1
290
     0
176
     1
290
     0
176
     1
290
     0
176
     1
290
     0
176
     1
 90
       50
176
     1
 40
0.0
176
     1
 40
1.0
176
     1
 90
        0
176
     1
 62
    18
420
        0
176
     1
 90
       50
176
     1
 90
        3
176
     1
 62
     5
420
      255
176
     1
290
     0
176
     1
 90
       50
176
     1
 90
       50
176
     1
 90
       50
176
     1
290
     0
176
     1
 90
       50
176
     1
 62
   256
176
     0
 40
1.0
176
     0
 90
        2
176
     1
  1
strokes_ogs.tif
176
     1
290
     0
176
     1
 40
1.0
176
     1
 40
1.0
176
     1
  0
VISUALSTYLE
  5
E8
102
{ACAD_REACTORS
330
99
102
}
330
99
100
AcDbVisualStyle
  2
Shades of Gray
 70
    23
177
     3
291
     0
 70
    58
 90
        2
176
     1
 90
        2
176
     1
 90
        3
176
     1
 90
        0
176
     1
 40
0.6
176
     1
 40
30.0
176
     1
 62
     7
420
 16777215
176
     1
 90
        2
176
     1
 90
        2
176
     1
 62
     7
176
     1
 62
     7
176
     1
 90
        1
176
     1
 90
        1
176
     1
 40
40.0
176
     1
 90
        8
176
     1
 62
     7
176
     1
 40
1.0
176
     1
 90
        1
176
     1
 90
        6
176
     1
 90
        2
176
     1
 62
     7
176
     1
 90
        3
176
     1
 90
        0
176
     1
 90
        0
176
     1
290
     0
176
     1
 90
        1
176
     1
 40
0.0
176
     1
 90
        0
176
     1
290
     0
176
     1
290
     1
176
     1
290
     1
176
     1
290
     0
176
     1
290
     0
176
     1
290
     0
176
     1
290
     0
176
     1
290
     0
176
     1
290
     0
176
     1
 90
       50
176
     1
 40
0.0
176
     1
 40
1.0
176
     1
 90
        0
176
     1
 62
    18
420
        0
176
     1
 90
       50
176
     1
 90
        3
176
     1
 62
     5
420
      255
176
     1
290
     0
176
     1
 90
       50
176
     1
 90
       50
176
     1
 90
       50
176
     1
290
     0
176
     1
 90
       50
176
     1
 62
   256
176
     0
 40
1.0
176
     0
 90
        2
176
     1
  1
strokes_ogs.tif
176
     1
290
     0
176
     1
 40
1.0
176
     1
 40
1.0
176
     1
  0
VISUALSTYLE
  5
E9
102
{ACAD_REACTORS
330
99
102
}
330
99
100
AcDbVisualStyle
  2
Sketchy
 70
    24
177
     3
291
     0
 70
    58
 90
        1
176
     1
 90
        2
176
     1
 90
        2
176
     1
 90
        0
176
     1
 40
0.6
176
     1
 40
30.0
176
     1
 62
     7
420
 16777215
176
     1
 90
        2
176
     1
 90
        2
176
     1
 62
     7
176
     1
 62
     7
176
     1
 90
        1
176
     1
 90
        1
176
     1
 40
40.0
176
     1
 90
       11
176
     1
 62
     7
176
     1
 40
1.0
176
     1
 90
        1
176
     1
 90
        6
176
     1
 90
        2
176
     1
 62
     7
176
     1
 90
        6
176
     1
 90
        0
176
     1
 90
        0
176
     1
290
     0
176
     1
 90
        1
176
     1
 40
0.0
176
     1
 90
        0
176
     1
290
     0
176
     1
290
     1
176
     1
290
     1
176
     1
290
     0
176
     1
290
     0
176
     1
290
     0
176
     1
290
     0
176
     1
290
     0
176
     1
290
     0
176
     1
 90
       50
176
     1
 40
0.0
176
     1
 40
1.0
176
     1
 90
        0
176
     1
 62
    18
420
        0
176
     1
 90
       50
176
     1
 90
        3
176
     1
 62
     5
420
      255
176
     1
290
     0
176
     1
 90
       50
176
     1
 90
       50
176
     1
 90
       50
176
     1
290
     0
176
     1
 90
       50
176
     1
 62
   256
176
     0
 40
1.0
176
     0
 90
        2
176
     1
  1
strokes_ogs.tif
176
     1
290
     0
176
     1
 40
1.0
176
     1
 40
1.0
176
     1
  0
VISUALSTYLE
  5
A6
102
{ACAD_REACTORS
330
99
102
}
330
99
100
AcDbVisualStyle
  2
Thicken
 70
    13
177
     3
291
     1
 70
    58
 90
        2
176
     1
 90
        2
176
     1
 90
        1
176
     1
 90
        0
176
     1
 40
-0.6
176
     1
 40
-30.0
176
     1
 62
     7
420
 16777215
176
     1
 90
        1
176
     1
 90
        4
176
     1
 62
     7
176
     1
 62
   257
176
     1
 90
        1
176
     1
 90
        1
176
     1
 40
1.0
176
     1
 90
       12
176
     1
 62
     7
176
     1
 40
1.0
176
     1
 90
        1
176
     1
 90
        6
176
     1
 90
        2
176
     1
 62
     7
176
     1
 90
        5
176
     1
 90
        0
176
     1
 90
        0
176
     1
290
     0
176
     1
 90
        1
176
     1
 40
0.0
176
     1
 90
        0
176
     1
290
     0
176
     1
290
     1
176
     1
290
     1
176
     1
290
     0
176
     1
290
     0
176
     1
290
     0
176
     1
290
     0
176
     1
290
     0
176
     1
290
     0
176
     1
 90
       50
176
     1
 40
0.0
176
     1
 40
1.0
176
     1
 90
        0
176
     1
 62
    18
420
        0
176
     1
 90
       50
176
     1
 90
        3
176
     1
 62
     5
420
      255
176
     1
290
     0
176
     1
 90
       50
176
     1
 90
       50
176
     1
 90
       50
176
     1
290
     0
176
     1
 90
       50
176
     1
 62
   256
176
     0
 40
1.0
176
     0
 90
        2
176
     1
  1
strokes_ogs.tif
176
     1
290
     0
176
     1
 40
1.0
176
     1
 40
1.0
176
     1
  0
VISUALSTYLE
  5
E3
102
{ACAD_REACTORS
330
99
102
}
330
99
100
AcDbVisualStyle
  2
Wireframe
 70
     5
177
     3
291
     0
 70
    58
 90
        0
176
     1
 90
        2
176
     1
 90
        0
176
     1
 90
        0
176
     1
 40
0.6
176
     1
 40
30.0
176
     1
 62
     7
420
 16777215
176
     1
 90
        1
176
     1
 90
        4
176
     1
 62
     7
176
     1
 62
   257
176
     1
 90
        1
176
     1
 90
        1
176
     1
 40
1.0
176
     1
 90
        0
176
     1
 62
   257
176
     1
 40
1.0
176
     1
 90
        1
176
     1
 90
        6
176
     1
 90
        2
176
     1
 62
     7
176
     1
 90
        3
176
     1
 90
        0
176
     1
 90
        0
176
     1
290
     0
176
     1
 90
        1
176
     1
 40
0.0
176
     1
 90
        0
176
     1
290
     0
176
     1
290
     1
176
     1
290
     1
176
     1
290
     0
176
     1
290
     0
176
     1
290
     0
176
     1
290
     0
176
     1
290
     0
176
     1
290
     0
176
     1
 90
       50
176
     1
 40
0.0
176
     1
 40
1.0
176
     1
 90
        0
176
     1
 62
    18
420
        0
176
     1
 90
       50
176
     1
 90
        3
176
     1
 62
     5
420
      255
176
     1
290
     0
176
     1
 90
       50
176
     1
 90
       50
176
     1
 90
       50
176
     1
290
     0
176
     1
 90
       50
176
     1
 62
   256
176
     0
 40
1.0
176
     0
 90
        2
176
     1
  1
strokes_ogs.tif
176
     1
290
     0
176
     1
 40
1.0
176
     1
 40
1.0
176
     1
  0
VISUALSTYLE
  5
EA
102
{ACAD_REACTORS
330
99
102
}
330
99
100
AcDbVisualStyle
  2
X-Ray
 70
    25
177
     3
291
     0
 70
    58
 90
        2
176
     1
 90
        2
176
     1
 90
        1
176
     1
 90
        1
176
     1
 40
0.5
176
     1
 40
30.0
176
     1
 62
     7
420
 16777215
176
     1
 90
        1
176
     1
 90
        0
176
     1
 62
     7
176
     1
 62
   257
176
     1
 90
        1
176
     1
 90
        1
176
     1
 40
1.0
176
     1
 90
        8
176
     1
 62
     7
176
     1
 40
1.0
176
     1
 90
        1
176
     1
 90
        6
176
     1
 90
        2
176
     1
 62
     7
176
     1
 90
        3
176
     1
 90
        0
176
     1
 90
        0
176
     1
290
     0
176
     1
 90
       13
176
     1
 40
0.0
176
     1
 90
        0
176
     1
290
     0
176
     1
290
     1
176
     1
290
     1
176
     1
290
     0
176
     1
290
     0
176
     1
290
     0
176
     1
290
     0
176
     1
290
     0
176
     1
290
     0
176
     1
 90
       50
176
     1
 40
0.0
176
     1
 40
1.0
176
     1
 90
        0
176
     1
 62
    18
420
        0
176
     1
 90
       50
176
     1
 90
        3
176
     1
 62
     5
420
      255
176
     1
290
     0
176
     1
 90
       50
176
     1
 90
       50
176
     1
 90
       50
176
     1
290
     0
176
     1
 90
       50
176
     1
 62
   256
176
     0
 40
1.0
176
     0
 90
        2
176
     1
  1
strokes_ogs.tif
176
     1
290
     0
176
     1
 40
1.0
176
     1
 40
1.0
176
     1
  0
DICTIONARYVAR
  5
D8
102
{ACAD_REACTORS
330
66
102
}
330
66
100
DictionaryVariables
280
     0
  1
1:1
  0
DICTIONARYVAR
  5
2DC
102
{ACAD_REACTORS
330
66
102
}
330
66
100
DictionaryVariables
280
     0
  1
Standard
  0
DICTIONARYVAR
  5
89
102
{ACAD_REACTORS
330
66
102
}
330
66
100
DictionaryVariables
280
     0
  1
Standard
  0
DICTIONARYVAR
  5
67
102
{ACAD_REACTORS
330
66
102
}
330
66
100
DictionaryVariables
280
     0
  1
2
  0
DICTIONARYVAR
  5
6B
102
{ACAD_REACTORS
330
66
102
}
330
66
100
DictionaryVariables
280
     0
  1
1
  0
DICTIONARYVAR
  5
DF
102
{ACAD_REACTORS
330
66
102
}
330
66
100
DictionaryVariables
280
     0
  1
0
  0
DICTIONARYVAR
  5
E0
102
{ACAD_REACTORS
330
66
102
}
330
66
100
DictionaryVariables
280
     0
  1
0
  0
XRECORD
  5
2E1
102
{ACAD_REACTORS
330
2D5
102
}
330
2D5
100
AcDbXrecord
280
     1
 91
     1023
301

290
     0
302
0
330
10
 90
        8
 62
     7
370
    -3
331
16
  1
Color_7
330
2D7
 90
        8
 62
     1
370
     5
331
16
  1
Color_1
330
2D9
 90
        8
 62
     5
370
    30
331
16
  1
Color_5
  0
DICTIONARY
  5
34D
330
87
100
AcDbDictionary
280
     1
281
     1
  3
ACAD_ROUNDTRIP_2008_TABLESTYLE_CELLSTYLEMAP
360
34E
  0
CELLSTYLEMAP
  5
34E
102
{ACAD_REACTORS
330
34D
102
}
330
34D
100
AcDbCellStyleMap
 90
        3
300
CELLSTYLE
  1
TABLEFORMAT_BEGIN
 90
        5
170
     1
 91
        0
 92
    32768
 62
   257
 93
        1
300
CONTENTFORMAT
  1
CONTENTFORMAT_BEGIN
 90
        0
 91
        0
 92
      512
 93
        0
300

 40
0.0
140
1.0
 94
        5
 62
     0
340
11
144
0.25
309
CONTENTFORMAT_END
171
     0
 94
        6
 95
        1
302
GRIDFORMAT
  1
GRIDFORMAT_BEGIN
 90
        0
 91
        1
 62
     0
 92
       -2
340
0
 93
        0
 40
0.045
309
GRIDFORMAT_END
 95
        2
302
GRIDFORMAT
  1
GRIDFORMAT_BEGIN
 90
        0
 91
        1
 62
     0
 92
       -2
340
0
 93
        0
 40
0.045
309
GRIDFORMAT_END
 95
        4
302
GRIDFORMAT
  1
GRIDFORMAT_BEGIN
 90
        0
 91
        1
 62
     0
 92
       -2
340
0
 93
        0
 40
0.045
309
GRIDFORMAT_END
 95
        8
302
GRIDFORMAT
  1
GRIDFORMAT_BEGIN
 90
        0
 91
        1
 62
     0
 92
       -2
340
0
 93
        0
 40
0.045
309
GRIDFORMAT_END
 95
       16
302
GRIDFORMAT
  1
GRIDFORMAT_BEGIN
 90
        0
 91
        1
 62
     0
 92
       -2
340
0
 93
        0
 40
0.045
309
GRIDFORMAT_END
 95
       32
302
GRIDFORMAT
  1
GRIDFORMAT_BEGIN
 90
        0
 91
        1
 62
     0
 92
       -2
340
0
 93
        0
 40
0.045
309
GRIDFORMAT_END
309
TABLEFORMAT_END
  1
CELLSTYLE_BEGIN
 90
        1
 91
        1
300
_TITLE
309
CELLSTYLE_END
300
CELLSTYLE
  1
TABLEFORMAT_BEGIN
 90
        5
170
     1
 91
        0
 92
        0
 62
   257
 93
        1
300
CONTENTFORMAT
  1
CONTENTFORMAT_BEGIN
 90
        0
 91
        0
 92
      512
 93
        0
300

 40
0.0
140
1.0
 94
        5
 62
     0
340
11
144
0.18
309
CONTENTFORMAT_END
171
     0
 94
        6
 95
        1
302
GRIDFORMAT
  1
GRIDFORMAT_BEGIN
 90
        0
 91
        1
 62
     0
 92
       -2
340
0
 93
        0
 40
0.045
309
GRIDFORMAT_END
 95
        2
302
GRIDFORMAT
  1
GRIDFORMAT_BEGIN
 90
        0
 91
        1
 62
     0
 92
       -2
340
0
 93
        0
 40
0.045
309
GRIDFORMAT_END
 95
        4
302
GRIDFORMAT
  1
GRIDFORMAT_BEGIN
 90
        0
 91
        1
 62
     0
 92
       -2
340
0
 93
        0
 40
0.045
309
GRIDFORMAT_END
 95
        8
302
GRIDFORMAT
  1
GRIDFORMAT_BEGIN
 90
        0
 91
        1
 62
     0
 92
       -2
340
0
 93
        0
 40
0.045
309
GRIDFORMAT_END
 95
       16
302
GRIDFORMAT
  1
GRIDFORMAT_BEGIN
 90
        0
 91
        1
 62
     0
 92
       -2
340
0
 93
        0
 40
0.045
309
GRIDFORMAT_END
 95
       32
302
GRIDFORMAT
  1
GRIDFORMAT_BEGIN
 90
        0
 91
        1
 62
     0
 92
       -2
340
0
 93
        0
 40
0.045
309
GRIDFORMAT_END
309
TABLEFORMAT_END
  1
CELLSTYLE_BEGIN
 90
        2
 91
        1
300
_HEADER
309
CELLSTYLE_END
300
CELLSTYLE
  1
TABLEFORMAT_BEGIN
 90
        5
170
     1
 91
        0
 92
        0
 62
   257
 93
        1
300
CONTENTFORMAT
  1
CONTENTFORMAT_BEGIN
 90
        0
 91
        0
 92
      512
 93
        0
300

 40
0.0
140
1.0
 94
        2
 62
     0
340
11
144
0.18
309
CONTENTFORMAT_END
171
     0
 94
        6
 95
        1
302
GRIDFORMAT
  1
GRIDFORMAT_BEGIN
 90
        0
 91
        1
 62
     0
 92
       -2
340
0
 93
        0
 40
0.045
309
GRIDFORMAT_END
 95
        2
302
GRIDFORMAT
  1
GRIDFORMAT_BEGIN
 90
        0
 91
        1
 62
     0
 92
       -2
340
0
 93
        0
 40
0.045
309
GRIDFORMAT_END
 95
        4
302
GRIDFORMAT
  1
GRIDFORMAT_BEGIN
 90
        0
 91
        1
 62
     0
 92
       -2
340
0
 93
        0
 40
0.045
309
GRIDFORMAT_END
 95
        8
302
GRIDFORMAT
  1
GRIDFORMAT_BEGIN
 90
        0
 91
        1
 62
     0
 92
       -2
340
0
 93
        0
 40
0.045
309
GRIDFORMAT_END
 95
       16
302
GRIDFORMAT
  1
GRIDFORMAT_BEGIN
 90
        0
 91
        1
 62
     0
 92
       -2
340
0
 93
        0
 40
0.045
309
GRIDFORMAT_END
 95
       32
302
GRIDFORMAT
  1
GRIDFORMAT_BEGIN
 90
        0
 91
        1
 62
     0
 92
       -2
340
0
 93
        0
 40
0.045
309
GRIDFORMAT_END
309
TABLEFORMAT_END
  1
CELLSTYLE_BEGIN
 90
        3
 91
        2
300
_DATA
309
CELLSTYLE_END
  0
ENDSEC
  0
EOF
